<?xml version="1.0" standalone="no"?>
<!DOCTYPE svg PUBLIC "-//W3C//DTD SVG 1.1//EN" "http://www.w3.org/Graphics/SVG/1.1/DTD/svg11.dtd" >
<svg xmlns="http://www.w3.org/2000/svg" xmlns:xlink="http://www.w3.org/1999/xlink" version="1.1">
<metadata>
Created by FontForge 20201107 at Fri Sep 10 18:37:55 2021
 By 
Copyright 2020 The Jost Project Authors (https://github.com/indestructible-type/Jost)
</metadata>
<defs>
<font id="Jost-BoldItalic" horiz-adv-x="557" >
  <font-face 
    font-family="Jost"
    font-weight="700"
    font-style="italic"
    font-stretch="normal"
    units-per-em="1000"
    panose-1="0 0 0 0 0 0 0 0 0 0"
    ascent="800"
    descent="-200"
    x-height="460"
    cap-height="700"
    bbox="-217 -364 1756.88 1051"
    underline-thickness="50"
    underline-position="-125"
    slope="-5"
    unicode-range="U+000D-FF19"
  />
<missing-glyph horiz-adv-x="500" 
 />
    <glyph glyph-name=".notdef" horiz-adv-x="500" 
 />
    <glyph glyph-name="uni0000" horiz-adv-x="301" 
 />
    <glyph glyph-name="uni0000" horiz-adv-x="301" 
 />
    <glyph glyph-name="uni000D" unicode="&#xd;" horiz-adv-x="301" 
 />
    <glyph glyph-name="space" unicode=" " horiz-adv-x="301" 
 />
    <glyph glyph-name="exclam" unicode="!" horiz-adv-x="333" 
d="M167 700l-49 -469h123l110 469h-184zM57 62q0 -38 27 -62t67 -24q42 0 68.5 24t26.5 62t-26.5 62t-68.5 24q-40 0 -67 -24t-27 -62z" />
    <glyph glyph-name="quotedbl" unicode="&#x22;" horiz-adv-x="503" 
d="M191 700l-91 -318h99l153 318h-161zM396 700l-92 -318h100l152 318h-160z" />
    <glyph glyph-name="numbersign" unicode="#" horiz-adv-x="647" 
d="M117 413l142 -1l27 6h198l27 -6h147l21 121h-543zM35 172h543l21 121h-127l-30 -6h-223l-30 6h-133zM549 700l-86 -213l-6 -31l-84 -206l-16 -26l-92 -224h132l285 700h-133zM316 700l-284 -700h130l93 226l4 25l84 205l18 32l87 212h-132z" />
    <glyph glyph-name="dollar" unicode="$" horiz-adv-x="603" 
d="M362 818l-22 -181h110l35 181h-123zM253 62l-34 -174h121l22 174h-109zM497 490l133 71q-19 43 -49.5 76.5t-75 53.5t-106.5 19q-64 0 -122 -24t-96.5 -66t-46.5 -98q-7 -58 15.5 -101t61 -72t77.5 -46q31 -13 60.5 -27t47 -33t12.5 -48q-3 -22 -16.5 -37.5t-34 -23.5
t-46.5 -8q-37 0 -63 16t-45.5 44.5t-35.5 64.5l-127 -82q20 -50 56.5 -90.5t87 -64t110.5 -24.5q75 0 136.5 23.5t102.5 70t50 112.5q7 55 -10.5 96.5t-52.5 72t-81 48.5q-24 10 -49.5 19.5t-46.5 21t-32 28t-7 39.5q3 19 15.5 33.5t31.5 23t42 8.5q27 0 46 -13.5t33 -35
t25 -47.5z" />
    <glyph glyph-name="percent" unicode="%" horiz-adv-x="892" 
d="M85 535q-7 -48 11.5 -90.5t56.5 -68t90 -25.5q53 0 98.5 25t76 67t37.5 91t-11.5 91t-56.5 68t-91 26q-52 0 -97.5 -25t-75.5 -67t-38 -92zM207 534q2 16 13 31.5t27 25.5t34 10q20 0 31.5 -10t17 -25t3.5 -30q-2 -17 -13 -32.5t-27 -25t-34 -9.5q-19 0 -31.5 10
t-17.5 25t-3 30zM503 167q-7 -49 11.5 -91t56.5 -68t90 -26q53 0 98.5 25.5t76 67t36.5 91.5q7 49 -11 91t-56 68t-90 26q-53 0 -98.5 -25t-76 -67t-37.5 -92zM625 166q3 18 14.5 33t27.5 24.5t34 9.5q17 -1 29 -10.5t17.5 -24.5t3.5 -31q-3 -18 -14 -33.5t-27 -24.5t-35 -8
q-17 0 -29 9.5t-17.5 24.5t-3.5 31zM720 700l-640 -700h157l642 700h-159z" />
    <glyph glyph-name="ampersand" unicode="&#x26;" horiz-adv-x="730" 
d="M259 372l272 -372h163l-297 400q-18 25 -35.5 47t-26.5 43.5t-5 43.5q3 17 13 31t26 23t36 9q19 0 32 -9.5t18.5 -23.5t3.5 -29q-3 -24 -23 -44.5t-49 -38t-61 -32.5q-27 -13 -62 -26.5t-70 -30.5t-65.5 -41t-52 -56.5t-26.5 -77.5q-9 -61 19 -106t79 -69.5t113 -25.5
q73 0 138 24.5t121.5 64.5t104.5 89t88 97l-92 78q-31 -39 -68 -80t-79.5 -74.5t-88 -53t-92.5 -17.5q-29 1 -49.5 12.5t-30 30.5t-6.5 43q5 31 25.5 51.5t49.5 35.5t61 28t57 28q50 29 92 58t70 63t34 83q7 46 -14 84.5t-62.5 61.5t-98.5 23q-59 0 -110 -23t-83.5 -62
t-39.5 -87q-4 -34 6 -63.5t28 -56.5t37 -53z" />
    <glyph glyph-name="quotesingle" unicode="'" horiz-adv-x="298" 
d="M191 700l-91 -318h99l153 318h-161z" />
    <glyph glyph-name="parenleft" unicode="(" horiz-adv-x="331" 
d="M284 780q-74 -111 -122.5 -235t-68.5 -255q-18 -124 -7.5 -248t52.5 -242h133q-35 118 -42.5 242.5t11.5 247.5q21 131 68.5 253.5t111.5 235.5z" />
    <glyph glyph-name="parenright" unicode=")" horiz-adv-x="331" 
d="M103 -199q74 111 122.5 235t68.5 254q18 124 7 248.5t-53 242.5h-133q36 -118 43.5 -243t-11.5 -248q-21 -130 -68 -252.5t-113 -236.5h137z" />
    <glyph glyph-name="asterisk" unicode="*" horiz-adv-x="575" 
d="M557 603l-224 -102l12 -72l234 42zM504 314l-135 172l-62 -40l74 -213zM224 235l142 206l-55 45l-186 -167zM103 473l222 -43l33 68l-194 104zM311 700l-7 -235l73 1l73 234h-139z" />
    <glyph glyph-name="plus" unicode="+" horiz-adv-x="654" 
d="M69 197l530 -1l25 146h-531zM315 540l-92 -542h153l94 542h-155z" />
    <glyph glyph-name="comma" unicode="," horiz-adv-x="314" 
d="M106 109l-130 -256l113 -24l164 247z" />
    <glyph glyph-name="hyphen" unicode="-" horiz-adv-x="216" 
d="M6 172h209l23 131h-209z" />
    <glyph glyph-name="period" unicode="." horiz-adv-x="313" 
d="M50 68q0 -38 27 -65t67 -27q42 0 68 27t26 65t-26 65t-68 27q-40 0 -67 -27t-27 -65z" />
    <glyph glyph-name="slash" unicode="/" horiz-adv-x="590" 
d="M524 700l-564 -849h152l560 849h-148z" />
    <glyph glyph-name="zero" unicode="0" horiz-adv-x="642" 
d="M231 350q6 40 19.5 79t34.5 70.5t49 50t62 18.5q27 -1 44 -14.5t26.5 -36t12.5 -50.5t2 -58.5t-4 -58.5q-5 -40 -19 -78.5t-35 -70.5t-49 -50.5t-62 -17.5q-27 1 -44 14.5t-26.5 36t-12.5 50t-2 58t4 58.5zM70 350q-6 -56 -2.5 -109t19 -99t43.5 -80.5t69.5 -54.5
t97.5 -20q71 0 129 28.5t102 78.5t72 115.5t38 140.5q7 56 4 110t-18.5 99.5t-43.5 80t-69.5 54t-99.5 19.5q-69 0 -127 -28t-102 -78.5t-72.5 -116t-39.5 -140.5z" />
    <glyph glyph-name="one" unicode="1" horiz-adv-x="494" 
d="M121 497l177 42l-92 -539h160l123 715l-341 -69z" />
    <glyph glyph-name="two" unicode="2" horiz-adv-x="637" 
d="M0 0h580l24 155l-270 1l180 145q47 37 82 85t43 106q9 58 -18 109t-82 82t-129 31q-87 1 -151 -36.5t-103.5 -99.5t-52.5 -136h163q8 33 24 62t41.5 47.5t59.5 17.5q28 0 46 -13t25.5 -33t3.5 -42q-4 -30 -21 -56t-41.5 -51t-51.5 -51z" />
    <glyph glyph-name="three" unicode="3" horiz-adv-x="602" 
d="M302 340q55 1 108.5 10.5t97.5 30t73.5 54.5t37.5 84q8 58 -18.5 101.5t-78 68.5t-119.5 24q-71 0 -127.5 -28.5t-93 -77.5t-47.5 -111l153 -1q7 23 21 42t35 30.5t47 10.5q23 0 38 -9.5t21.5 -24.5t3.5 -35q-3 -28 -25 -48.5t-52.5 -32t-64.5 -13.5zM293 -16
q76 0 139 25t105 71.5t50 110.5q8 56 -13 94.5t-61 61t-93.5 33.5t-110.5 12l-12 -86q30 -1 55.5 -7t43.5 -18t26.5 -29.5t3.5 -43.5q-4 -28 -20.5 -48t-41 -30t-53.5 -9q-30 0 -50 13t-29.5 35.5t-7.5 52.5h-162q-5 -64 20.5 -118.5t79 -86.5t131.5 -33z" />
    <glyph glyph-name="four" unicode="4" horiz-adv-x="677" 
d="M5 125l627 -1l25 144h-145l-21 -21h-241l175 201l-44 -261l-20 -11l-30 -176h173l120 700h-127z" />
    <glyph glyph-name="five" unicode="5" horiz-adv-x="625" 
d="M606 224q8 63 -13 115t-63 82.5t-101 31.5q-32 0 -62 -6.5t-58 -18.5l63 126h270l23 146h-396l-154 -403q51 22 102.5 33.5t98.5 9.5q31 0 58.5 -11t43 -32t10.5 -54q-5 -34 -26.5 -56t-54 -33.5t-69.5 -11.5q-42 0 -83.5 21t-76.5 54l-82 -138q50 -40 114 -66t148 -26
q53 0 104.5 15.5t95 45t72.5 74t36 102.5z" />
    <glyph glyph-name="six" unicode="6" horiz-adv-x="650" 
d="M232 246q5 33 24.5 60t48.5 43.5t63 15.5q33 0 55 -17t32 -43.5t5 -58.5q-5 -33 -24.5 -60t-48.5 -42t-63 -15q-32 1 -54.5 16.5t-32.5 42t-5 58.5zM410 697l-235 -257q-38 -41 -68.5 -89t-38.5 -105q-10 -79 19.5 -138t88 -91.5t134.5 -32.5q78 0 145.5 32t113 90.5
t54.5 139.5q7 62 -15 113.5t-65 82.5t-100 31q-35 0 -62 -10t-54 -32l38 15l261 251h-216z" />
    <glyph glyph-name="seven" unicode="7" horiz-adv-x="585" 
d="M94 542h312l-348 -542h182l438 700h-559z" />
    <glyph glyph-name="eight" unicode="8" horiz-adv-x="608" 
d="M137 532q-6 -46 8.5 -81t44.5 -59t69.5 -36.5t81.5 -12.5q43 0 86 12t79.5 36t61 59t30.5 81q7 43 -7.5 77.5t-44 58.5t-69 36.5t-82.5 12.5q-62 0 -117.5 -21.5t-93 -63t-47.5 -99.5zM289 514q5 22 17.5 40t32 29.5t43.5 11.5q22 0 36 -11.5t20 -29.5t3 -39
q-3 -20 -16.5 -38.5t-33.5 -29.5t-43 -11q-21 0 -35.5 11t-20 29t-3.5 38zM55 191q-7 -47 9 -85.5t48.5 -65.5t76 -41.5t90.5 -14.5q50 0 98 14t87.5 40.5t66.5 65t34 86.5q7 51 -10.5 90t-51.5 64.5t-76.5 38.5t-86.5 13q-46 0 -93 -12.5t-88 -38t-68.5 -64t-35.5 -90.5z
M224 215q4 24 19.5 45t39 34t50.5 13q25 0 42.5 -13.5t25.5 -34t4 -43.5q-4 -27 -20 -48.5t-39.5 -33.5t-51.5 -12q-25 0 -42.5 12.5t-24.5 34t-3 46.5z" />
    <glyph glyph-name="nine" unicode="9" horiz-adv-x="650" 
d="M492 455q-5 -33 -24.5 -60t-48.5 -43t-63 -16q-32 0 -55 17t-32 44t-5 57q5 34 24.5 60.5t48.5 42.5t63 15q33 0 55 -16t32 -42.5t5 -58.5zM313 4l236 256q38 41 68 89t38 105q11 80 -18.5 138.5t-88 91t-134.5 32.5q-78 0 -146 -31.5t-112.5 -90t-54.5 -140.5
q-7 -61 14.5 -112.5t65.5 -82.5t100 -31q34 -1 61 9.5t55 32.5l-39 -15l-260 -251h215z" />
    <glyph glyph-name="colon" unicode=":" horiz-adv-x="313" 
d="M47 68q0 -38 27 -65t67 -27q42 0 68 27t26 65t-26 65t-68 27q-40 0 -67 -27t-27 -65zM111 442q0 -38 26.5 -65t67.5 -27q42 0 68 27t26 65t-26 65t-68 27q-41 0 -67.5 -27t-26.5 -65z" />
    <glyph glyph-name="semicolon" unicode=";" horiz-adv-x="381" 
d="M160 436q0 -38 27 -65t67 -27q42 0 68 27t26 65q0 37 -26 64.5t-68 27.5q-40 0 -67 -27.5t-27 -64.5zM127 109l-129 -256l112 -24l163 247z" />
    <glyph glyph-name="less" unicode="&#x3c;" horiz-adv-x="621" 
d="M290 264l307 112l28 154l-536 -215l-17 -100l461 -214l24 142z" />
    <glyph glyph-name="equal" unicode="=" horiz-adv-x="608" 
d="M40 84h503l23 131h-503zM75 290h503l23 131h-503z" />
    <glyph glyph-name="greater" unicode="&#x3e;" horiz-adv-x="621" 
d="M367 264l-307 -113l-27 -154l535 215l17 100l-460 215l-25 -143z" />
    <glyph glyph-name="question" unicode="?" horiz-adv-x="608" 
d="M466 501q-7 -33 -34.5 -60.5t-69.5 -43.5t-91 -18h-30l-10 -178h123l20 84q56 12 107.5 39t88.5 71.5t46 104.5q7 49 -8 89.5t-45.5 69.5t-73 44.5t-90.5 15.5q-86 1 -154.5 -35t-125.5 -93l89 -86q33 37 76.5 62.5t92.5 24.5q32 0 53 -11.5t31 -31.5t5 -48zM172 59
q0 -34 26.5 -58t66.5 -24q39 0 65.5 24t26.5 58t-26.5 58.5t-65.5 24.5q-40 0 -66.5 -24.5t-26.5 -58.5z" />
    <glyph glyph-name="at" unicode="@" horiz-adv-x="747" 
d="M334 320q3 25 17 52t34 45t41 15q14 -1 22 -11t9.5 -24.5t0.5 -32.5q-4 -25 -18.5 -52.5t-35 -44.5t-40.5 -14q-14 1 -21.5 11t-9 25t0.5 31zM216 314q-5 -42 4.5 -78.5t34.5 -58.5t67 -22q47 -1 86.5 29t65 79t32.5 107q4 37 -4.5 73.5t-31.5 61.5t-62 25
q-46 1 -88 -29.5t-70 -80t-34 -106.5zM45 320q-10 -70 2.5 -132.5t48.5 -110t94 -75t138 -27.5q68 -1 125.5 13.5t107.5 38.5l-24 91q-45 -19 -91.5 -31.5t-97.5 -11.5q-78 1 -124.5 33t-63 88t-5.5 124q10 62 38.5 117t72 97t99.5 65.5t122 23.5q54 0 90.5 -19.5t57.5 -53
t27 -74.5t-2 -85q-2 -29 -11.5 -57t-23.5 -50t-29.5 -34t-29.5 -8q-9 2 -12.5 8t-4 14.5t0.5 16.5q2 7 3.5 14t3.5 13l61 212h-113l-61 -224l9 -31q-4 -32 4 -59.5t30 -44t58 -17.5q42 -1 79.5 17t68 51.5t50.5 79t27 98.5q9 61 -4.5 120.5t-49 107.5t-91 76t-131.5 28
q-86 0 -161.5 -31.5t-136 -87.5t-100 -129t-51.5 -154z" />
    <glyph glyph-name="A" unicode="A" horiz-adv-x="713" 
d="M174 135h362l11 129h-340zM405 443l58 -227l-11 -42l51 -174h183l-230 747l-488 -747h192l115 179l-1 38z" />
    <glyph glyph-name="B" unicode="B" horiz-adv-x="644" 
d="M225 349h134q65 0 122.5 19t97 57t47.5 97q7 45 -8 78.5t-46.5 55.5t-73.5 33t-89 11h-246l-120 -700h273q74 0 137 20t105 64t52 113q7 52 -11 89.5t-53 62t-80 36t-92 11.5h-140l-17 -92h131q29 0 52 -8.5t35 -27t7 -47.5q-5 -31 -24.5 -51t-47.5 -29t-60 -10h-78
l76 438h69q38 0 59 -18.5t14 -52.5q-3 -24 -18.5 -41t-38 -26t-49.5 -9h-106z" />
    <glyph glyph-name="C" unicode="C" horiz-adv-x="680" 
d="M246 350q8 45 30 82.5t55 65t73 42.5t84 15q64 0 109 -25.5t76 -66.5l28 182q-42 34 -90.5 53t-114.5 18q-83 0 -156 -27.5t-131 -76.5t-95.5 -116t-49.5 -146q-11 -76 7 -142.5t59.5 -117t106 -78.5t144.5 -28q69 0 122 19.5t100 51.5l27 181q-43 -35 -97.5 -63
t-124.5 -27q-43 0 -76 16t-55 44t-30 65t-1 79z" />
    <glyph glyph-name="D" unicode="D" horiz-adv-x="711" 
d="M163 700l-119 -700h171l120 700h-172zM293 0q83 0 154 25.5t126.5 71.5t91.5 110t48 143q11 76 -5.5 140.5t-58 111t-104 72.5t-143.5 26h-130l-27 -150h135q42 0 75.5 -13t54.5 -39t29.5 -63t1.5 -85q-11 -66 -45.5 -110.5t-84.5 -67t-108 -22.5h-125l-26 -150h141z" />
    <glyph glyph-name="E" unicode="E" horiz-adv-x="585" 
d="M152 0h346l24 139h-346zM248 561h345l25 139h-345zM203 300h326l24 136h-326zM163 700l-119 -700h159l121 700h-161z" />
    <glyph glyph-name="F" unicode="F" horiz-adv-x="537" 
d="M247 555h306l26 145h-306zM200 281h297l24 136h-297zM163 700l-119 -700h159l121 700h-161z" />
    <glyph glyph-name="G" unicode="G" horiz-adv-x="790" 
d="M423 253h175q-14 -27 -33 -50.5t-43 -40.5t-54 -26.5t-68 -9.5q-47 0 -80.5 18t-54 49.5t-27 71.5t-0.5 85q8 47 30.5 87t55.5 69.5t74 46t87 16.5q55 0 90 -26.5t54 -69.5l156 76q-43 76 -113.5 122t-170.5 45q-82 0 -156 -27t-132.5 -76t-97 -116t-51.5 -147
q-11 -77 6.5 -144.5t60 -118.5t106.5 -80t145 -29q91 0 162.5 32.5t123 89t82 129.5t39.5 154h-344z" />
    <glyph glyph-name="H" unicode="H" horiz-adv-x="763" 
d="M139 294h517l26 151h-516zM619 700l-119 -700h165l121 700h-167zM163 700l-119 -700h165l121 700h-167z" />
    <glyph glyph-name="I" unicode="I" horiz-adv-x="310" 
d="M163 700l-119 -700h169l120 700h-170z" />
    <glyph glyph-name="J" unicode="J" horiz-adv-x="321" 
d="M-112 -64l-105 -117q34 -23 79.5 -40t99.5 -17q62 0 115.5 19.5t90.5 61t47 103.5l128 754h-180l-123 -715q-5 -36 -28.5 -58.5t-51.5 -23.5q-20 -1 -38.5 9.5t-33.5 23.5z" />
    <glyph glyph-name="K" unicode="K" horiz-adv-x="678" 
d="M163 700l-119 -700h172l120 700h-173zM561 700l-331 -329l226 -371h195l-226 369l337 331h-201z" />
    <glyph glyph-name="L" unicode="L" horiz-adv-x="512" 
d="M163 700l-120 -700h439l26 145h-273l95 555h-167z" />
    <glyph glyph-name="M" unicode="M" horiz-adv-x="864" 
d="M283 356l135 -292l232 286l-19 -350h174l18 740l-367 -430l-216 425l-237 -735h177z" />
    <glyph glyph-name="N" unicode="N" horiz-adv-x="770" 
d="M632 700l-68 -395l-396 428l-125 -733h161l68 395l395 -428l126 733h-161z" />
    <glyph glyph-name="O" unicode="O" horiz-adv-x="797" 
d="M240 350q7 44 27.5 82t51 67.5t69.5 45.5t84 16t76.5 -17.5t50 -47.5t24.5 -67.5t0 -78.5q-7 -43 -27.5 -81.5t-51.5 -67.5t-70 -45.5t-84 -15.5q-44 0 -75.5 17.5t-50 47t-24.5 67t0 78.5zM64 350q-10 -75 6 -142t57 -118.5t103.5 -81.5t142.5 -30q81 0 153 28.5
t129.5 79.5t94.5 118.5t49 145.5q10 75 -7 141.5t-58.5 117t-104 79t-141.5 28.5t-151 -27.5t-129 -77.5t-94.5 -116.5t-49.5 -144.5z" />
    <glyph glyph-name="P" unicode="P" horiz-adv-x="604" 
d="M163 700l-119 -700h165l121 700h-167zM243 562h137q30 0 51 -11t31 -31t4 -48q-5 -29 -22.5 -49t-44.5 -30.5t-58 -10.5h-129l-25 -139h140q82 0 146.5 27t104.5 78.5t48 122.5q8 72 -17.5 123t-80 78t-133.5 28h-129z" />
    <glyph glyph-name="Q" unicode="Q" horiz-adv-x="838" 
d="M240 350q7 44 28 82t52 67.5t70.5 45.5t84.5 16q49 -1 83 -20.5t54 -53t26 -74t0 -82.5q-8 -43 -29 -80t-52 -65t-70 -43t-84 -15t-79 18t-54.5 49t-28.5 71t-1 84zM64 350q-10 -75 6.5 -142.5t58 -118.5t104.5 -81t143 -30q81 0 153 28.5t128 79.5t93 118.5t49 145.5
q10 75 -6.5 141.5t-57.5 116.5t-102.5 79t-140.5 29q-80 0 -152 -27.5t-130 -77.5t-96 -116.5t-50 -144.5zM373 300l268 -312h171l-275 312h-164z" />
    <glyph glyph-name="R" unicode="R" horiz-adv-x="628" 
d="M270 317l136 -317h189l-157 317h-168zM163 700l-119 -700h165l121 700h-167zM242 557h137q30 0 51.5 -11.5t31 -31.5t4.5 -48q-5 -29 -23 -50t-44.5 -31.5t-58.5 -10.5h-129l-24 -131h152q81 0 145 27.5t104.5 79.5t50.5 121q9 70 -17.5 121t-81 79.5t-133.5 28.5h-141z
" />
    <glyph glyph-name="S" unicode="S" horiz-adv-x="607" 
d="M156 246l-124 -84q18 -52 56 -94t91 -66t117 -24q69 0 131.5 27.5t104 78.5t48.5 121q4 54 -13.5 94t-52 68.5t-80.5 45.5q-25 10 -49.5 20t-44 22t-30 27t-7.5 33q1 18 12.5 31.5t29.5 20.5t41 7q30 0 51 -10.5t36.5 -29t27.5 -41.5l133 69q-17 42 -48 77t-77 56
t-109 21q-68 1 -126.5 -24t-96.5 -70.5t-44 -108.5q-4 -43 9.5 -77t37 -60t52 -44.5t55.5 -29.5q36 -15 64 -28.5t43 -30t11 -43.5q-1 -21 -15 -38.5t-36 -27.5t-49 -10q-36 0 -63.5 15.5t-48 43t-37.5 63.5z" />
    <glyph glyph-name="T" unicode="T" horiz-adv-x="545" 
d="M68 549h188l-94 -549h166l95 549h186l26 151h-540z" />
    <glyph glyph-name="U" unicode="U" horiz-adv-x="680" 
d="M158 700l-79 -470q-11 -80 16 -138t84 -89t134 -31q83 0 149.5 30.5t109.5 88.5t56 139l79 470h-166l-79 -457q-6 -33 -22.5 -60.5t-44 -43.5t-66.5 -15q-35 0 -55 16.5t-26.5 44t-2.5 57.5l80 458h-167z" />
    <glyph glyph-name="V" unicode="V" horiz-adv-x="713" 
d="M381 285l-100 415h-191l243 -746l476 746h-198z" />
    <glyph glyph-name="W" unicode="W" horiz-adv-x="1033" 
d="M730 295l-118 443l-257 -441l-66 403h-194l180 -744l285 423l154 -422l410 743h-200z" />
    <glyph glyph-name="X" unicode="X" horiz-adv-x="665" 
d="M532 700l-139 -200l-73 200h-200l156 -337l-293 -363h209l163 230l88 -230h200l-171 356l270 344h-210z" />
    <glyph glyph-name="Y" unicode="Y" horiz-adv-x="640" 
d="M542 700l-176 -260l-87 260h-187l167 -412l-50 -288h169l48 281l312 419h-196z" />
    <glyph glyph-name="Z" unicode="Z" horiz-adv-x="601" 
d="M120 549h269l-411 -549h549l26 145l-285 1l416 554h-537z" />
    <glyph glyph-name="bracketleft" unicode="[" horiz-adv-x="351" 
d="M319 649h98l20 131h-247l-154 -1000h246l21 131h-98z" />
    <glyph glyph-name="backslash" unicode="\" horiz-adv-x="530" 
d="M107 700l240 -700h140l-238 700h-142z" />
    <glyph glyph-name="bracketright" unicode="]" horiz-adv-x="351" 
d="M86 -89h-98l-21 -131h247l154 1000h-247l-20 -131h98z" />
    <glyph glyph-name="asciicircum" unicode="^" horiz-adv-x="495" 
d="M322 579l53 -131h129l-120 262h-89l-210 -261h138z" />
    <glyph glyph-name="underscore" unicode="_" horiz-adv-x="515" 
d="M-54 -153h518l16 96h-518z" />
    <glyph glyph-name="grave" unicode="`" horiz-adv-x="364" 
d="M136 656l154 -152l86 40l-123 163z" />
    <glyph glyph-name="a" unicode="a" horiz-adv-x="598" 
d="M447 460l-78 -460h148l79 460h-149zM42 231q-8 -66 11.5 -120.5t62 -87t103.5 -32.5q46 0 85.5 18.5t69.5 51.5t49.5 76.5t25.5 92.5q6 47 -0.5 90t-26 77t-52 53.5t-78.5 19.5q-62 0 -115.5 -31t-89.5 -85.5t-45 -122.5zM198 230q5 32 24 59.5t47.5 43.5t59.5 15
q21 -1 36.5 -10.5t26 -26t14.5 -37t1 -43.5q-4 -24 -16 -46t-29.5 -38.5t-38.5 -25.5t-43 -8q-30 0 -50.5 16.5t-28 43.5t-3.5 57z" />
    <glyph glyph-name="b" unicode="b" horiz-adv-x="598" 
d="M311 780h-150l-133 -780h149zM581 230q8 66 -11.5 120.5t-62 87t-103.5 32.5q-46 0 -85 -18.5t-69.5 -51.5t-49.5 -76.5t-26 -92.5q-6 -47 0.5 -90.5t26 -77.5t52.5 -53.5t79 -19.5q61 0 114.5 31.5t89.5 86t45 122.5zM426 231q-5 -32 -24.5 -59.5t-47 -43.5t-59.5 -15
q-21 0 -37 9.5t-26.5 26.5t-14.5 37.5t-1 43.5q5 24 16.5 46t29.5 38t38.5 25t42.5 9q31 0 51 -17t28.5 -43.5t3.5 -56.5z" />
    <glyph glyph-name="c" unicode="c" horiz-adv-x="475" 
d="M195 230q5 34 25 60.5t50 43t66 16.5q37 0 68.5 -18t50.5 -50l20 148q-27 18 -61.5 29t-79.5 11q-74 0 -137 -30.5t-104 -84t-51 -124.5q-9 -70 18 -124t82 -85.5t126 -31.5q47 0 83 11.5t65 30.5l19 146q-26 -28 -64 -48t-80 -19q-33 1 -56.5 16.5t-34 42.5t-5.5 60z
" />
    <glyph glyph-name="d" unicode="d" horiz-adv-x="598" 
d="M500 780l-133 -780h149l135 780h-151zM42 231q-8 -66 11.5 -120.5t62 -87t103.5 -32.5q46 0 85.5 18.5t69.5 51.5t49.5 76.5t25.5 92.5q6 47 -0.5 90t-26 77t-52 53.5t-78.5 19.5q-62 0 -115.5 -31t-89.5 -85.5t-45 -122.5zM198 230q5 32 24 59.5t47.5 43.5t59.5 15
q21 -1 36.5 -10.5t26 -26t14.5 -37t1 -43.5q-4 -24 -16 -46t-29.5 -38.5t-38.5 -25.5t-43 -8q-30 0 -50.5 16.5t-28 43.5t-3.5 57z" />
    <glyph glyph-name="e" unicode="e" 
d="M275 -10q88 0 151.5 35t99.5 101l-130 33q-20 -28 -48 -44t-66 -16q-33 0 -54 15t-29.5 43t-3.5 64q5 34 14.5 61.5t25 46.5t37 29.5t48.5 10.5q26 0 42.5 -11t25 -31t8.5 -49q0 -9 -4 -20.5t-10 -21.5l35 46h-296v-84h416q5 14 8 33t3 35q0 64 -24.5 109.5t-72 70
t-117.5 24.5q-64 0 -117 -21t-91.5 -57.5t-59.5 -85.5t-21 -106q0 -65 28.5 -112t80 -72.5t121.5 -25.5z" />
    <glyph glyph-name="f" unicode="f" horiz-adv-x="334" 
d="M68 460l-22 -125h308l22 125h-308zM391 636l75 109q-20 19 -48.5 35t-71.5 16q-54 1 -94.5 -20.5t-65.5 -59t-34 -85.5l-107 -631h144l102 592q3 19 11 35t20.5 25t28.5 9q13 0 22.5 -7t17.5 -18z" />
    <glyph glyph-name="g" unicode="g" horiz-adv-x="592" 
d="M6 -32q-1 -63 23.5 -109.5t74.5 -71.5t126 -25q75 0 134 29t98 84.5t51 134.5l77 450h-144l-78 -449q-5 -38 -24 -67t-47.5 -45t-63.5 -16q-28 0 -47 10.5t-28 29t-10 44.5zM43 237q-8 -66 12 -119t63 -84t104 -31q45 0 84.5 17.5t69 49.5t49 74.5t25.5 91.5
q6 48 -0.5 90t-26.5 74t-52.5 51t-78.5 19q-61 0 -114.5 -29.5t-89 -82.5t-45.5 -121zM198 236q6 32 24.5 57.5t46 40.5t60.5 14q20 0 36.5 -8.5t27 -24t14.5 -35t1 -43.5q-4 -24 -16 -45t-29.5 -36t-38 -23.5t-41.5 -7.5q-31 1 -51.5 15.5t-29 39.5t-4.5 56z" />
    <glyph glyph-name="h" unicode="h" horiz-adv-x="551" 
d="M313 780h-150l-134 -780h150zM368 280l-49 -280h149l52 302q7 51 -3 90.5t-40.5 62t-85.5 22.5q-57 0 -96.5 -28t-62.5 -72.5t-32 -95.5l27 -1q5 23 18 42.5t32.5 31.5t43.5 10t35 -13.5t13 -30t-1 -40.5z" />
    <glyph glyph-name="i" unicode="i" horiz-adv-x="268" 
d="M127 633q0 -36 26 -59t62 -23q37 0 62.5 23t25.5 59t-25.5 58.5t-62.5 22.5q-36 0 -62 -22.5t-26 -58.5zM113 460l-78 -460h145l78 460h-145z" />
    <glyph glyph-name="j" unicode="j" horiz-adv-x="264" 
d="M123 633q0 -36 25.5 -59t61.5 -23q37 0 62.5 23t25.5 59t-25.5 58.5t-62.5 22.5q-36 0 -61.5 -22.5t-25.5 -58.5zM-76 -77l-75 -109q21 -20 50 -36t72 -16q55 0 95 21t64.5 59t32.5 86l91 532h-144l-85 -494q-2 -18 -9.5 -33.5t-19.5 -25.5t-29 -10q-13 0 -24.5 7.5
t-18.5 18.5z" />
    <glyph glyph-name="k" unicode="k" horiz-adv-x="559" 
d="M161 780l-133 -780h143l134 780h-144zM407 460l-219 -186l168 -274h169l-165 265l231 195h-184z" />
    <glyph glyph-name="l" unicode="l" horiz-adv-x="262" 
d="M162 780l-132 -780h148l135 780h-151z" />
    <glyph glyph-name="m" unicode="m" horiz-adv-x="796" 
d="M763 296q6 49 -1.5 88.5t-34 63t-80.5 23.5q-48 0 -87 -21.5t-68 -57.5q-5 24 -19 42t-37.5 27.5t-58.5 9.5q-30 0 -55 -9.5t-45 -25.5t-35 -39l10 63h-144l-79 -460h144l49 284q4 25 15.5 42.5t28.5 27.5t38 10q20 0 29 -12.5t11 -31t-1 -39.5l-50 -281h149l48 281
q4 26 15.5 44t29 28.5t38.5 10.5q22 0 30.5 -12.5t10 -31.5t-0.5 -40l-51 -280h151z" />
    <glyph glyph-name="n" unicode="n" 
d="M368 280l-49 -280h155l51 296q7 50 -4.5 89.5t-43.5 62.5t-88 23q-48 0 -82.5 -20.5t-58.5 -54.5l10 64h-150l-79 -460h150l49 282q4 25 16 43.5t31 28.5t43 10q25 0 36.5 -12.5t14 -31t-0.5 -40.5z" />
    <glyph glyph-name="o" unicode="o" horiz-adv-x="572" 
d="M48 231q-8 -69 19 -123.5t80.5 -86t124.5 -31.5q74 0 136 31t103 85t50 124q9 69 -18 123.5t-80.5 86t-125.5 31.5t-134.5 -31t-103.5 -85t-51 -124zM201 230q5 32 23 58.5t45 42.5t57 15t50 -17.5t28.5 -42t4.5 -55.5q-5 -32 -23.5 -58.5t-45 -42t-57.5 -14.5
q-30 0 -49.5 16t-28.5 42t-4 56z" />
    <glyph glyph-name="p" unicode="p" horiz-adv-x="598" 
d="M140 -220l115 680h-148l-117 -680h150zM581 230q8 67 -10.5 123.5t-61 89.5t-104.5 33q-48 0 -86.5 -20t-67 -54t-46.5 -78t-25 -94q-6 -47 -1 -90.5t22 -78.5t49.5 -56t79.5 -21q62 0 116 32t90 88t45 126zM426 231q-5 -32 -24.5 -58t-47 -40.5t-58.5 -13.5q-21 1 -37 9
t-26.5 23.5t-15 35t-1.5 42.5q5 25 16.5 45.5t29 36t38.5 24t42 7.5q30 0 50.5 -15.5t29.5 -40.5t4 -55z" />
    <glyph glyph-name="q" unicode="q" horiz-adv-x="598" 
d="M330 -220h149l117 680h-150zM42 231q-8 -68 11 -124t61.5 -89t104.5 -33q47 0 85.5 19.5t67 53.5t47 78.5t25.5 93.5q6 47 1 90.5t-22.5 79t-49.5 56t-80 20.5q-62 1 -115.5 -31t-90 -88t-45.5 -126zM198 229q5 32 24 58t47 41t58 14q21 -1 37.5 -9.5t27 -23.5t14.5 -35
t1 -43q-4 -24 -16 -45t-29.5 -36.5t-38 -23.5t-42.5 -7q-29 0 -49.5 15t-29 40t-4.5 55z" />
    <glyph glyph-name="r" unicode="r" horiz-adv-x="403" 
d="M255 460h-147l-79 -460h147zM363 305l82 126q-14 18 -33.5 29t-44.5 11q-40 0 -76.5 -27.5t-63 -71t-35.5 -91.5l23 -53q4 27 17 50.5t33 38t45 13.5q17 0 29.5 -7.5t23.5 -17.5z" />
    <glyph glyph-name="s" unicode="s" horiz-adv-x="443" 
d="M88 166l-74 -98q30 -23 65 -43.5t76 -32t88 -11.5q51 1 91 18.5t64.5 51t27.5 81.5q3 40 -12.5 66t-42 44t-59.5 31q-23 9 -45 17.5t-34.5 18.5t-10.5 26q1 15 14.5 23.5t34.5 8.5q32 0 63.5 -18t56.5 -44l62 97q-38 28 -84.5 48t-103.5 20q-45 0 -85 -15t-65.5 -44
t-28.5 -74q-4 -39 11.5 -66.5t42 -45.5t56.5 -29q25 -9 44 -17.5t30 -19.5t9 -27q0 -17 -14 -28.5t-35 -11.5q-22 -1 -45 7.5t-47 26t-50 40.5z" />
    <glyph glyph-name="t" unicode="t" horiz-adv-x="308" 
d="M56 460l-22 -125h301l22 125h-301zM161 620l-106 -620h143l108 620h-145z" />
    <glyph glyph-name="u" unicode="u" 
d="M214 180l50 280h-155l-51 -296q-7 -50 4 -89.5t43.5 -62t87.5 -22.5q48 0 83 20.5t59 54.5l-11 -65h150l79 460h-149l-50 -283q-4 -25 -17 -43t-32 -28t-44 -10q-24 0 -34.5 12.5t-12.5 31.5t0 40z" />
    <glyph glyph-name="v" unicode="v" horiz-adv-x="512" 
d="M52 460l179 -515l341 515h-161l-141 -252l-61 252h-157z" />
    <glyph glyph-name="w" unicode="w" horiz-adv-x="738" 
d="M46 460l146 -491l193 273l100 -273l316 491h-160l-134 -234l-83 272l-175 -270l-51 232h-152z" />
    <glyph glyph-name="x" unicode="x" horiz-adv-x="516" 
d="M395 460l-101 -120l-63 120h-166l135 -216l-221 -244h176l108 136l75 -136h160l-143 232l209 228h-169z" />
    <glyph glyph-name="y" unicode="y" horiz-adv-x="505" 
d="M570 460h-157l-206 -367l77 -2l-82 369h-159l122 -418l-157 -261h154z" />
    <glyph glyph-name="z" unicode="z" horiz-adv-x="506" 
d="M273 323l-289 -323h451l24 137h-190l279 323h-442l-24 -137h191z" />
    <glyph glyph-name="braceleft" unicode="{" horiz-adv-x="387" 
d="M336 610q4 22 18.5 36.5t36.5 14.5h34l17 119h-93q-42 -1 -79.5 -16.5t-62.5 -46t-33 -76.5l-28 -186q-7 -47 -24 -72t-51 -38l-16 -110q32 -15 39.5 -39t2.5 -71l-28 -185q-6 -45 11.5 -76t51 -47t74.5 -17l86 1l17 119l-36 1q-15 0 -24 6.5t-12.5 18t-1.5 24.5l20 120
q5 34 6 69t-8 65.5t-34.5 51t-72.5 25.5l-3 -20q49 4 80 22.5t49.5 48t28.5 65.5t17 73z" />
    <glyph glyph-name="bar" unicode="|" horiz-adv-x="342" 
d="M200 785l-154 -1000h150l154 1000h-150z" />
    <glyph glyph-name="braceright" unicode="}" horiz-adv-x="387" 
d="M109 -30q-4 -22 -18 -36t-37 -14h-33l-18 -120h94q42 1 79 17t62.5 46.5t32.5 76.5l28 185q6 48 23.5 73t51.5 38l16 109q-32 15 -39.5 39t-2.5 71l28 185q7 46 -11 77t-51.5 47t-74.5 16h-85l-17 -120h35q15 0 24 -7t12.5 -17.5t1.5 -24.5l-20 -120q-5 -34 -6 -69.5
t8.5 -66t34.5 -50.5t72 -25l3 20q-49 -3 -80 -22.5t-49 -49t-28.5 -65t-16.5 -72.5z" />
    <glyph glyph-name="asciitilde" unicode="~" horiz-adv-x="558" 
d="M162 163q-1 7 -1.5 14t0.5 15q4 16 16.5 30t33.5 15q13 1 25.5 -3.5t25 -12.5t24.5 -17q29 -21 56 -35.5t57 -14.5q37 -1 66 13.5t50 38.5q18 21 28 46t12 50q2 7 1.5 14.5t-1.5 13.5l-119 6q2 -8 3 -16.5t-1 -17.5q-3 -14 -14 -26.5t-26 -12.5t-30.5 11t-32.5 23
q-29 22 -55.5 35.5t-59.5 13.5q-44 0 -76 -16t-56 -43q-18 -20 -29 -44t-14 -49q-1 -7 -1 -13t1 -12z" />
    <glyph glyph-name="uni00A0" unicode="&#xa0;" horiz-adv-x="301" 
 />
    <glyph glyph-name="exclamdown" unicode="&#xa1;" horiz-adv-x="333" 
d="M192 -229l49 468h-121l-112 -468h184zM301 408q6 37 -18 61.5t-62 25.5q-38 0 -68.5 -24.5t-35.5 -60.5q-4 -37 19 -61.5t62 -24.5q38 -1 68.5 23.5t34.5 60.5z" />
    <glyph glyph-name="cent" unicode="&#xa2;" horiz-adv-x="563" 
d="M208 38l-36 -150h128l18 150h-110zM212 230q6 34 27.5 61t52 43t63.5 16q42 0 71 -20t47 -50l23 150q-27 19 -63 29.5t-78 10.5q-74 0 -137.5 -30.5t-105.5 -84t-52 -124.5q-10 -70 16 -124t80 -85t127 -32q43 0 80.5 11t67.5 29l21 149q-26 -26 -63 -47.5t-82 -20.5
q-33 1 -56.5 16.5t-34 42.5t-4.5 60zM291 578l-17 -150h110l36 150h-129z" />
    <glyph glyph-name="sterling" unicode="&#xa3;" horiz-adv-x="593" 
d="M100 370l-18 -100h370l19 100h-371zM476 468l141 49q1 38 -13 72t-41.5 61.5t-66.5 43.5t-89 16q-46 0 -91 -12.5t-81.5 -37t-61 -59t-30.5 -79.5q-4 -37 6 -66.5t25 -55.5t25.5 -53.5t5.5 -60.5q-9 -54 -35 -102t-63.5 -92.5t-83.5 -91.5h474l25 139h-342l-63 -87
q34 9 71 29t71 48.5t57.5 64t29.5 76.5q4 35 -5 64t-22 54.5t-21.5 51.5t-2.5 55q5 26 20 44.5t37.5 28t47.5 8.5q25 0 40.5 -10t23.5 -25.5t10.5 -35t1.5 -37.5z" />
    <glyph glyph-name="currency" unicode="&#xa4;" horiz-adv-x="560" 
d="M80 505l86 -100l66 57l-81 104zM66 35l111 98l-53 64l-111 -96zM486 404l111 97l-52 65l-113 -96zM375 137l85 -101l67 58l-82 103zM72 301q-9 -64 13 -119t69.5 -88.5t114.5 -33.5q68 0 125 32.5t95 87t48 120.5q9 64 -13 118.5t-69 88t-114 33.5q-68 0 -125.5 -32.5
t-95.5 -86.5t-48 -120zM207 299q5 29 21.5 52.5t42.5 37.5t55 14t47.5 -14.5t26 -37.5t3.5 -50q-5 -29 -22.5 -52.5t-42.5 -37t-54 -13.5q-29 1 -47.5 14.5t-26.5 37t-3 49.5z" />
    <glyph glyph-name="yen" unicode="&#xa5;" horiz-adv-x="649" 
d="M61 266l561 -1l17 100h-561zM35 116l561 -1l18 100h-562zM547 700l-178 -260l-86 260h-187l167 -411l-51 -289h171l48 283l311 417h-195z" />
    <glyph glyph-name="brokenbar" unicode="&#xa6;" horiz-adv-x="342" 
d="M188 695l-46 -264h150l46 264h-150zM265 270h-150l-46 -265h150z" />
    <glyph glyph-name="section" unicode="&#xa7;" horiz-adv-x="559" 
d="M459 550l83 96q-25 36 -72 57t-102 21q-45 0 -88.5 -17t-75 -49t-37.5 -79q-4 -27 3 -49.5t21 -40t33.5 -31t40.5 -22.5q23 -10 48 -21t41 -27t11 -43q-3 -20 -16.5 -35t-32 -24.5t-37.5 -14.5l-7 -41q39 1 77.5 9.5t71.5 26t55.5 45t28.5 66.5q5 36 -9.5 64t-41.5 48
t-62 31q-14 4 -29.5 8t-28.5 9.5t-21 13t-7 17.5q2 10 10.5 16.5t22 10.5t26.5 4q25 0 50.5 -14t43.5 -35zM123 173l-84 -96q23 -30 53 -52t70 -34.5t89 -12.5q48 1 95 17.5t80.5 50.5t40.5 84q4 37 -9 65t-38 49t-56 35q-17 7 -37 14t-38 16t-27.5 23.5t-5.5 36.5
q3 21 16.5 34t32.5 22.5t38 16.5l6 37q-39 -1 -79 -9t-74 -25.5t-56.5 -44t-27.5 -65.5q-5 -37 12.5 -65t48 -46.5t64.5 -29.5q20 -6 39.5 -12.5t32.5 -16.5t10 -27q-2 -11 -11.5 -19t-22.5 -12t-29 -4q-34 -1 -69 18t-64 52z" />
    <glyph glyph-name="dieresis" unicode="&#xa8;" horiz-adv-x="496" 
d="M360 633q-4 -35 19 -58t58 -24q34 0 63 23t33 57q4 35 -18.5 58.5t-58.5 24.5q-34 0 -63 -23.5t-33 -57.5zM124 633q-4 -35 19 -58t58 -24q34 0 63 23t33 57q4 35 -18.5 58.5t-58.5 24.5q-34 0 -63 -23.5t-33 -57.5z" />
    <glyph glyph-name="copyright" unicode="&#xa9;" horiz-adv-x="776" 
d="M317 350q6 36 27.5 63.5t52 43.5t65.5 16q39 0 65.5 -15.5t46.5 -39.5l15 109q-26 20 -55.5 31.5t-70.5 11.5q-65 0 -119.5 -28.5t-90.5 -78t-44 -112.5q-8 -62 14.5 -112t69.5 -79t111 -29q42 0 73 11.5t58 30.5l15 109q-26 -21 -58.5 -38t-74.5 -16q-34 1 -58.5 17
t-35 43.5t-6.5 61.5zM131 350q10 63 40.5 119.5t77 99.5t105 67t123.5 24t114 -25.5t81 -69.5t44.5 -99.5t3.5 -115.5q-10 -63 -40.5 -119t-77 -99t-105 -67t-124.5 -24q-64 0 -113.5 25.5t-81 69t-44 99t-3.5 115.5zM74 350q-9 -72 8.5 -137t57.5 -115t99.5 -79t134.5 -29
q77 0 145 28t122 77t89.5 114.5t45.5 140.5q9 73 -8 138t-57 115t-100 78.5t-135 28.5q-76 0 -144.5 -27.5t-122.5 -77t-89 -115t-46 -140.5z" />
    <glyph glyph-name="ordfeminine" unicode="&#xaa;" horiz-adv-x="262" 
d="M155 530q2 14 16.5 23t30.5 9q17 1 29 -4.5t25 -14.5l5 36q-11 10 -31 17.5t-44 6.5q-38 0 -70 -19.5t-37 -54.5q-4 -33 18 -53t54 -20q36 0 60 19t32 49l-3 29q-6 -22 -22.5 -35t-37.5 -13q-12 0 -19.5 7t-5.5 18zM143 625q13 6 33.5 13.5t42.5 5.5q17 -1 24 -10t8 -23
l-28 -150l73 -1l27 171q4 38 -24.5 56t-69.5 18q-29 0 -55 -8t-48 -17z" />
    <glyph glyph-name="guillemotleft" unicode="&#xab;" horiz-adv-x="525" 
d="M358 257l179 185l-84 67l-212 -249l131 -259l99 61zM160 257l180 185l-84 67l-213 -249l131 -259l100 61z" />
    <glyph glyph-name="logicalnot" unicode="&#xac;" horiz-adv-x="631" 
d="M83 273h403l-19 -98h105l40 228h-508z" />
    <glyph glyph-name="uni00AD" unicode="&#xad;" horiz-adv-x="204" 
d="M13 201h196l13 74h-197z" />
    <glyph glyph-name="registered" unicode="&#xae;" horiz-adv-x="776" 
d="M400 328l63 -178h114l-89 178h-88zM316 570l-65 -420h100l66 420h-101zM365 485h83q25 -2 40.5 -14.5t12.5 -37.5q-4 -25 -26 -38t-49 -15h-78l-12 -78l92 1q72 2 120.5 37.5t56.5 98.5q8 60 -33 95t-110 36h-84zM131 350q10 63 40.5 119.5t77 99.5t105 67t123.5 24
t114 -25.5t81 -69.5t44.5 -99.5t3.5 -115.5q-10 -63 -40.5 -119t-77 -99t-105 -67t-124.5 -24q-64 0 -113.5 25.5t-81 69t-44 99t-3.5 115.5zM74 350q-9 -72 8.5 -137t57.5 -115t99.5 -79t134.5 -29q77 0 145 28t122 77t89.5 114.5t45.5 140.5q9 73 -8 138t-57 115
t-100 78.5t-135 28.5q-76 0 -144.5 -27.5t-122.5 -77t-89 -115t-46 -140.5z" />
    <glyph glyph-name="macron" unicode="&#xaf;" horiz-adv-x="516" 
d="M147 572h364l20 131h-363z" />
    <glyph glyph-name="degree" unicode="&#xb0;" horiz-adv-x="288" 
d="M90 598q-7 -52 25 -87.5t86 -35.5q37 0 68 15.5t52.5 43t26.5 62.5t-8.5 63t-40.5 44.5t-64 16.5q-35 0 -66.5 -16t-52.5 -43.5t-26 -62.5zM163 596q3 16 13 29.5t25 22.5t30 8q23 -1 34.5 -18.5t8.5 -39.5q-2 -16 -13 -29.5t-25 -21t-30 -7.5q-23 0 -34 17.5t-9 38.5z
" />
    <glyph glyph-name="plusminus" unicode="&#xb1;" horiz-adv-x="615" 
d="M46 6h491l21 130h-492zM96 333h491l22 135h-491zM310 620l-67 -439h151l68 439h-152z" />
    <glyph glyph-name="uni00B2" unicode="&#xb2;" horiz-adv-x="396" 
d="M42 283l349 -1l16 93l-160 1l110 87q28 22 49 50t26 62q6 36 -9.5 66.5t-48 50t-77.5 19.5q-52 0 -91 -22.5t-62.5 -59.5t-33.5 -81l99 -1q6 20 16.5 37.5t26 29t36.5 10.5q16 -1 25.5 -8.5t13.5 -20t2 -24.5q-4 -28 -26 -50.5t-46 -44.5z" />
    <glyph glyph-name="uni00B3" unicode="&#xb3;" horiz-adv-x="354" 
d="M205 484q44 2 86 12t71 33t35 62q6 34 -10 60.5t-47 41.5t-71 15q-65 0 -107.5 -37t-55.5 -92l94 -1q7 20 23 34.5t39 14.5q20 0 29.5 -12t7.5 -29q-3 -17 -16 -29t-31.5 -19t-39.5 -9zM198 271q45 0 83.5 14.5t63.5 42.5t30 66q5 34 -7 57t-36.5 36.5t-56.5 20t-67 7.5
l-8 -51q24 -1 43 -7t29 -18.5t5 -32.5q-3 -24 -24.5 -39t-45.5 -14q-26 1 -38.5 17.5t-12.5 42.5h-97q-2 -38 13 -70.5t46.5 -52t79.5 -19.5z" />
    <glyph glyph-name="acute" unicode="&#xb4;" horiz-adv-x="364" 
d="M394 651l-109 55l-168 -157l82 -44z" />
    <glyph glyph-name="mu" unicode="&#xb5;" horiz-adv-x="569" 
d="M264 460h-155l-134 -780h144l57 336q15 -11 30 -15t31 -4q28 0 53 15t43 40l-9 -52h151l77 460h-145l-47 -257q-4 -24 -16 -43t-30 -29t-43 -10q-24 0 -37 10t-17 28.5t-1 41.5z" />
    <glyph glyph-name="paragraph" unicode="&#xb6;" horiz-adv-x="651" 
d="M297 271l-83 -491h130l142 827h55l-142 -827h131l157 920h-316q-64 0 -119 -25.5t-92 -73t-47 -115.5q-9 -64 13 -111t66.5 -73.5t104.5 -30.5z" />
    <glyph glyph-name="periodcentered" unicode="&#xb7;" horiz-adv-x="313" 
d="M83 269q-3 -24 6.5 -45t28.5 -34t45 -13q26 -1 48.5 11.5t38 33.5t18.5 45q3 25 -6.5 45.5t-28.5 34t-45 13.5q-26 1 -49 -12t-38 -33.5t-18 -45.5z" />
    <glyph glyph-name="cedilla" unicode="&#xb8;" horiz-adv-x="382" 
d="M160 71l-115 -193q24 8 47.5 12t37.5 3q12 0 24 -3t20 -9.5t6 -18.5q0 -11 -10 -19.5t-24 -13t-27 -4.5q-17 0 -36 7t-36 18l-53 -66q32 -21 65 -31t72 -9q32 0 63 12.5t53.5 36.5t26.5 58q6 43 -18.5 70t-58.5 28q-8 0 -16.5 -1t-16.5 -2l109 121z" />
    <glyph glyph-name="uni00B9" unicode="&#xb9;" horiz-adv-x="468" 
d="M199 572l105 25l-55 -323h98l74 429l-207 -41z" />
    <glyph glyph-name="ordmasculine" unicode="&#xba;" horiz-adv-x="270" 
d="M89 581q-7 -52 26 -86t86 -34q36 0 67.5 15t52.5 42t26 61q5 35 -9 62t-41 43t-63 16t-67.5 -15t-52 -42t-25.5 -62zM165 579q3 16 12.5 29.5t23.5 21.5t29 8q21 -1 32 -18t8 -39q-2 -16 -12.5 -29t-24 -20.5t-28.5 -7.5q-22 0 -32 17t-8 38z" />
    <glyph glyph-name="guillemotright" unicode="&#xbb;" horiz-adv-x="525" 
d="M200 254l-179 -185l85 -67l211 249l-130 259l-100 -62zM397 254l-178 -185l84 -67l212 249l-131 259l-100 -62z" />
    <glyph glyph-name="onequarter" unicode="&#xbc;" horiz-adv-x="798" 
d="M701 700l-624 -700h100l624 700h-100zM93 572l105 25l-55 -323h97l74 429l-206 -41zM377 76l378 -1l15 86h-109l-12 -13l-179 -1zM488 105l142 161l-28 -163l-12 -6l-16 -97h104l73 420h-78l-299 -347z" />
    <glyph glyph-name="onehalf" unicode="&#xbd;" horiz-adv-x="867" 
d="M701 700l-624 -700h100l624 700h-100zM93 572l105 25l-55 -323h97l74 429l-206 -41zM461 3l349 -1l16 93l-160 1l109 87q28 22 49.5 50t26.5 62q5 36 -10.5 66.5t-47.5 50t-78 19.5q-52 0 -90.5 -22.5t-62.5 -59.5t-33 -81l99 -1q5 20 15.5 37.5t26.5 29t35 9.5
q17 0 27 -8t13.5 -20t2.5 -24q-4 -28 -26 -50.5t-46 -44.5z" />
    <glyph glyph-name="threequarters" unicode="&#xbe;" horiz-adv-x="853" 
d="M762 700l-623 -700h100l624 700h-101zM214 484q43 2 84.5 12t71 33t35.5 62q6 34 -10 60.5t-47 41.5t-71 15q-65 0 -108 -37t-55 -92l94 -1q6 20 22.5 34.5t39.5 14.5q20 0 29.5 -12t6.5 -29q-2 -17 -15 -29t-31.5 -19t-39.5 -9zM206 271q45 0 83 14.5t63.5 42.5t31.5 66
q5 34 -7.5 57t-37 36.5t-56.5 20t-66 7.5l-9 -51q24 -1 43 -7t29 -18.5t5 -32.5q-3 -24 -24 -39t-46 -14q-27 1 -39 17.5t-12 42.5h-97q-2 -38 13 -70.5t47 -52t79 -19.5zM433 76l379 -1l15 86h-109l-13 -13l-180 -1zM544 105l142 161l-28 -163l-12 -6l-16 -97h105l72 420
h-78l-300 -347z" />
    <glyph glyph-name="questiondown" unicode="&#xbf;" horiz-adv-x="608" 
d="M207 200q8 33 35.5 60t69.5 43.5t91 17.5h30l10 178h-123l-20 -84q-55 -11 -107 -38.5t-88.5 -71.5t-46.5 -104q-6 -49 8.5 -89.5t45.5 -69.5t73 -45t89 -16q87 0 155 35.5t126 92.5l-89 86q-32 -36 -76 -61.5t-93 -24.5q-31 1 -52.5 12t-31.5 31t-6 48zM498 640
q5 34 -19.5 59t-61.5 25q-25 1 -47.5 -10.5t-37.5 -30t-18 -41.5q-5 -33 19.5 -57.5t61.5 -25.5q25 0 47.5 11t38 30t17.5 40z" />
    <glyph glyph-name="Agrave" unicode="&#xc0;" horiz-adv-x="713" 
d="M174 136l362 -1l11 129h-340zM409 443l54 -227l-14 -42l54 -174h183l-230 747l-488 -747h192l115 179l-1 38zM337 957l152 -153l86 41l-121 162z" />
    <glyph glyph-name="Aacute" unicode="&#xc1;" horiz-adv-x="713" 
d="M174 136l362 -1l11 129h-340zM409 443l54 -227l-14 -42l54 -174h183l-230 747l-488 -747h192l115 179l-1 38zM647 952l-108 54l-171 -156l81 -45z" />
    <glyph glyph-name="Acircumflex" unicode="&#xc2;" horiz-adv-x="713" 
d="M174 136l362 -1l11 129h-340zM409 443l54 -227l-14 -42l54 -174h183l-230 747l-488 -747h192l115 179l-1 38zM483 874l73 -85l112 69l-172 142l-211 -137l94 -73z" />
    <glyph glyph-name="Atilde" unicode="&#xc3;" horiz-adv-x="713" 
d="M174 136l362 -1l11 129h-340zM409 443l54 -227l-14 -42l54 -174h183l-230 747l-488 -747h192l115 179l-1 38zM285 864l64 -63q6 14 18 31.5t37 18.5q24 1 43.5 -11.5t39 -26t44.5 -14.5q30 -1 57.5 12t49 32.5t34.5 38.5l-61 76q-15 -20 -33.5 -35.5t-39.5 -16.5
q-25 -1 -42.5 11.5t-36 26t-45.5 13.5q-30 1 -56 -13t-44 -35t-29 -45z" />
    <glyph glyph-name="Adieresis" unicode="&#xc4;" horiz-adv-x="713" 
d="M174 136l362 -1l11 129h-340zM409 443l54 -227l-14 -42l54 -174h183l-230 747l-488 -747h192l115 179l-1 38zM521 832q-4 -35 18.5 -58.5t57.5 -24.5q34 0 63.5 23t32.5 57q5 35 -17.5 58.5t-56.5 24.5q-35 0 -64 -23.5t-34 -56.5zM244 838q-4 -35 18.5 -58.5t56.5 -23.5
q35 -1 64 22.5t33 56.5q5 35 -17.5 59t-57.5 24q-34 0 -63.5 -23t-33.5 -57z" />
    <glyph glyph-name="Aring" unicode="&#xc5;" horiz-adv-x="713" 
d="M174 136l362 -1l11 129h-340zM409 443l54 -227l-14 -42l54 -174h183l-230 747l-488 -747h192l115 179l-1 38zM344 801q-5 -32 8 -58t39 -41.5t58 -15.5q34 0 64.5 15t50.5 40.5t25 57.5q4 34 -9 60t-39 41.5t-59 15.5q-34 0 -63.5 -15t-50 -41t-24.5 -59zM421 800
q2 13 10.5 24t21 18.5t23.5 6.5q17 -1 27 -15t8 -33q-2 -18 -20.5 -33t-35.5 -14t-26.5 14.5t-7.5 31.5z" />
    <glyph glyph-name="AE" unicode="&#xc6;" horiz-adv-x="1053" 
d="M259 151h300l27 155h-294zM521 700l-537 -700h213l473 658zM584 0h375l24 139h-376zM692 561h363l24 139h-558zM635 300h356l24 136h-356zM624 700l-119 -700h178l120 700h-179z" />
    <glyph glyph-name="Ccedilla" unicode="&#xc7;" horiz-adv-x="680" 
d="M246 350q8 45 30 82.5t55 65t73 42.5t84 15q64 0 109 -25.5t76 -66.5l28 182q-42 34 -90.5 53t-114.5 18q-83 0 -156 -27t-131 -76.5t-95.5 -116.5t-49.5 -146q-11 -76 7 -142.5t59.5 -117t106 -78.5t144.5 -28q69 0 122 19.5t100 51.5l27 181q-43 -35 -97.5 -63
t-124.5 -27q-43 0 -76 16t-55 44t-30 65t-1 79zM326 47l-115 -192q23 8 47 12t38 3q12 0 24 -3t19.5 -9.5t6.5 -18.5q0 -11 -10.5 -19.5t-24.5 -12.5t-27 -5q-16 0 -35.5 6.5t-36.5 18.5l-53 -66q33 -21 66 -31t72 -10q32 1 63 13.5t53.5 36.5t26.5 58q5 43 -19 69.5
t-58 28.5q-9 0 -17.5 -1t-15.5 -2l108 121z" />
    <glyph glyph-name="Egrave" unicode="&#xc8;" horiz-adv-x="585" 
d="M152 0h346l24 139h-346zM248 561h345l25 139h-345zM203 300h326l24 136h-326zM163 700l-119 -700h159l121 700h-161zM273 935l153 -153l86 41l-121 162z" />
    <glyph glyph-name="Eacute" unicode="&#xc9;" horiz-adv-x="585" 
d="M152 0h346l24 139h-346zM248 561h345l25 139h-345zM203 300h326l24 136h-326zM163 700l-119 -700h159l121 700h-161zM584 930l-108 54l-170 -156l81 -45z" />
    <glyph glyph-name="Ecircumflex" unicode="&#xca;" horiz-adv-x="585" 
d="M152 0h346l24 139h-346zM248 561h345l25 139h-345zM203 300h326l24 136h-326zM163 700l-119 -700h159l121 700h-161zM421 861l73 -85l112 69l-171 142l-212 -136l94 -74z" />
    <glyph glyph-name="Edieresis" unicode="&#xcb;" horiz-adv-x="585" 
d="M152 0h346l24 139h-346zM248 561h345l25 139h-345zM203 300h326l24 136h-326zM163 700l-119 -700h159l121 700h-161zM454 867q-4 -35 18.5 -58.5t57.5 -23.5q34 -1 63.5 22.5t32.5 57.5q5 34 -17.5 58t-57.5 24q-34 1 -63.5 -22.5t-33.5 -57.5zM218 867q-4 -35 18 -58.5
t57 -23.5q35 -1 64 22.5t33 57.5q5 34 -17.5 58t-57.5 24q-35 1 -64 -22.5t-33 -57.5z" />
    <glyph glyph-name="Igrave" unicode="&#xcc;" horiz-adv-x="310" 
d="M163 700l-119 -700h169l120 700h-170zM125 935l152 -153l87 41l-121 162z" />
    <glyph glyph-name="Iacute" unicode="&#xcd;" horiz-adv-x="310" 
d="M163 700l-119 -700h169l120 700h-170zM436 930l-107 54l-171 -156l80 -45z" />
    <glyph glyph-name="Icircumflex" unicode="&#xce;" horiz-adv-x="310" 
d="M163 700l-119 -700h169l120 700h-170zM269 861l74 -85l111 69l-171 142l-212 -136l94 -74z" />
    <glyph glyph-name="Idieresis" unicode="&#xcf;" horiz-adv-x="310" 
d="M163 700l-119 -700h169l120 700h-170zM307 860q-4 -35 18 -58.5t57 -24.5q35 0 64 23t34 57q4 35 -18.5 58.5t-57.5 24.5q-35 0 -64 -23.5t-33 -56.5zM71 860q-5 -35 17.5 -58.5t57.5 -24.5q34 0 63.5 23t33.5 57q4 35 -18.5 58.5t-57.5 24.5q-34 0 -63 -23.5t-33 -56.5z
" />
    <glyph glyph-name="Eth" unicode="&#xd0;" horiz-adv-x="711" 
d="M29 303h342l17 99h-342zM163 700l-119 -700h171l120 700h-172zM293 0q110 2 199.5 45.5t147 121.5t73.5 183q15 102 -19 180.5t-109 123.5t-183 46h-130l-27 -150h135q57 -1 96.5 -24.5t57 -67.5t7.5 -108q-11 -66 -45.5 -110t-84.5 -66t-108 -24h-125l-26 -150h141z" />
    <glyph glyph-name="Ntilde" unicode="&#xd1;" horiz-adv-x="770" 
d="M632 700l-68 -395l-396 428l-125 -733h161l68 395l395 -428l126 733h-161zM281 835l63 -63q6 14 18 31.5t38 18.5q23 1 42.5 -11.5t39.5 -26t44 -14.5q30 -1 57.5 12t49.5 32.5t34 38.5l-61 75q-15 -19 -33.5 -35t-39.5 -17q-25 0 -42.5 12.5t-36 25.5t-45.5 13
q-30 1 -55.5 -12.5t-44 -35t-28.5 -44.5z" />
    <glyph glyph-name="Ograve" unicode="&#xd2;" horiz-adv-x="797" 
d="M240 350q7 44 27.5 82t51 67.5t69.5 45.5t84 16t76.5 -17.5t50 -47.5t24.5 -67.5t0 -78.5q-7 -43 -27.5 -81.5t-51.5 -67.5t-70 -45.5t-84 -15.5q-44 0 -75.5 17.5t-50 47t-24.5 67t0 78.5zM64 350q-10 -75 6 -142t57 -118.5t103.5 -81.5t142.5 -30q81 0 153 28.5
t129.5 79.5t94.5 118.5t49 145.5q10 75 -7 141.5t-58.5 117t-104 79t-141.5 28.5t-151 -27.5t-129 -77.5t-94.5 -116.5t-49.5 -144.5zM387 935l153 -153l86 41l-121 162z" />
    <glyph glyph-name="Oacute" unicode="&#xd3;" horiz-adv-x="797" 
d="M240 350q7 44 27.5 82t51 67.5t69.5 45.5t84 16t76.5 -17.5t50 -47.5t24.5 -67.5t0 -78.5q-7 -43 -27.5 -81.5t-51.5 -67.5t-70 -45.5t-84 -15.5q-44 0 -75.5 17.5t-50 47t-24.5 67t0 78.5zM64 350q-10 -75 6 -142t57 -118.5t103.5 -81.5t142.5 -30q81 0 153 28.5
t129.5 79.5t94.5 118.5t49 145.5q10 75 -7 141.5t-58.5 117t-104 79t-141.5 28.5t-151 -27.5t-129 -77.5t-94.5 -116.5t-49.5 -144.5zM691 930l-108 54l-171 -156l81 -45z" />
    <glyph glyph-name="Ocircumflex" unicode="&#xd4;" horiz-adv-x="797" 
d="M240 350q7 44 27.5 82t51 67.5t69.5 45.5t84 16t76.5 -17.5t50 -47.5t24.5 -67.5t0 -78.5q-7 -43 -27.5 -81.5t-51.5 -67.5t-70 -45.5t-84 -15.5q-44 0 -75.5 17.5t-50 47t-24.5 67t0 78.5zM64 350q-10 -75 6 -142t57 -118.5t103.5 -81.5t142.5 -30q81 0 153 28.5
t129.5 79.5t94.5 118.5t49 145.5q10 75 -7 141.5t-58.5 117t-104 79t-140.5 28.5q-80 0 -151.5 -27.5t-129 -77.5t-95 -116.5t-49.5 -144.5zM526 861l73 -85l112 69l-172 142l-211 -136l94 -74z" />
    <glyph glyph-name="Otilde" unicode="&#xd5;" horiz-adv-x="797" 
d="M240 350q7 44 27.5 82t51 67.5t69.5 45.5t84 16t76.5 -17.5t50 -47.5t24.5 -67.5t0 -78.5q-7 -43 -27.5 -81.5t-51.5 -67.5t-70 -45.5t-84 -15.5q-44 0 -75.5 17.5t-50 47t-24.5 67t0 78.5zM64 350q-10 -75 6 -142t57 -118.5t103.5 -81.5t142.5 -30q81 0 153 28.5
t129.5 79.5t94.5 118.5t49 145.5q10 75 -7 141.5t-58.5 117t-104 79t-140.5 28.5q-80 0 -151.5 -27.5t-129 -77.5t-95 -116.5t-49.5 -144.5zM321 841l64 -64q6 14 18 31.5t37 18.5q24 2 43.5 -11t39.5 -26t44 -14q30 -1 57 11.5t49 32.5t34 38l-60 76q-15 -20 -33.5 -35.5
t-40.5 -16.5q-24 0 -41.5 12.5t-36 25.5t-45.5 13q-28 1 -55 -12.5t-47 -34.5t-27 -45z" />
    <glyph glyph-name="Odieresis" unicode="&#xd6;" horiz-adv-x="797" 
d="M240 350q7 44 27.5 82t51 67.5t69.5 45.5t84 16t76.5 -17.5t50 -47.5t24.5 -67.5t0 -78.5q-7 -43 -27.5 -81.5t-51.5 -67.5t-70 -45.5t-84 -15.5q-44 0 -75.5 17.5t-50 47t-24.5 67t0 78.5zM64 350q-10 -75 6 -142t57 -118.5t103.5 -81.5t142.5 -30q81 0 153 28.5
t129.5 79.5t94.5 118.5t49 145.5q10 75 -7 141.5t-58.5 117t-104 79t-141.5 28.5t-151 -27.5t-129 -77.5t-94.5 -116.5t-49.5 -144.5zM550 860q-5 -35 17.5 -58.5t57.5 -24.5q35 0 64 23t34 57q3 35 -19 58.5t-57 24.5q-35 0 -64 -23.5t-33 -56.5zM314 860
q-5 -35 17.5 -58.5t57.5 -24.5q35 0 64 23t33 57q4 35 -18 58.5t-58 24.5q-34 0 -63 -23.5t-33 -56.5z" />
    <glyph glyph-name="multiply" unicode="&#xd7;" horiz-adv-x="578" 
d="M112 3l182 162l125 -162l104 90l-131 159l185 157l-77 98l-182 -161l-126 161l-103 -89l131 -160l-185 -157z" />
    <glyph glyph-name="Oslash" unicode="&#xd8;" horiz-adv-x="767" 
d="M240 350q7 44 27.5 82.5t51 67.5t69.5 45t84 16t76 -17.5t50 -47t25 -67.5t0 -79q-7 -44 -27.5 -82t-51.5 -67t-70 -45.5t-84 -15.5q-44 0 -75.5 17.5t-50 47t-24.5 67t0 78.5zM64 350q-10 -75 6.5 -142t57.5 -118.5t103 -81.5t142 -30q81 0 153 28.5t129 79.5
t94.5 118.5t49.5 145.5q10 75 -7 141.5t-58.5 117t-104 79t-140.5 28.5q-81 0 -153 -27.5t-128.5 -77.5t-94 -116.5t-49.5 -144.5zM775 756l-756 -759l64 -53l757 756z" />
    <glyph glyph-name="Ugrave" unicode="&#xd9;" horiz-adv-x="680" 
d="M158 700l-79 -470q-11 -80 16 -138t83.5 -89t134.5 -31q80 0 146.5 31t111 88.5t57.5 138.5l79 470h-166l-79 -457q-6 -33 -23.5 -60.5t-45 -43.5t-64.5 -15q-35 1 -55 17.5t-26.5 43.5t-2.5 57l80 458h-167zM315 928l153 -152l85 40l-120 163z" />
    <glyph glyph-name="Uacute" unicode="&#xda;" horiz-adv-x="680" 
d="M158 700l-79 -470q-11 -80 16 -138t83.5 -89t134.5 -31q80 0 146.5 31t111 88.5t57.5 138.5l79 470h-166l-79 -457q-6 -33 -23.5 -60.5t-45 -43.5t-64.5 -15q-35 1 -55 17.5t-26.5 43.5t-2.5 57l80 458h-167zM629 924l-108 54l-171 -156l81 -45z" />
    <glyph glyph-name="Ucircumflex" unicode="&#xdb;" horiz-adv-x="680" 
d="M158 700l-79 -470q-11 -80 16 -138t83.5 -89t134.5 -31q80 0 146.5 31t111 88.5t57.5 138.5l79 470h-166l-79 -457q-6 -33 -23.5 -60.5t-45 -43.5t-64.5 -15q-35 1 -55 17.5t-26.5 43.5t-2.5 57l80 458h-167zM464 861l74 -85l111 69l-171 142l-212 -136l94 -74z" />
    <glyph glyph-name="Udieresis" unicode="&#xdc;" horiz-adv-x="680" 
d="M158 700l-79 -470q-11 -80 16 -138t83.5 -89t134.5 -31q80 0 146.5 31t111 88.5t57.5 138.5l79 470h-166l-79 -457q-6 -33 -23.5 -60.5t-45 -43.5t-64.5 -15q-35 1 -55 17.5t-26.5 43.5t-2.5 57l80 458h-167zM509 860q-3 -35 19 -58.5t57 -24.5q35 0 64 23t33 57
q5 35 -17.5 58.5t-57.5 24.5q-35 0 -64 -23.5t-34 -56.5zM237 860q-4 -35 18 -58.5t57 -24.5q35 0 64 23t34 57q4 35 -18.5 58.5t-57.5 24.5q-35 0 -64 -23.5t-33 -56.5z" />
    <glyph glyph-name="Yacute" unicode="&#xdd;" horiz-adv-x="640" 
d="M609 924l-108 54l-170 -156l80 -45zM542 700l-176 -260l-87 260h-187l167 -412l-50 -288h169l48 281l312 419h-196z" />
    <glyph glyph-name="Thorn" unicode="&#xde;" horiz-adv-x="594" 
d="M169 700l-119 -700h145l120 700h-146zM216 446h139q33 -1 57 -10.5t35 -29.5t5 -52q-5 -33 -24.5 -53.5t-48.5 -30t-65 -10.5h-129l-24 -132h140q81 1 144.5 27.5t103.5 76.5t51 121q12 71 -15 121t-82.5 77t-134.5 28h-129z" />
    <glyph glyph-name="germandbls" unicode="&#xdf;" horiz-adv-x="603" 
d="M385 -12q60 0 108.5 27.5t77.5 74t29 103.5q0 43 -12.5 70.5t-31.5 44.5t-38 29.5t-32 25t-13 32.5q0 17 13.5 33.5t34 34t40.5 39t33.5 50.5t13.5 69q0 53 -28.5 92.5t-76.5 61.5t-109 22q-88 0 -146 -30t-90 -85t-43 -129l-93 -555h151l93 553q5 37 20 61.5t37.5 37
t53.5 12.5q33 0 53 -17t20 -53q0 -29 -13.5 -50.5t-33.5 -40t-40.5 -35.5t-34.5 -37t-14 -46t13 -44.5t32 -32.5t38.5 -29.5t32.5 -35.5t13 -49q0 -23 -11 -41.5t-30 -29.5t-45 -11q-24 0 -50 9t-47 24l-31 -115q17 -11 43.5 -20.5t56.5 -14.5t56 -5z" />
    <glyph glyph-name="agrave" unicode="&#xe0;" horiz-adv-x="598" 
d="M447 460l-78 -460h148l79 460h-149zM42 231q-8 -66 11.5 -120.5t62 -87t103.5 -32.5q46 0 85.5 18.5t69.5 51.5t49.5 76.5t25.5 92.5q6 47 -0.5 90t-26 77t-52 53.5t-78.5 19.5q-62 0 -115.5 -31t-89.5 -85.5t-45 -122.5zM198 230q5 32 24 59.5t47.5 43.5t59.5 15
q21 -1 36.5 -10.5t26 -26t14.5 -37t1 -43.5q-4 -24 -16 -46t-29.5 -38.5t-38.5 -25.5t-43 -8q-30 0 -50.5 16.5t-28 43.5t-3.5 57zM217 683l153 -152l85 40l-120 163z" />
    <glyph glyph-name="aacute" unicode="&#xe1;" horiz-adv-x="598" 
d="M447 460l-78 -460h148l79 460h-149zM42 231q-8 -66 11.5 -120.5t62 -87t103.5 -32.5q46 0 85.5 18.5t69.5 51.5t49.5 76.5t25.5 92.5q6 47 -0.5 90t-26 77t-52 53.5t-78.5 19.5q-62 0 -115.5 -31t-89.5 -85.5t-45 -122.5zM198 230q5 32 24 59.5t47.5 43.5t59.5 15
q21 -1 36.5 -10.5t26 -26t14.5 -37t1 -43.5q-4 -24 -16 -46t-29.5 -38.5t-38.5 -25.5t-43 -8q-30 0 -50.5 16.5t-28 43.5t-3.5 57zM526 678l-107 54l-171 -156l81 -44z" />
    <glyph glyph-name="acircumflex" unicode="&#xe2;" horiz-adv-x="598" 
d="M447 460l-78 -460h148l79 460h-149zM42 231q-8 -66 11.5 -120.5t62 -87t103.5 -32.5q46 0 85.5 18.5t69.5 51.5t49.5 76.5t25.5 92.5q6 47 -0.5 90t-26 77t-52 53.5t-78.5 19.5q-62 0 -115.5 -31t-89.5 -85.5t-45 -122.5zM198 230q5 32 24 59.5t47.5 43.5t59.5 15
q21 -1 36.5 -10.5t26 -26t14.5 -37t1 -43.5q-4 -24 -16 -46t-29.5 -38.5t-38.5 -25.5t-43 -8q-30 0 -50.5 16.5t-28 43.5t-3.5 57zM387 616l74 -86l111 69l-171 143l-212 -137l94 -74z" />
    <glyph glyph-name="atilde" unicode="&#xe3;" horiz-adv-x="598" 
d="M447 460l-78 -460h148l79 460h-149zM42 231q-8 -66 11.5 -120.5t62 -87t103.5 -32.5q46 0 85.5 18.5t69.5 51.5t49.5 76.5t25.5 92.5q6 47 -0.5 90t-26 77t-52 53.5t-78.5 19.5q-62 0 -115.5 -31t-89.5 -85.5t-45 -122.5zM198 230q5 32 24 59.5t47.5 43.5t59.5 15
q21 -1 36.5 -10.5t26 -26t14.5 -37t1 -43.5q-4 -24 -16 -46t-29.5 -38.5t-38.5 -25.5t-43 -8q-30 0 -50.5 16.5t-28 43.5t-3.5 57zM195 598l63 -63q6 14 18 31.5t38 18.5q23 1 42.5 -11.5t39.5 -26t44 -14.5q30 -1 57 12t49 32.5t34 38.5l-60 76q-15 -20 -33.5 -35.5
t-40.5 -16.5q-25 -1 -42 11.5t-35 26t-46 13.5q-31 0 -56.5 -13.5t-43.5 -34t-28 -45.5z" />
    <glyph glyph-name="adieresis" unicode="&#xe4;" horiz-adv-x="598" 
d="M447 460l-78 -460h148l79 460h-149zM42 231q-8 -66 11.5 -120.5t62 -87t103.5 -32.5q46 0 85.5 18.5t69.5 51.5t49.5 76.5t25.5 92.5q6 47 -0.5 90t-26 77t-52 53.5t-78.5 19.5q-62 0 -115.5 -31t-89.5 -85.5t-45 -122.5zM198 230q5 32 24 59.5t47.5 43.5t59.5 15
q21 -1 36.5 -10.5t26 -26t14.5 -37t1 -43.5q-4 -24 -16 -46t-29.5 -38.5t-38.5 -25.5t-43 -8q-30 0 -50.5 16.5t-28 43.5t-3.5 57zM408 614q-4 -35 18.5 -58.5t57.5 -23.5q35 -1 64 22.5t33 56.5q4 35 -18.5 59t-57.5 24q-34 0 -63.5 -23t-33.5 -57zM172 614
q-4 -35 18 -58.5t57 -23.5q35 -1 64 22.5t33 56.5q4 35 -18 59t-57 24t-64 -23t-33 -57z" />
    <glyph glyph-name="aring" unicode="&#xe5;" horiz-adv-x="598" 
d="M447 460l-78 -460h148l79 460h-149zM42 231q-8 -66 11.5 -120.5t62 -87t103.5 -32.5q46 0 85.5 18.5t69.5 51.5t49.5 76.5t25.5 92.5q6 47 -0.5 90t-26 77t-52 53.5t-78.5 19.5q-62 0 -115.5 -31t-89.5 -85.5t-45 -122.5zM198 230q5 32 24 59.5t47.5 43.5t59.5 15
q21 -1 36.5 -10.5t26 -26t14.5 -37t1 -43.5q-4 -24 -16 -46t-29.5 -38.5t-38.5 -25.5t-43 -8q-30 0 -50.5 16.5t-28 43.5t-3.5 57zM250 647q-5 -33 8 -59t39 -41t59 -16q33 0 63.5 15t50.5 41t25 58q4 33 -9 59.5t-39 41.5t-60 15q-33 1 -62.5 -14t-50 -41t-24.5 -59z
M327 645q2 13 10.5 24t21 18t23.5 7q18 -1 27.5 -15t7.5 -32q-1 -12 -10 -23t-21.5 -18t-24.5 -7q-17 1 -26.5 15t-7.5 31z" />
    <glyph glyph-name="ae" unicode="&#xe6;" horiz-adv-x="887" 
d="M189 -10q82 0 138.5 29.5t82.5 83.5h-13q17 -58 63.5 -85.5t124.5 -27.5q85 0 150.5 33.5t111.5 102.5l-132 33q-18 -29 -50.5 -44.5t-70.5 -15.5q-33 0 -52.5 14t-27 40.5t-3.5 62.5l-22 -18h367q3 7 6 21.5t5 30.5q8 70 -12 119.5t-65 75t-112 25.5q-50 0 -93.5 -14
t-77.5 -40t-59 -62l16 6q3 58 -33.5 85.5t-110.5 27.5q-50 0 -103 -13t-112 -40l38 -102q20 12 46.5 21t54 14t49.5 5q37 0 55.5 -18t12.5 -54l-10 -62h69q-61 31 -102.5 43t-84.5 12q-60 0 -108 -19.5t-77 -54t-33 -79.5q-7 -62 37.5 -99t136.5 -37zM231 89q-34 0 -49 11
t-13 36q1 20 12.5 33.5t31 20.5t45.5 7q29 0 56 -7.5t50 -21.5l-19 27l-1 -62l6 53q-12 -48 -42 -72.5t-77 -24.5zM512 236q10 43 26.5 72.5t41 45t57.5 15.5q29 0 46 -12t23.5 -35t3.5 -56q0 -7 -4 -16l27 32h-235z" />
    <glyph glyph-name="ccedilla" unicode="&#xe7;" horiz-adv-x="479" 
d="M193 230q6 33 27 60t52 43.5t65 16.5q37 0 68.5 -18t48.5 -50l22 148q-27 18 -61.5 29t-78.5 11q-74 0 -137.5 -30.5t-105.5 -84t-53 -124.5q-10 -70 16.5 -124t80.5 -85.5t126 -31.5q47 0 83.5 11.5t65.5 30.5l21 146q-27 -29 -65 -48.5t-81 -18.5q-33 1 -56 17
t-33 42.5t-5 59.5zM211 60l-115 -193q23 8 47 12t38 3q12 0 24 -2.5t19.5 -9.5t6.5 -18q0 -12 -10 -20.5t-24.5 -12.5t-27.5 -5q-16 0 -35.5 7t-36.5 19l-53 -66q33 -21 66 -31.5t72 -9.5q32 0 63 13t53 36.5t27 57.5q5 43 -19 70t-58 28q-9 0 -17.5 -1t-15.5 -2l108 121z
" />
    <glyph glyph-name="egrave" unicode="&#xe8;" 
d="M121 199h410q3 11 4.5 20.5t2.5 17.5q9 69 -12 121.5t-70 82t-125 29.5q-69 0 -125 -24t-95 -67t-58 -100q-4 -12 -6.5 -24t-4.5 -25q-9 -67 14 -121.5t76 -86t129 -32.5q60 0 107.5 17t84.5 47t67 70l-131 35q-14 -17 -32.5 -30.5t-40.5 -21t-48 -7.5q-32 2 -50.5 19
t-24.5 46t-2 65l7 24q7 32 23 58t41 42.5t57 14.5q26 -1 40.5 -12.5t20 -31t5.5 -43.5h-251zM213 687l152 -153l86 41l-121 162z" />
    <glyph glyph-name="eacute" unicode="&#xe9;" 
d="M121 199h410q3 11 4.5 20.5t2.5 17.5q9 69 -12 121.5t-70 82t-125 29.5q-69 0 -125 -24t-95 -67t-58 -100q-4 -12 -6.5 -24t-4.5 -25q-9 -67 14 -121.5t76 -86t129 -32.5q60 0 107.5 17t84.5 47t67 70l-131 35q-14 -17 -32.5 -30.5t-40.5 -21t-48 -7.5q-32 2 -50.5 19
t-24.5 46t-2 65l7 24q7 32 23 58t41 42.5t57 14.5q26 -1 40.5 -12.5t20 -31t5.5 -43.5h-251zM541 682l-109 54l-169 -156l80 -45z" />
    <glyph glyph-name="ecircumflex" unicode="&#xea;" 
d="M121 199h410q3 11 4.5 20.5t2.5 17.5q9 69 -12 121.5t-70 82t-125 29.5q-69 0 -125 -24t-95 -67t-58 -100q-4 -12 -6.5 -24t-4.5 -25q-9 -67 14 -121.5t76 -86t129 -32.5q60 0 107.5 17t84.5 47t67 70l-131 35q-14 -17 -32.5 -30.5t-40.5 -21t-48 -7.5q-32 2 -50.5 19
t-24.5 46t-2 65l7 24q7 32 23 58t41 42.5t57 14.5q26 -1 40.5 -12.5t20 -31t5.5 -43.5h-251zM364 616l74 -86l112 69l-172 143l-211 -137l94 -74z" />
    <glyph glyph-name="edieresis" unicode="&#xeb;" 
d="M121 199h410q3 11 4.5 20.5t2.5 17.5q9 69 -12 121.5t-70 82t-125 29.5q-69 0 -125 -24t-95 -67t-58 -100q-4 -12 -6.5 -24t-4.5 -25q-9 -67 14 -121.5t76 -86t129 -32.5q60 0 107.5 17t84.5 47t67 70l-131 35q-14 -17 -32.5 -30.5t-40.5 -21t-48 -7.5q-32 2 -50.5 19
t-24.5 46t-2 65l7 24q7 32 23 58t41 42.5t57 14.5q26 -1 40.5 -12.5t20 -31t5.5 -43.5h-251zM392 614q-4 -35 18.5 -58.5t56.5 -23.5q35 -1 64 22.5t33 56.5q5 35 -17.5 59t-57.5 24q-34 0 -63.5 -23t-33.5 -57zM155 614q-4 -35 18.5 -58.5t57.5 -23.5q34 -1 63.5 22.5
t33.5 56.5q4 35 -18 59t-57 24t-64 -23t-34 -57z" />
    <glyph glyph-name="igrave" unicode="&#xec;" horiz-adv-x="268" 
d="M113 460l-78 -460h144l79 460h-145zM50 690l152 -152l86 40l-121 163z" />
    <glyph glyph-name="iacute" unicode="&#xed;" horiz-adv-x="268" 
d="M113 460l-78 -460h144l79 460h-145zM392 686l-108 54l-170 -156l81 -45z" />
    <glyph glyph-name="icircumflex" unicode="&#xee;" horiz-adv-x="268" 
d="M113 460l-78 -460h144l79 460h-145zM216 619l74 -85l111 69l-171 142l-212 -136l95 -74z" />
    <glyph glyph-name="idieresis" unicode="&#xef;" horiz-adv-x="268" 
d="M113 460l-78 -460h144l79 460h-145zM245 625q-4 -34 18.5 -58t57.5 -24t64 23t33 57t-18 58t-57 24q-35 1 -64 -22.5t-34 -57.5zM9 625q-4 -34 18.5 -58t57.5 -24q34 0 63.5 23t33.5 57t-18.5 58t-57.5 24q-34 1 -63.5 -22.5t-33.5 -57.5z" />
    <glyph glyph-name="eth" unicode="&#xf0;" horiz-adv-x="626" 
d="M295 -16q67 0 122.5 23.5t96 64t63 94t22.5 112.5q0 48 -10.5 94t-32 91.5t-55.5 93t-81.5 98t-110.5 105.5l-112 -75q52 -37 92.5 -74.5t73 -78t58 -86.5t44.5 -101l41 -1q-45 65 -94.5 97t-110.5 32q-51 0 -96 -19.5t-79 -54.5t-53.5 -82t-19.5 -103q0 -70 31.5 -121.5
t86.5 -80t124 -28.5zM306 119q-43 0 -68.5 28t-25.5 70q0 27 10.5 50.5t28.5 42t41 29t49 10.5q29 0 49.5 -12.5t32.5 -35.5t12 -52q0 -25 -9.5 -48.5t-27 -42t-40.5 -29t-52 -10.5zM215 507l349 112l-17 55l-348 -112z" />
    <glyph glyph-name="ntilde" unicode="&#xf1;" 
d="M258 460h-150l-79 -460h150zM368 280l-49 -280h155l51 296q6 51 -5 90.5t-43 62t-88 22.5t-96 -28t-64 -72.5t-33 -95.5l31 6q5 22 18 41.5t32.5 31.5t43.5 10q23 -2 34 -13.5t13.5 -30t-0.5 -40.5zM163 598l63 -63q6 14 18 31.5t38 18.5q23 1 42.5 -11.5t39 -26
t44.5 -14.5q30 -1 57 12t49 32.5t35 38.5l-61 76q-15 -20 -33.5 -35.5t-39.5 -16.5q-25 -1 -42.5 11.5t-35.5 26t-46 13.5q-31 1 -56 -13t-43.5 -35t-28.5 -45z" />
    <glyph glyph-name="ograve" unicode="&#xf2;" horiz-adv-x="572" 
d="M42 231q-10 -69 16 -123t79.5 -86t124.5 -32q74 0 136.5 31t104.5 85t52 124q10 69 -16 123.5t-79.5 86t-125.5 31.5t-135 -31t-104.5 -85t-52.5 -124zM195 230q5 32 23.5 58.5t46 42.5t57.5 15t49.5 -17.5t27.5 -42t3 -55.5q-5 -32 -23.5 -58.5t-45.5 -42t-58 -14.5
q-31 0 -50 16t-27 42t-3 56zM222 690l152 -152l86 40l-121 163z" />
    <glyph glyph-name="oacute" unicode="&#xf3;" horiz-adv-x="572" 
d="M42 231q-10 -69 16 -123t79.5 -86t124.5 -32q74 0 136.5 31t104.5 85t52 124q10 69 -16 123.5t-79.5 86t-125.5 31.5t-135 -31t-104.5 -85t-52.5 -124zM195 230q5 32 23.5 58.5t46 42.5t57.5 15t49.5 -17.5t27.5 -42t3 -55.5q-5 -32 -23.5 -58.5t-45.5 -42t-58 -14.5
q-31 0 -50 16t-27 42t-3 56zM533 686l-108 54l-171 -156l82 -45z" />
    <glyph glyph-name="ocircumflex" unicode="&#xf4;" horiz-adv-x="572" 
d="M42 231q-10 -69 16 -123t79.5 -86t124.5 -32q74 0 136.5 31t104.5 85t52 124q10 69 -16 123.5t-79.5 86t-125.5 31.5t-135 -31t-104.5 -85t-52.5 -124zM195 230q5 32 23.5 58.5t46 42.5t57.5 15t49.5 -17.5t27.5 -42t3 -55.5q-5 -32 -23.5 -58.5t-45.5 -42t-58 -14.5
q-31 0 -50 16t-27 42t-3 56zM369 623l74 -85l112 69l-172 142l-211 -136l94 -74z" />
    <glyph glyph-name="otilde" unicode="&#xf5;" horiz-adv-x="572" 
d="M42 231q-10 -69 16 -123t79.5 -86t124.5 -32q74 0 136.5 31t104.5 85t52 124q10 69 -16 123.5t-79.5 86t-125.5 31.5t-135 -31t-104.5 -85t-52.5 -124zM195 230q5 32 23.5 58.5t46 42.5t57.5 15t49.5 -17.5t27.5 -42t3 -55.5q-5 -32 -23.5 -58.5t-45.5 -42t-58 -14.5
q-31 0 -50 16t-27 42t-3 56zM170 598l63 -63q6 14 18 31.5t38 18.5q23 1 42.5 -11.5t39.5 -26t44 -14.5q30 -1 57.5 12t49.5 32.5t34 38.5l-61 76q-15 -20 -33.5 -35.5t-40.5 -16.5q-24 -1 -41.5 11.5t-35.5 26t-46 13.5q-24 0 -54.5 -13.5t-52 -34t-21.5 -45.5z" />
    <glyph glyph-name="odieresis" unicode="&#xf6;" horiz-adv-x="572" 
d="M42 231q-10 -69 16 -123t79.5 -86t124.5 -32q74 0 136.5 31t104.5 85t52 124q10 69 -16 123.5t-79.5 86t-125.5 31.5t-135 -31t-104.5 -85t-52.5 -124zM195 230q5 32 23.5 58.5t46 42.5t57.5 15t49.5 -17.5t27.5 -42t3 -55.5q-5 -32 -23.5 -58.5t-45.5 -42t-58 -14.5
q-31 0 -50 16t-27 42t-3 56zM397 625q-4 -34 18.5 -58t57.5 -24q34 0 63.5 23t33.5 57t-18 58t-57 24q-35 1 -64 -22.5t-34 -57.5zM161 625q-4 -34 18.5 -58t57.5 -24q34 0 63.5 23t33.5 57t-18.5 58t-57.5 24q-34 1 -63.5 -22.5t-33.5 -57.5z" />
    <glyph glyph-name="divide" unicode="&#xf7;" horiz-adv-x="621" 
d="M285 554q-3 -24 6.5 -45.5t29 -34t44.5 -13.5q26 0 48.5 12.5t38 33.5t18.5 45t-6.5 45t-28.5 34t-46 14q-25 0 -47.5 -12.5t-38 -33.5t-18.5 -45zM207 99q-4 -37 18.5 -64.5t61.5 -27.5q27 -1 49.5 11.5t37.5 33.5t18 45q3 25 -6 45.5t-28 34t-46 13.5q-25 1 -48 -12
t-38 -33.5t-19 -45.5zM41 260l573 -1l23 136h-572z" />
    <glyph glyph-name="oslash" unicode="&#xf8;" horiz-adv-x="530" 
d="M42 231q-10 -71 16.5 -125t79.5 -85t124 -31q73 0 136 30t104.5 84t52.5 126q11 71 -15.5 125t-80 84.5t-125.5 30.5t-135 -30t-104.5 -83.5t-52.5 -125.5zM183 230q6 33 26.5 60.5t50.5 44.5t63 17q33 -1 55 -18.5t31.5 -44.5t4.5 -58q-5 -35 -25.5 -63t-50.5 -43.5
t-65 -15.5q-32 1 -54.5 17t-31.5 43.5t-4 60.5zM498 506l-465 -522l54 -33l466 520z" />
    <glyph glyph-name="ugrave" unicode="&#xf9;" 
d="M324 0h150l79 460h-149zM214 180l50 280h-155l-51 -296q-6 -50 5 -89.5t43 -62t87 -22.5q57 0 97 27.5t64 72.5t33 95l-31 -5q-6 -22 -19 -42t-32 -31.5t-44 -10.5q-24 2 -34.5 14t-12 30.5t-0.5 39.5zM229 690l152 -152l86 40l-120 163z" />
    <glyph glyph-name="uacute" unicode="&#xfa;" 
d="M324 0h150l79 460h-149zM214 180l50 280h-155l-51 -296q-6 -50 5 -89.5t43 -62t87 -22.5q57 0 97 27.5t64 72.5t33 95l-31 -5q-6 -22 -19 -42t-32 -31.5t-44 -10.5q-24 2 -34.5 14t-12 30.5t-0.5 39.5zM511 686l-108 54l-170 -156l80 -45z" />
    <glyph glyph-name="ucircumflex" unicode="&#xfb;" 
d="M324 0h150l79 460h-149zM214 180l50 280h-155l-51 -296q-6 -50 5 -89.5t43 -62t87 -22.5q57 0 97 27.5t64 72.5t33 95l-31 -5q-6 -22 -19 -42t-32 -31.5t-44 -10.5q-24 2 -34.5 14t-12 30.5t-0.5 39.5zM362 623l73 -85l112 69l-172 142l-211 -136l94 -74z" />
    <glyph glyph-name="udieresis" unicode="&#xfc;" 
d="M324 0h150l79 460h-149zM214 180l50 280h-155l-51 -296q-6 -50 5 -89.5t43 -62t87 -22.5q57 0 97 27.5t64 72.5t33 95l-31 -5q-6 -22 -19 -42t-32 -31.5t-44 -10.5q-24 2 -34.5 14t-12 30.5t-0.5 39.5zM391 622q-5 -35 17 -58.5t57 -24.5q35 0 64.5 23t33.5 57
q4 35 -18.5 58.5t-57.5 24.5q-35 0 -64 -23.5t-32 -56.5zM154 622q-4 -35 18 -58.5t57 -24.5q34 0 63.5 23t33.5 57q4 35 -18.5 58.5t-56.5 24.5q-35 0 -64 -23.5t-33 -56.5z" />
    <glyph glyph-name="yacute" unicode="&#xfd;" horiz-adv-x="505" 
d="M570 460h-157l-206 -367l77 -2l-80 369h-161l122 -418l-157 -261h154zM501 686l-108 54l-170 -156l80 -45z" />
    <glyph glyph-name="thorn" unicode="&#xfe;" horiz-adv-x="598" 
d="M140 -220l170 1000h-149l-171 -1000h150zM581 230q8 66 -11.5 120.5t-62 87t-103.5 32.5q-46 0 -85.5 -18.5t-69.5 -51.5t-50 -76.5t-26 -92.5q-6 -47 0.5 -90.5t26.5 -77.5t53 -53.5t79 -19.5q61 0 114.5 31.5t89.5 86t45 122.5zM426 231q-5 -32 -24.5 -59.5t-47 -43.5
t-59.5 -15q-21 0 -37 9.5t-27 26.5t-15 37.5t-1 43.5q4 24 16.5 46t30 38t38.5 25t43 9q31 0 51 -17t28.5 -43.5t3.5 -56.5z" />
    <glyph glyph-name="ydieresis" unicode="&#xff;" horiz-adv-x="505" 
d="M570 460h-157l-206 -367l77 -2l-80 369h-161l122 -418l-157 -261h154zM362 614q-4 -35 18.5 -58.5t57.5 -23.5q34 -1 63.5 22.5t33.5 56.5q4 35 -18.5 59t-56.5 24q-35 0 -64 -23t-34 -57zM126 614q-4 -35 18.5 -58.5t57.5 -23.5q34 -1 63 22.5t33 56.5q5 35 -17.5 59
t-57.5 24t-63.5 -23t-33.5 -57z" />
    <glyph glyph-name="Amacron" unicode="&#x100;" horiz-adv-x="713" 
d="M174 136l362 -1l11 129h-340zM409 443l54 -227l-14 -42l54 -174h183l-230 747l-488 -747h192l115 179l-1 38zM285 805l363 -1l23 131h-363z" />
    <glyph glyph-name="amacron" unicode="&#x101;" horiz-adv-x="598" 
d="M447 460l-78 -460h148l79 460h-149zM42 231q-8 -66 11.5 -120.5t62 -87t103.5 -32.5q46 0 85.5 18.5t69.5 51.5t49.5 76.5t25.5 92.5q6 47 -0.5 90t-26 77t-52 53.5t-78.5 19.5q-62 0 -115.5 -31t-89.5 -85.5t-45 -122.5zM198 230q5 32 24 59.5t47.5 43.5t59.5 15
q21 -1 36.5 -10.5t26 -26t14.5 -37t1 -43.5q-4 -24 -16 -46t-29.5 -38.5t-38.5 -25.5t-43 -8q-30 0 -50.5 16.5t-28 43.5t-3.5 57zM183 535l364 -1l23 131h-364z" />
    <glyph glyph-name="Abreve" unicode="&#x102;" horiz-adv-x="713" 
d="M174 136l362 -1l11 129h-340zM409 443l54 -227l-14 -42l54 -174h183l-230 747l-488 -747h192l115 179l-1 38zM331 951q-3 -41 12 -74.5t47 -52.5t81 -19q50 0 87 19.5t61 52t32 73.5l-99 1q-5 -16 -15.5 -29.5t-25 -22t-34.5 -7.5q-18 1 -29.5 8.5t-16 21t-5.5 29.5h-95z
" />
    <glyph glyph-name="abreve" unicode="&#x103;" horiz-adv-x="598" 
d="M447 460l-78 -460h148l79 460h-149zM42 231q-8 -66 11.5 -120.5t62 -87t103.5 -32.5q46 0 85.5 18.5t69.5 51.5t49.5 76.5t25.5 92.5q6 47 -0.5 90t-26 77t-52 53.5t-78.5 19.5q-62 0 -115.5 -31t-89.5 -85.5t-45 -122.5zM198 230q5 32 24 59.5t47.5 43.5t59.5 15
q21 -1 36.5 -10.5t26 -26t14.5 -37t1 -43.5q-4 -24 -16 -46t-29.5 -38.5t-38.5 -25.5t-43 -8q-30 0 -50.5 16.5t-28 43.5t-3.5 57zM211 677q-2 -42 13 -75t47 -52t82 -19q49 0 86 19.5t60.5 52t32.5 73.5h-99q-5 -15 -15.5 -28.5t-25 -22t-34.5 -7.5q-18 1 -29.5 9t-16.5 21
t-5 28z" />
    <glyph glyph-name="Aogonek" unicode="&#x104;" horiz-adv-x="713" 
d="M174 136l362 -1l11 129h-340zM409 443l54 -227l-14 -42l54 -174h183l-230 747l-488 -747h192l115 179l-1 38zM624 -111q-11 -7 -25 -13.5t-29 -5.5q-16 1 -21.5 11t-4.5 25q4 20 18.5 36t35 30.5t42.5 27.5l-40 25q-33 -16 -67.5 -36t-59 -46.5t-29.5 -61.5
q-6 -47 24 -73.5t76 -27.5q35 0 59.5 11.5t41.5 27.5z" />
    <glyph glyph-name="aogonek" unicode="&#x105;" horiz-adv-x="598" 
d="M447 460l-78 -460h148l79 460h-149zM42 231q-8 -66 11.5 -120.5t62 -87t103.5 -32.5q46 0 85.5 18.5t69.5 51.5t49.5 76.5t25.5 92.5q6 47 -0.5 90t-26 77t-52 53.5t-78.5 19.5q-62 0 -115.5 -31t-89.5 -85.5t-45 -122.5zM198 230q5 32 24 59.5t47.5 43.5t59.5 15
q21 -1 36.5 -10.5t26 -26t14.5 -37t1 -43.5q-4 -24 -16 -46t-29.5 -38.5t-38.5 -25.5t-43 -8q-30 0 -50.5 16.5t-28 43.5t-3.5 57zM470 -111q-10 -7 -24 -13.5t-29 -5.5q-16 1 -21.5 11t-4.5 25q4 20 18.5 36t35 30.5t41.5 27.5l-40 25q-33 -16 -67 -36t-58.5 -46.5
t-30.5 -61.5q-6 -47 24 -73.5t77 -27.5q34 0 59 11.5t42 27.5z" />
    <glyph glyph-name="Cacute" unicode="&#x106;" horiz-adv-x="680" 
d="M246 350q8 45 30 82.5t55 65t73 42.5t84 15q64 0 109 -25.5t76 -66.5l28 182q-42 34 -90.5 53t-114.5 18q-83 0 -156 -27t-131 -76.5t-95.5 -116.5t-49.5 -146q-11 -76 7 -142.5t59.5 -117t106 -78.5t144.5 -28q69 0 122 19.5t100 51.5l27 181q-43 -35 -97.5 -63
t-124.5 -27q-43 0 -76 16t-55 44t-30 65t-1 79zM664 924l-108 54l-170 -156l81 -45z" />
    <glyph glyph-name="cacute" unicode="&#x107;" horiz-adv-x="479" 
d="M193 230q6 33 27 60t52 43.5t65 16.5q37 0 68.5 -18t48.5 -50l22 148q-27 18 -61.5 29t-78.5 11q-74 0 -137.5 -30.5t-105.5 -84t-53 -124.5q-10 -70 16.5 -124t80.5 -85.5t126 -31.5q47 0 83.5 11.5t65.5 30.5l21 146q-27 -29 -65 -48.5t-81 -18.5q-33 1 -56 17
t-33 42.5t-5 59.5zM504 678l-108 54l-171 -156l81 -44z" />
    <glyph glyph-name="Ccircumflex" unicode="&#x108;" horiz-adv-x="680" 
d="M246 350q8 45 30 82.5t55 65t73 42.5t84 15q64 0 109 -25.5t76 -66.5l28 182q-42 34 -90.5 53t-114.5 18q-83 0 -156 -27t-131 -76.5t-95.5 -116.5t-49.5 -146q-11 -76 7 -142.5t59.5 -117t106 -78.5t144.5 -28q69 0 122 19.5t100 51.5l27 181q-43 -35 -97.5 -63
t-124.5 -27q-43 0 -76 16t-55 44t-30 65t-1 79zM529 861l74 -85l112 69l-171 142l-212 -136l94 -74z" />
    <glyph glyph-name="ccircumflex" unicode="&#x109;" horiz-adv-x="479" 
d="M193 230q6 33 27 60t52 43.5t65 16.5q37 0 68.5 -18t48.5 -50l22 148q-27 18 -61.5 29t-78.5 11q-74 0 -137.5 -30.5t-105.5 -84t-53 -124.5q-10 -70 16.5 -124t80.5 -85.5t126 -31.5q47 0 83.5 11.5t65.5 30.5l21 146q-27 -29 -65 -48.5t-81 -18.5q-33 1 -56 17
t-33 42.5t-5 59.5zM339 616l74 -86l112 69l-172 143l-212 -137l95 -74z" />
    <glyph glyph-name="Cdotaccent" unicode="&#x10a;" horiz-adv-x="680" 
d="M246 350q8 45 30 82.5t55 65t73 42.5t84 15q64 0 109 -25.5t76 -66.5l28 182q-42 34 -90.5 53t-114.5 18q-83 0 -156 -27t-131 -76.5t-95.5 -116.5t-49.5 -146q-11 -76 7 -142.5t59.5 -117t106 -78.5t144.5 -28q69 0 122 19.5t100 51.5l27 181q-43 -35 -97.5 -63
t-124.5 -27q-43 0 -76 16t-55 44t-30 65t-1 79zM415 860q-4 -35 18.5 -58.5t56.5 -24.5q35 0 64 23t33 57q4 35 -18 58.5t-57 24.5q-34 0 -63.5 -23.5t-33.5 -56.5z" />
    <glyph glyph-name="cdotaccent" unicode="&#x10b;" horiz-adv-x="479" 
d="M193 230q6 33 27 60t52 43.5t65 16.5q37 0 68.5 -18t48.5 -50l22 148q-27 18 -61.5 29t-78.5 11q-74 0 -137.5 -30.5t-105.5 -84t-53 -124.5q-10 -70 16.5 -124t80.5 -85.5t126 -31.5q47 0 83.5 11.5t65.5 30.5l21 146q-27 -29 -65 -48.5t-81 -18.5q-33 1 -56 17
t-33 42.5t-5 59.5zM255 620q-3 -34 19 -58t57 -24q35 -1 64 22.5t33 57.5t-18 58t-57 24q-34 1 -63.5 -22.5t-34.5 -57.5z" />
    <glyph glyph-name="Ccaron" unicode="&#x10c;" horiz-adv-x="680" 
d="M246 350q8 45 30 82.5t55 65t73 42.5t84 15q64 0 109 -25.5t76 -66.5l28 182q-42 34 -90.5 53t-114.5 18q-83 0 -156 -27t-131 -76.5t-95.5 -116.5t-49.5 -146q-11 -76 7 -142.5t59.5 -117t106 -78.5t144.5 -28q69 0 122 19.5t100 51.5l27 181q-43 -35 -97.5 -63
t-124.5 -27q-43 0 -76 16t-55 44t-30 65t-1 79zM529 903l-74 85l-111 -69l171 -143l212 138l-94 73z" />
    <glyph glyph-name="ccaron" unicode="&#x10d;" horiz-adv-x="479" 
d="M193 230q6 33 27 60t52 43.5t65 16.5q37 0 68.5 -18t48.5 -50l22 148q-27 18 -61.5 29t-78.5 11q-74 0 -137.5 -30.5t-105.5 -84t-53 -124.5q-10 -70 16.5 -124t80.5 -85.5t126 -31.5q47 0 83.5 11.5t65.5 30.5l21 146q-27 -29 -65 -48.5t-81 -18.5q-33 1 -56 17
t-33 42.5t-5 59.5zM339 658l-74 84l-113 -69l173 -142l211 137l-94 74z" />
    <glyph glyph-name="Dcaron" unicode="&#x10e;" horiz-adv-x="711" 
d="M163 700l-119 -700h171l120 700h-172zM293 0q110 2 199.5 45.5t147 121.5t73.5 183q15 102 -19 180.5t-109 123.5t-183 46h-130l-27 -150h135q57 -1 96.5 -24.5t57 -67.5t7.5 -108q-11 -66 -45.5 -110t-84.5 -66t-108 -24h-125l-26 -150h141zM487 903l-74 85l-111 -69
l172 -143l211 138l-95 73z" />
    <glyph glyph-name="dcaron" unicode="&#x10f;" horiz-adv-x="598" 
d="M500 780l-133 -780h149l135 780h-151zM42 231q-8 -66 11.5 -120.5t62 -87t103.5 -32.5q46 0 85.5 18.5t69.5 51.5t49.5 76.5t26.5 92.5q6 47 -0.5 90t-26 77t-52.5 53.5t-79 19.5q-62 0 -115.5 -31t-89.5 -85.5t-45 -122.5zM198 230q5 32 24 59.5t47.5 43.5t59.5 15
q21 -1 37 -10.5t26.5 -26t14.5 -37t1 -43.5q-5 -24 -17 -46t-29.5 -38.5t-38.5 -25.5t-43 -8q-30 0 -50.5 16.5t-28 43.5t-3.5 57zM761 779l-129 -256l111 -24l164 247z" />
    <glyph glyph-name="Dcroat" unicode="&#x110;" horiz-adv-x="711" 
d="M27 298h337l17 99h-336zM163 700l-119 -700h171l120 700h-172zM293 0q110 2 199.5 45.5t147 121.5t73.5 183q15 102 -19 180.5t-109 123.5t-183 46h-130l-27 -150h135q57 -1 96.5 -24.5t57 -67.5t7.5 -108q-11 -66 -45.5 -110t-84.5 -66t-108 -24h-125l-26 -150h141z" />
    <glyph glyph-name="dcroat" unicode="&#x111;" horiz-adv-x="598" 
d="M354 566l349 -1l18 100h-349zM500 780l-133 -780h149l135 780h-151zM42 231q-8 -66 11.5 -120.5t62 -87t103.5 -32.5q46 0 85.5 18.5t69.5 51.5t49.5 76.5t26.5 92.5q6 47 -0.5 90t-26 77t-52.5 53.5t-79 19.5q-62 0 -115.5 -31t-89.5 -85.5t-45 -122.5zM198 230
q5 32 24 59.5t47.5 43.5t59.5 15q21 -1 37 -10.5t26.5 -26t14.5 -37t1 -43.5q-5 -24 -17 -46t-29.5 -38.5t-38.5 -25.5t-43 -8q-30 0 -50.5 16.5t-28 43.5t-3.5 57z" />
    <glyph glyph-name="Emacron" unicode="&#x112;" horiz-adv-x="585" 
d="M152 0h346l24 139h-346zM248 561h345l25 139h-345zM203 300h326l24 136h-326zM163 700l-119 -700h159l121 700h-161zM221 777l364 -1l22 131h-363z" />
    <glyph glyph-name="emacron" unicode="&#x113;" 
d="M121 199h410q3 11 4.5 20.5t2.5 17.5q9 69 -12 121.5t-70 82t-125 29.5q-69 0 -125 -24t-95 -67t-58 -100q-4 -12 -6.5 -24t-4.5 -25q-9 -67 14 -121.5t76 -86t129 -32.5q60 0 107.5 17t84.5 47t67 70l-131 35q-14 -17 -32.5 -30.5t-40.5 -21t-48 -7.5q-32 2 -50.5 19
t-24.5 46t-2 65l7 24q7 32 23 58t41 42.5t57 14.5q26 -1 40.5 -12.5t20 -31t5.5 -43.5h-251zM164 531h363l24 131h-364z" />
    <glyph glyph-name="Ebreve" unicode="&#x114;" horiz-adv-x="585" 
d="M152 0h346l24 139h-346zM248 561h345l25 139h-345zM203 300h326l24 136h-326zM163 700l-119 -700h159l121 700h-161zM267 922q-3 -41 11.5 -74t47 -52t81.5 -19q50 0 87 19.5t61 52t32 72.5l-100 1q-4 -15 -14.5 -28.5t-25.5 -22t-34 -7.5t-30 8.5t-16 21t-5 28.5h-95z
" />
    <glyph glyph-name="ebreve" unicode="&#x115;" 
d="M121 199h410q3 11 4.5 20.5t2.5 17.5q9 69 -12 121.5t-70 82t-125 29.5q-69 0 -125 -24t-95 -67t-58 -100q-4 -12 -6.5 -24t-4.5 -25q-9 -67 14 -121.5t76 -86t129 -32.5q60 0 107.5 17t84.5 47t67 70l-131 35q-14 -17 -32.5 -30.5t-40.5 -21t-48 -7.5q-32 2 -50.5 19
t-24.5 46t-2 65l7 24q7 32 23 58t41 42.5t57 14.5q26 -1 40.5 -12.5t20 -31t5.5 -43.5h-251zM210 677q-3 -41 12 -74.5t47 -52t81 -18.5q50 0 87 19t61 51.5t33 73.5l-100 1q-5 -16 -15.5 -29.5t-25.5 -21.5t-34 -8q-18 1 -29.5 9t-16 21t-4.5 29h-96z" />
    <glyph glyph-name="Edotaccent" unicode="&#x116;" horiz-adv-x="585" 
d="M152 0h346l24 139h-346zM248 561h345l25 139h-345zM203 300h326l24 136h-326zM163 700l-119 -700h159l121 700h-161zM330 860q-4 -35 18.5 -58.5t57.5 -24.5q34 0 63.5 23t33.5 57q4 35 -18.5 58.5t-56.5 24.5q-35 0 -64 -23.5t-34 -56.5z" />
    <glyph glyph-name="edotaccent" unicode="&#x117;" 
d="M121 199h410q3 11 4.5 20.5t2.5 17.5q9 69 -12 121.5t-70 82t-125 29.5q-69 0 -125 -24t-95 -67t-58 -100q-4 -12 -6.5 -24t-4.5 -25q-9 -67 14 -121.5t76 -86t129 -32.5q60 0 107.5 17t84.5 47t67 70l-131 35q-14 -17 -32.5 -30.5t-40.5 -21t-48 -7.5q-32 2 -50.5 19
t-24.5 46t-2 65l7 24q7 32 23 58t41 42.5t57 14.5q26 -1 40.5 -12.5t20 -31t5.5 -43.5h-251zM273 614q-3 -35 19 -58.5t57 -23.5q34 -1 63.5 22.5t33.5 56.5q4 35 -18 59t-57 24q-34 0 -63.5 -23t-34.5 -57z" />
    <glyph glyph-name="Eogonek" unicode="&#x118;" horiz-adv-x="585" 
d="M152 0h346l24 139h-346zM248 561h345l25 139h-345zM203 300h326l24 136h-326zM163 700l-119 -700h159l121 700h-161zM340 -111q-10 -7 -24.5 -13.5t-28.5 -5.5q-16 1 -21.5 11t-3.5 25q4 20 18 36t34.5 30.5t42.5 27.5l-40 25q-33 -16 -67.5 -36t-59 -46.5t-30.5 -61.5
q-6 -47 24 -73.5t77 -27.5q35 0 59.5 11.5t42.5 27.5z" />
    <glyph glyph-name="eogonek" unicode="&#x119;" 
d="M121 199h410q3 11 4.5 20.5t2.5 17.5q9 69 -12 121.5t-70 82t-125 29.5q-69 0 -125 -24t-95 -67t-58 -100q-4 -12 -6.5 -24t-4.5 -25q-9 -67 14 -121.5t76 -86t129 -32.5q45 0 79.5 12.5t63.5 32.5t57 43.5t59 45.5l-131 35q-14 -17 -32.5 -30.5t-40.5 -21t-48 -7.5
q-32 2 -50.5 19t-24.5 46t-2 65l7 24q7 32 23 58t41 42.5t57 14.5q26 -1 40.5 -12.5t20 -31t5.5 -43.5h-251zM462 -40q-10 -7 -24.5 -13.5t-28.5 -5.5q-16 1 -21.5 11t-4.5 24q4 18 19 36t44 43.5t73 68.5l-77 -24q-32 -18 -67 -39.5t-61 -49t-32 -62.5q-6 -47 25 -72
t74 -25q35 0 60.5 11t42.5 27z" />
    <glyph glyph-name="Ecaron" unicode="&#x11a;" horiz-adv-x="585" 
d="M152 0h346l24 139h-346zM248 561h345l25 139h-345zM203 300h326l24 136h-326zM163 700l-119 -700h159l121 700h-161zM420 903l-74 85l-111 -69l172 -143l211 138l-94 73z" />
    <glyph glyph-name="ecaron" unicode="&#x11b;" 
d="M121 199h410q3 11 4.5 20.5t2.5 17.5q9 69 -12 121.5t-70 82t-125 29.5q-69 0 -125 -24t-95 -67t-58 -100q-4 -12 -6.5 -24t-4.5 -25q-9 -67 14 -121.5t76 -86t129 -32.5q60 0 107.5 17t84.5 47t67 70l-131 35q-14 -17 -32.5 -30.5t-40.5 -21t-48 -7.5q-32 2 -50.5 19
t-24.5 46t-2 65l7 24q7 32 23 58t41 42.5t57 14.5q26 -1 40.5 -12.5t20 -31t5.5 -43.5h-251zM364 658l-74 84l-112 -69l172 -142l212 137l-95 74z" />
    <glyph glyph-name="Gcircumflex" unicode="&#x11c;" horiz-adv-x="790" 
d="M423 253l183 1q-16 -26 -36 -49.5t-45 -41.5t-56 -27.5t-69 -9.5q-47 0 -80.5 18t-54 49.5t-27 71.5t-0.5 85q8 47 30.5 87t55.5 70t74 46.5t87 15.5q55 -1 90 -27t54 -69l156 76q-43 76 -113.5 122t-170.5 45q-82 0 -156 -27t-132.5 -76t-97 -116t-51.5 -147
q-11 -77 6.5 -144.5t59 -118.5t105 -80t144.5 -29q88 0 160 32.5t124.5 89t84.5 129.5t41 154h-344zM534 861l74 -85l112 69l-171 142l-212 -136l94 -74z" />
    <glyph glyph-name="gcircumflex" unicode="&#x11d;" horiz-adv-x="592" 
d="M6 -32q-1 -63 23 -109.5t73.5 -71.5t125.5 -25q74 0 134 29t99.5 84.5t51.5 134.5l77 450h-144l-78 -449q-6 -37 -25 -66t-47 -45.5t-63 -16.5q-28 0 -47 10.5t-28 29t-10 44.5zM43 237q-8 -66 12 -119t63 -84t104 -31q45 0 84.5 17.5t69.5 49.5t49.5 74.5t26.5 91.5
q6 48 -1 90t-27 74t-53 51t-79 19q-61 0 -114.5 -29.5t-89 -82.5t-45.5 -121zM198 236q6 32 25 57.5t47 40.5t59 14q20 -1 36.5 -9.5t27.5 -23.5t15.5 -34.5t0.5 -43.5t-16.5 -45t-30 -36t-38 -23.5t-41.5 -7.5q-31 1 -51.5 15.5t-29 39.5t-4.5 56zM391 616l74 -86l112 69
l-171 143l-212 -137l94 -74z" />
    <glyph glyph-name="Gbreve" unicode="&#x11e;" horiz-adv-x="790" 
d="M423 253l183 1q-16 -26 -36 -49.5t-45 -41.5t-56 -27.5t-69 -9.5q-47 0 -80.5 18t-54 49.5t-27 71.5t-0.5 85q8 47 30.5 87t55.5 70t74 46.5t87 15.5q55 -1 90 -27t54 -69l156 76q-43 76 -113.5 122t-170.5 45q-82 0 -156 -27t-132.5 -76t-97 -116t-51.5 -147
q-11 -77 6.5 -144.5t59 -118.5t105 -80t144.5 -29q88 0 160 32.5t124.5 89t84.5 129.5t41 154h-344zM380 922q-3 -41 12 -74t47 -52t81 -19q50 0 87 19.5t61 52t33 72.5l-100 1q-5 -15 -15 -28.5t-25 -22t-35 -7.5q-18 1 -29.5 8.5t-16 21t-5.5 28.5h-95z" />
    <glyph glyph-name="gbreve" unicode="&#x11f;" horiz-adv-x="592" 
d="M6 -32q-1 -63 23 -109.5t73.5 -71.5t125.5 -25q74 0 134 29t99.5 84.5t51.5 134.5l77 450h-144l-78 -449q-6 -37 -25 -66t-47 -45.5t-63 -16.5q-28 0 -47 10.5t-28 29t-10 44.5zM43 237q-8 -66 12 -119t63 -84t104 -31q45 0 84.5 17.5t69.5 49.5t49.5 74.5t26.5 91.5
q6 48 -1 90t-27 74t-53 51t-79 19q-61 0 -114.5 -29.5t-89 -82.5t-45.5 -121zM198 236q6 32 25 57.5t47 40.5t59 14q20 -1 36.5 -9.5t27.5 -23.5t15.5 -34.5t0.5 -43.5t-16.5 -45t-30 -36t-38 -23.5t-41.5 -7.5q-31 1 -51.5 15.5t-29 39.5t-4.5 56zM237 677q-3 -41 12 -74.5
t47 -52t82 -18.5q49 0 86 19t61 51.5t33 73.5l-100 1q-5 -16 -15 -29.5t-25 -21.5t-34 -8q-19 1 -30.5 9t-16 21t-4.5 29h-96z" />
    <glyph glyph-name="Gdotaccent" unicode="&#x120;" horiz-adv-x="790" 
d="M423 253l183 1q-16 -26 -36 -49.5t-45 -41.5t-56 -27.5t-69 -9.5q-47 0 -80.5 18t-54 49.5t-27 71.5t-0.5 85q8 47 30.5 87t55.5 70t74 46.5t87 15.5q55 -1 90 -27t54 -69l156 76q-43 76 -113.5 122t-170.5 45q-82 0 -156 -27t-132.5 -76t-97 -116t-51.5 -147
q-11 -77 6.5 -144.5t59 -118.5t105 -80t144.5 -29q88 0 160 32.5t124.5 89t84.5 129.5t41 154h-344zM444 860q-4 -35 18.5 -58.5t56.5 -24.5q35 0 64 23t33 57q4 35 -18 58.5t-58 24.5q-34 0 -63 -23.5t-33 -56.5z" />
    <glyph glyph-name="gdotaccent" unicode="&#x121;" horiz-adv-x="592" 
d="M6 -32q-1 -63 23 -109.5t73.5 -71.5t125.5 -25q74 0 134 29t99.5 84.5t51.5 134.5l77 450h-144l-78 -449q-6 -37 -25 -66t-47 -45.5t-63 -16.5q-28 0 -47 10.5t-28 29t-10 44.5zM43 237q-8 -66 12 -119t63 -84t104 -31q45 0 84.5 17.5t69.5 49.5t49.5 74.5t26.5 91.5
q6 48 -1 90t-27 74t-53 51t-79 19q-61 0 -114.5 -29.5t-89 -82.5t-45.5 -121zM198 236q6 32 25 57.5t47 40.5t59 14q20 -1 36.5 -9.5t27.5 -23.5t15.5 -34.5t0.5 -43.5t-16.5 -45t-30 -36t-38 -23.5t-41.5 -7.5q-31 1 -51.5 15.5t-29 39.5t-4.5 56zM293 629
q-5 -35 17.5 -58.5t57.5 -23.5q34 -1 63.5 22.5t33.5 56.5q4 35 -18 59t-57 24q-35 1 -64 -22.5t-33 -57.5z" />
    <glyph glyph-name="uni0122" unicode="&#x122;" horiz-adv-x="790" 
d="M423 253l183 1q-16 -26 -36 -49.5t-45 -41.5t-56 -27.5t-69 -9.5q-47 0 -80.5 18t-54 49.5t-27 71.5t-0.5 85q8 47 30.5 87t55.5 70t74 46.5t87 15.5q55 -1 90 -27t54 -69l156 76q-43 76 -113.5 122t-170.5 45q-82 0 -156 -27t-132.5 -76t-97 -116t-51.5 -147
q-11 -77 6.5 -144.5t59 -118.5t105 -80t144.5 -29q88 0 160 32.5t124.5 89t84.5 129.5t41 154h-344zM299 -83l-128 -257l111 -24l165 247z" />
    <glyph glyph-name="uni0123" unicode="&#x123;" horiz-adv-x="553" 
d="M-42 -32q1 -63 25.5 -109.5t74.5 -72t125 -25.5q74 1 133.5 30t99 84.5t52.5 134.5l76 450h-146l-77 -450q-7 -37 -26.5 -65.5t-48 -45t-62.5 -16.5q-28 1 -46.5 10.5t-27.5 28.5t-10 44zM-4 236q-8 -66 12.5 -119t64.5 -83.5t104 -30.5q46 0 85 18t68.5 49.5t49 74
t25.5 91.5q6 48 -1.5 90t-28 74.5t-53.5 51t-80 18.5q-60 0 -113.5 -30t-88.5 -82.5t-44 -121.5zM152 236q6 32 25 57.5t47.5 40.5t58.5 14q21 -1 37 -9.5t26 -23.5t13.5 -35t0.5 -43q-4 -24 -16 -45t-29.5 -36t-38 -23.5t-42.5 -7.5q-30 1 -50 16t-28 40t-4 55zM325 542
l161 238l-107 44l-193 -223z" />
    <glyph glyph-name="Hcircumflex" unicode="&#x124;" horiz-adv-x="763" 
d="M139 294l517 -1l26 152h-516zM619 700l-119 -700h165l121 700h-167zM163 700l-119 -700h165l121 700h-167zM506 861l74 -85l111 69l-171 142l-212 -136l94 -74z" />
    <glyph glyph-name="hcircumflex" unicode="&#x125;" horiz-adv-x="551" 
d="M313 780h-150l-134 -780h150zM368 280l-49 -280h149l52 302q6 51 -3.5 90.5t-40 62t-85.5 22.5q-57 0 -97 -28t-64 -72.5t-34 -95.5h31q6 22 19 41.5t32 31.5t43 10t35 -13.5t13 -30t-1 -40.5zM312 925l74 -85l112 69l-172 142l-211 -137l94 -74z" />
    <glyph glyph-name="Hbar" unicode="&#x126;" horiz-adv-x="763" 
d="M92 294h519l26 151h-519zM571 700l-119 -700h168l120 700h-169zM115 700l-119 -700h167l121 700h-169zM21 537h758l18 106h-757z" />
    <glyph glyph-name="hbar" unicode="&#x127;" horiz-adv-x="551" 
d="M267 780h-152l-134 -780h152zM322 280l-51 -280h151l51 302q7 51 -3.5 90.5t-41.5 62t-86 22.5q-57 -1 -96 -28.5t-61.5 -72t-32.5 -95.5h30q5 22 18 41.5t32.5 31t43.5 10.5q24 -2 34 -14t12 -30t0 -40zM31 597h326l23 131h-326z" />
    <glyph glyph-name="Itilde" unicode="&#x128;" horiz-adv-x="310" 
d="M163 700l-119 -700h169l120 700h-170zM81 844l63 -64q6 14 18.5 31.5t37.5 18.5q23 2 42.5 -11t39.5 -26t44 -14q30 -1 57 11.5t49.5 32.5t35.5 39l-62 75q-15 -19 -33.5 -35t-39.5 -17q-25 0 -42.5 12.5t-35.5 25.5t-46 13q-30 1 -55.5 -12.5t-44 -35t-28.5 -44.5z" />
    <glyph glyph-name="itilde" unicode="&#x129;" horiz-adv-x="268" 
d="M113 460l-78 -460h144l79 460h-145zM18 598l63 -63q6 14 18 31.5t38 18.5q23 1 42 -11.5t39 -26t44 -14.5q30 -1 57.5 12t49.5 32.5t35 38.5l-61 76q-15 -20 -34 -35.5t-40 -16.5q-25 -1 -42.5 11.5t-35.5 26t-45 13.5q-31 1 -56 -13t-43.5 -35t-28.5 -45z" />
    <glyph glyph-name="Imacron" unicode="&#x12a;" horiz-adv-x="310" 
d="M163 700l-119 -700h169l120 700h-170zM79 777l363 -1l23 131h-363z" />
    <glyph glyph-name="imacron" unicode="&#x12b;" horiz-adv-x="268" 
d="M113 460l-78 -460h144l79 460h-145zM16 531h363l23 131h-363z" />
    <glyph glyph-name="Ibreve" unicode="&#x12c;" horiz-adv-x="310" 
d="M163 700l-119 -700h169l120 700h-170zM124 922q-2 -41 13 -74t47 -52t81 -19q50 0 87 19.5t60.5 52t32.5 72.5l-99 1q-5 -15 -15.5 -28.5t-25.5 -22t-34 -7.5q-18 1 -29.5 8.5t-16.5 21t-5 28.5h-96z" />
    <glyph glyph-name="ibreve" unicode="&#x12d;" horiz-adv-x="268" 
d="M113 460l-78 -460h144l79 460h-145zM61 677q-3 -41 11.5 -74.5t47 -52t81.5 -18.5q50 0 87 19t61 51.5t32 73.5l-99 1q-5 -16 -15.5 -29.5t-25.5 -21.5t-34 -8q-18 1 -29.5 9t-16 21t-5.5 29h-95z" />
    <glyph glyph-name="Iogonek" unicode="&#x12e;" horiz-adv-x="310" 
d="M163 700l-119 -700h169l120 700h-170zM171 -109q-10 -7 -24.5 -13.5t-28.5 -5.5q-16 1 -21.5 11t-4.5 25q4 19 18.5 35.5t35 30.5t42.5 27l-40 26q-33 -16 -68 -36t-59 -46.5t-30 -61.5q-4 -31 9 -54t37.5 -34.5t54.5 -12.5q36 0 60.5 11.5t41.5 27.5z" />
    <glyph glyph-name="iogonek" unicode="&#x12f;" horiz-adv-x="268" 
d="M129 634q-4 -34 18.5 -58t56.5 -24q35 0 64 23t33 57q5 34 -17.5 58t-58.5 24q-34 1 -63 -22.5t-33 -57.5zM113 460l-78 -460h144l79 460h-145zM139 -111q-11 -7 -25 -13.5t-29 -5.5q-16 1 -21.5 11t-3.5 25q4 20 18 36t34.5 30.5t42.5 27.5l-40 25q-33 -16 -67.5 -36
t-59 -46.5t-30.5 -61.5q-5 -47 25 -73.5t76 -27.5q35 0 59.5 11.5t42.5 27.5z" />
    <glyph glyph-name="Idotaccent" unicode="&#x130;" horiz-adv-x="310" 
d="M163 700l-119 -700h169l120 700h-170zM188 860q-5 -35 17.5 -58.5t57.5 -24.5q35 0 64 23t34 57q3 35 -19 58.5t-57 24.5q-35 0 -64 -23.5t-33 -56.5z" />
    <glyph glyph-name="dotlessi" unicode="&#x131;" horiz-adv-x="268" 
d="M113 460l-78 -460h144l79 460h-145z" />
    <glyph glyph-name="IJ" unicode="&#x132;" horiz-adv-x="605" 
d="M173 -64l-106 -117q35 -23 81 -40t99 -17q62 0 115.5 19.5t90 61t46.5 103.5l129 754h-180l-123 -715q-6 -36 -29 -58.5t-50 -23.5q-22 -1 -40.5 9.5t-32.5 23.5zM163 700l-119 -700h169l120 700h-170z" />
    <glyph glyph-name="ij" unicode="&#x133;" horiz-adv-x="529" 
d="M390 634q-5 -34 17.5 -58t57.5 -24q34 0 63.5 23t33.5 57t-18 58t-58 24q-34 1 -63 -22.5t-33 -57.5zM188 -77l-74 -109q20 -19 48 -35.5t71 -16.5q55 0 95.5 21t66 58.5t33.5 86.5l90 532h-143l-86 -494q-2 -18 -10.5 -34t-21 -26t-28.5 -9q-7 0 -14.5 5t-14 11
t-12.5 10zM129 634q-4 -34 18.5 -58t56.5 -24q35 0 64 23t33 57q5 34 -17.5 58t-58.5 24q-34 1 -63 -22.5t-33 -57.5zM113 460l-78 -460h144l79 460h-145z" />
    <glyph glyph-name="Jcircumflex" unicode="&#x134;" horiz-adv-x="321" 
d="M-112 -64l-105 -117q34 -23 79.5 -40t99.5 -17q62 0 115.5 19.5t90.5 61t47 103.5l128 754h-180l-123 -715q-6 -36 -29 -58.5t-51 -23.5q-20 -1 -38.5 9.5t-33.5 23.5zM283 861l74 -85l112 69l-171 142l-212 -136l95 -74z" />
    <glyph glyph-name="jcircumflex" unicode="&#x135;" horiz-adv-x="264" 
d="M-76 -77l-75 -109q21 -19 49 -35.5t71 -16.5q55 0 95.5 21t65.5 58.5t33 86.5l91 532h-144l-85 -494q-3 -18 -11 -34t-21 -25.5t-29 -9.5q-13 0 -22.5 7.5t-17.5 18.5zM211 616l74 -86l112 69l-171 143l-212 -137l95 -74z" />
    <glyph glyph-name="uni0136" unicode="&#x136;" horiz-adv-x="678" 
d="M163 700l-119 -700h172l120 700h-173zM561 700l-331 -329l226 -371h195l-226 369l337 331h-201zM281 -61l-130 -256l113 -24l164 247z" />
    <glyph glyph-name="uni0137" unicode="&#x137;" horiz-adv-x="559" 
d="M161 780l-133 -780h143l134 780h-144zM407 460l-219 -186l168 -274h169l-164 267l230 193h-184zM210 -61l-129 -256l111 -24l165 247z" />
    <glyph glyph-name="kgreenlandic" unicode="&#x138;" horiz-adv-x="559" 
d="M106 460l-78 -460h143l80 460h-145zM407 460l-219 -186l168 -274h169l-164 267l230 193h-184z" />
    <glyph glyph-name="Lacute" unicode="&#x139;" horiz-adv-x="512" 
d="M163 700l-120 -700h439l26 145h-273l95 555h-167zM579 924l-108 54l-171 -156l81 -45z" />
    <glyph glyph-name="lacute" unicode="&#x13a;" horiz-adv-x="262" 
d="M162 780l-132 -780h148l135 780h-151zM431 987l-108 55l-171 -156l82 -45z" />
    <glyph glyph-name="uni013B" unicode="&#x13b;" horiz-adv-x="512" 
d="M163 700l-120 -700h439l26 145h-273l95 555h-167zM219 -61l-129 -256l112 -24l164 247z" />
    <glyph glyph-name="uni013C" unicode="&#x13c;" horiz-adv-x="262" 
d="M162 780l-132 -780h148l135 780h-151zM60 -61l-129 -256l112 -24l165 247z" />
    <glyph glyph-name="Lcaron" unicode="&#x13d;" horiz-adv-x="512" 
d="M163 700l-120 -700h439l26 145h-273l95 555h-167zM492 715l-129 -256l112 -24l164 247z" />
    <glyph glyph-name="lcaron" unicode="&#x13e;" horiz-adv-x="262" 
d="M162 780l-132 -780h148l135 780h-151zM442 779l-129 -256l112 -24l164 247z" />
    <glyph glyph-name="Ldot" unicode="&#x13f;" horiz-adv-x="512" 
d="M163 700l-120 -700h439l26 145h-273l95 555h-167zM359 432q-5 -37 18 -64.5t62 -28.5q26 0 48.5 12.5t38 33.5t18.5 45q4 24 -6 45t-29 34t-45 14q-26 0 -48.5 -12.5t-37.5 -33.5t-19 -45z" />
    <glyph glyph-name="ldot" unicode="&#x140;" horiz-adv-x="462" 
d="M162 780l-132 -780h148l135 780h-151zM287 410q-3 -24 6 -45.5t28.5 -34t45.5 -12.5q26 -1 48.5 11.5t37.5 33.5t18 45q4 24 -5.5 45t-28.5 34.5t-45 13.5t-49 -12.5t-38 -33.5t-18 -45z" />
    <glyph glyph-name="Lslash" unicode="&#x141;" horiz-adv-x="518" 
d="M33 309l393 243l-27 76l-392 -242zM163 700l-120 -700h439l26 145h-273l95 555h-167z" />
    <glyph glyph-name="lslash" unicode="&#x142;" horiz-adv-x="262" 
d="M21 309l357 217l-27 76l-357 -216zM162 780l-132 -780h148l135 780h-151z" />
    <glyph glyph-name="Nacute" unicode="&#x143;" horiz-adv-x="770" 
d="M632 700l-68 -395l-396 428l-125 -733h161l68 395l395 -428l126 733h-161zM661 909l-108 54l-170 -156l81 -45z" />
    <glyph glyph-name="nacute" unicode="&#x144;" 
d="M258 460h-150l-79 -460h150zM368 280l-49 -280h155l51 296q6 51 -5 90.5t-43 62t-88 22.5t-95 -28t-62.5 -72.5t-32.5 -95.5l28 6q5 22 18 41.5t32.5 31.5t43.5 10q23 -2 34 -13.5t13.5 -30t-0.5 -40.5zM528 678l-107 54l-170 -156l80 -44z" />
    <glyph glyph-name="uni0145" unicode="&#x145;" horiz-adv-x="770" 
d="M314 -55l-129 -256l112 -24l164 247zM632 700l-68 -395l-396 428l-125 -733h161l68 395l395 -428l126 733h-161z" />
    <glyph glyph-name="uni0146" unicode="&#x146;" 
d="M258 460h-150l-79 -460h150zM368 280l-49 -280h155l51 296q6 51 -5 90.5t-43 62t-88 22.5t-96 -28t-64 -72.5t-33 -95.5l31 6q5 22 18 41.5t32.5 31.5t43.5 10q23 -2 34 -13.5t13.5 -30t-0.5 -40.5zM208 -61l-129 -256l112 -24l164 247z" />
    <glyph glyph-name="Ncaron" unicode="&#x147;" horiz-adv-x="770" 
d="M488 903l-74 85l-112 -69l172 -143l211 138l-94 73zM632 700l-68 -395l-396 428l-125 -733h161l68 395l395 -428l126 733h-161z" />
    <glyph glyph-name="ncaron" unicode="&#x148;" 
d="M258 460h-150l-79 -460h150zM368 280l-49 -280h155l51 296q6 51 -5 90.5t-43 62t-88 22.5t-96 -28t-64 -72.5t-33 -95.5l31 6q5 22 18 41.5t32.5 31.5t43.5 10q23 -2 34 -13.5t13.5 -30t-0.5 -40.5zM360 658l-74 84l-112 -69l172 -142l212 137l-95 74z" />
    <glyph glyph-name="napostrophe" unicode="&#x149;" horiz-adv-x="725" 
d="M425 460h-149l-80 -460h150zM535 280l-49 -280h155l50 296q7 51 -4.5 90.5t-43 62t-86.5 22.5q-57 0 -97 -28t-64 -72.5t-33 -95.5l31 6q5 22 18 41.5t32.5 31.5t43.5 10t34.5 -13.5t13 -30t-0.5 -40.5zM198 700l-95 -254h109l145 254h-159z" />
    <glyph glyph-name="Eng" unicode="&#x14a;" horiz-adv-x="794" 
d="M466 -215q54 0 96 20t69.5 57.5t35.5 88.5l125 749h-163l-66 -394l-411 429l-123 -735h162l66 394l287 -308l-16 -97q-3 -23 -11.5 -38t-20.5 -22.5t-27 -7.5t-24.5 6.5t-18.5 18.5l-79 -110q25 -27 53 -39t66 -12z" />
    <glyph glyph-name="eng" unicode="&#x14b;" horiz-adv-x="575" 
d="M244 -239q89 0 145 43.5t69 123.5l62 368q14 88 -19.5 131.5t-115.5 43.5q-47 0 -86 -20.5t-67 -58.5l11 68h-152l-77 -460h152l46 277q5 28 18 47.5t32.5 30t44.5 10.5q34 0 47 -20.5t6 -64.5l-53 -314q-5 -34 -20.5 -51.5t-38.5 -17.5q-27 0 -43 26l-79 -111
q24 -26 53 -38.5t65 -12.5z" />
    <glyph glyph-name="Omacron" unicode="&#x14c;" horiz-adv-x="797" 
d="M240 350q7 44 27.5 82t51 67.5t69.5 45.5t84 16t76.5 -17.5t50 -47.5t24.5 -67.5t0 -78.5q-7 -43 -27.5 -81.5t-51.5 -67.5t-70 -45.5t-84 -15.5q-44 0 -75.5 17.5t-50 47t-24.5 67t0 78.5zM64 350q-10 -75 6 -142t57 -118.5t103.5 -81.5t142.5 -30q81 0 153 28.5
t129.5 79.5t94.5 118.5t49 145.5q10 75 -7 141.5t-58.5 117t-104 79t-140.5 28.5q-80 0 -151.5 -27.5t-129 -77.5t-95 -116.5t-49.5 -144.5zM322 777l363 -1l23 131h-363z" />
    <glyph glyph-name="omacron" unicode="&#x14d;" horiz-adv-x="572" 
d="M42 231q-10 -69 16 -123t79.5 -86t124.5 -32q74 0 136.5 31t104.5 85t52 124q10 69 -16 123.5t-79.5 86t-125.5 31.5t-135 -31t-104.5 -85t-52.5 -124zM195 230q5 32 23.5 58.5t46 42.5t57.5 15t49.5 -17.5t27.5 -42t3 -55.5q-5 -32 -23.5 -58.5t-45.5 -42t-58 -14.5
q-31 0 -50 16t-27 42t-3 56zM168 531h363l23 131h-363z" />
    <glyph glyph-name="Obreve" unicode="&#x14e;" horiz-adv-x="797" 
d="M240 350q7 44 27.5 82t51 67.5t69.5 45.5t84 16t76.5 -17.5t50 -47.5t24.5 -67.5t0 -78.5q-7 -43 -27.5 -81.5t-51.5 -67.5t-70 -45.5t-84 -15.5q-44 0 -75.5 17.5t-50 47t-24.5 67t0 78.5zM64 350q-10 -75 6 -142t57 -118.5t103.5 -81.5t142.5 -30q81 0 153 28.5
t129.5 79.5t94.5 118.5t49 145.5q10 75 -7 141.5t-58.5 117t-104 79t-140.5 28.5q-80 0 -151.5 -27.5t-129 -77.5t-95 -116.5t-49.5 -144.5zM368 922q-2 -41 12.5 -74t46.5 -52t81 -19q50 0 87 19.5t61 52t32 72.5l-99 1q-5 -15 -15 -28.5t-25 -22t-35 -7.5q-18 1 -29.5 8.5
t-16 21t-4.5 28.5h-96z" />
    <glyph glyph-name="obreve" unicode="&#x14f;" horiz-adv-x="572" 
d="M42 231q-10 -69 16 -123t79.5 -86t124.5 -32q74 0 136.5 31t104.5 85t52 124q10 69 -16 123.5t-79.5 86t-125.5 31.5t-135 -31t-104.5 -85t-52.5 -124zM195 230q5 32 23.5 58.5t46 42.5t57.5 15t49.5 -17.5t27.5 -42t3 -55.5q-5 -32 -23.5 -58.5t-45.5 -42t-58 -14.5
q-31 0 -50 16t-27 42t-3 56zM214 677q-3 -41 11.5 -74.5t47 -52t81.5 -18.5q50 0 87 19t61 51.5t32 73.5l-99 1q-5 -16 -15.5 -29.5t-25.5 -21.5t-34 -8q-18 1 -29.5 9t-16 21t-5.5 29h-95z" />
    <glyph glyph-name="Ohungarumlaut" unicode="&#x150;" horiz-adv-x="797" 
d="M402 777l173 183l-125 34l-143 -188zM595 777l173 183l-125 34l-143 -188zM240 350q7 44 27.5 82t51 67.5t69.5 45.5t84 16t76.5 -17.5t50 -47.5t24.5 -67.5t0 -78.5q-7 -43 -27.5 -81.5t-51.5 -67.5t-70 -45.5t-84 -15.5q-44 0 -75.5 17.5t-50 47t-24.5 67t0 78.5z
M64 350q-10 -75 6 -142t57 -118.5t103.5 -81.5t142.5 -30q81 0 153 28.5t129.5 79.5t94.5 118.5t49 145.5q10 75 -7 141.5t-58.5 117t-104 79t-141.5 28.5t-151 -27.5t-129 -77.5t-94.5 -116.5t-49.5 -144.5z" />
    <glyph glyph-name="ohungarumlaut" unicode="&#x151;" horiz-adv-x="572" 
d="M251 531l173 183l-125 34l-143 -188zM444 531l173 183l-125 34l-143 -188zM48 231q-8 -69 19 -123.5t80.5 -86t124.5 -31.5q74 0 136 31t103 85t50 124q9 69 -18 123.5t-80.5 86t-125.5 31.5t-134.5 -31t-103.5 -85t-51 -124zM201 230q5 32 23 58.5t45 42.5t57 15
t50 -17.5t28.5 -42t4.5 -55.5q-5 -32 -23.5 -58.5t-45 -42t-57.5 -14.5q-30 0 -49.5 16t-28.5 42t-4 56z" />
    <glyph glyph-name="OE" unicode="&#x152;" horiz-adv-x="956" 
d="M568 300h359l24 136h-359zM556 670l-110 -640h161l110 640h-161zM918 139h-370l-22 9l-124 1q-48 1 -83 15.5t-55.5 41t-27.5 63t0 81.5q9 47 29.5 84t51.5 63t72.5 40t91.5 15h126l18 9h366l25 139h-550q-76 -1 -144 -27.5t-122 -73t-89 -110t-47 -139.5q-10 -73 6 -136
t55 -110.5t98 -74.5t134 -29h539z" />
    <glyph glyph-name="oe" unicode="&#x153;" horiz-adv-x="873" 
d="M702 250l-4 -19l149 -32q2 7 4 17.5t3 17.5q8 63 -10 116.5t-57.5 86.5t-99.5 33q-59 1 -108.5 -24.5t-85.5 -69t-53 -97.5q-4 -12 -7 -24t-5 -25q-7 -61 9.5 -115.5t57 -89t104.5 -35.5q50 0 94 18.5t81 49t62 66.5l-129 35q-23 -24 -52.5 -43.5t-68.5 -18.5
q-34 2 -51.5 20.5t-22.5 48.5t-1 64l8 30q7 31 24 56t42 39.5t54 12.5q30 -1 44.5 -18.5t18 -44t0.5 -55.5zM474 199l372 -1l-5 83h-354zM45 231q-8 -66 12 -120.5t65 -87t110 -32.5t114 32t80 86.5t40 120.5q8 64 -6 118.5t-52.5 88t-103.5 33.5q-65 1 -120.5 -30.5
t-92.5 -86t-46 -122.5zM191 230q6 33 24.5 59.5t45.5 41.5t58 14q30 0 47.5 -16.5t24 -42t1.5 -55.5q-5 -32 -22 -59t-42 -42t-56 -14q-30 0 -49.5 16t-27.5 42t-4 56z" />
    <glyph glyph-name="Racute" unicode="&#x154;" horiz-adv-x="628" 
d="M270 317l136 -317h189l-157 317h-168zM163 700l-119 -700h165l121 700h-167zM242 557h137q30 -1 51.5 -12.5t31 -31t4.5 -47.5q-5 -29 -23 -49.5t-44.5 -31t-58.5 -11.5h-129l-24 -131h152q81 1 144.5 29t104 79t51.5 120q10 70 -16 120.5t-81.5 79t-134.5 29.5h-141z
M587 924l-108 54l-170 -156l81 -45z" />
    <glyph glyph-name="racute" unicode="&#x155;" horiz-adv-x="399" 
d="M255 460h-147l-79 -460h147zM359 305l83 126q-14 18 -33.5 29t-44.5 11q-45 1 -82 -27t-61.5 -71.5t-33.5 -91.5l28 -53q6 27 17.5 50.5t30.5 38t44 13.5q17 0 29.5 -7.5t22.5 -17.5zM473 679l-108 54l-170 -156l80 -45z" />
    <glyph glyph-name="uni0156" unicode="&#x156;" horiz-adv-x="628" 
d="M270 317l136 -317h189l-157 317h-168zM163 700l-119 -700h165l121 700h-167zM242 557h137q30 -1 51.5 -12.5t31 -31t4.5 -47.5q-5 -29 -23 -49.5t-44.5 -31t-58.5 -11.5h-129l-24 -131h152q81 1 144.5 29t104 79t51.5 120q10 70 -16 120.5t-81.5 79t-134.5 29.5h-141z
M277 -61l-129 -256l112 -24l164 247z" />
    <glyph glyph-name="uni0157" unicode="&#x157;" horiz-adv-x="399" 
d="M255 460h-147l-79 -460h147zM359 305l83 126q-14 18 -33.5 29t-44.5 11q-45 1 -82 -27t-61.5 -71.5t-33.5 -91.5l28 -53q6 27 17.5 50.5t30.5 38t44 13.5q17 0 29.5 -7.5t22.5 -17.5zM59 -61l-128 -256l111 -24l164 247z" />
    <glyph glyph-name="Rcaron" unicode="&#x158;" horiz-adv-x="628" 
d="M270 317l136 -317h189l-157 317h-168zM163 700l-119 -700h165l121 700h-167zM242 557h137q30 -1 51.5 -12.5t31 -31t4.5 -47.5q-5 -29 -23 -49.5t-44.5 -31t-58.5 -11.5h-129l-24 -131h152q81 1 144.5 29t104 79t51.5 120q10 70 -16 120.5t-81.5 79t-134.5 29.5h-141z
M427 903l-73 85l-113 -69l172 -143l212 138l-95 73z" />
    <glyph glyph-name="rcaron" unicode="&#x159;" horiz-adv-x="399" 
d="M255 460h-147l-79 -460h147zM359 305l83 126q-14 18 -33.5 29t-44.5 11q-45 1 -82 -27t-61.5 -71.5t-33.5 -91.5l28 -53q6 27 17.5 50.5t30.5 38t44 13.5q17 0 29.5 -7.5t22.5 -17.5zM307 658l-74 85l-111 -69l172 -143l211 138l-94 73z" />
    <glyph glyph-name="Sacute" unicode="&#x15a;" horiz-adv-x="607" 
d="M161 251l-127 -82q16 -57 51 -100t86 -66.5t112 -24.5q77 0 139.5 25t103.5 74t51 119q7 55 -9.5 96.5t-50.5 72t-81 48.5q-22 9 -47.5 18.5t-47 21t-33 26.5t-7.5 34t17.5 32.5t33.5 20.5t41 7q27 0 46 -11t33 -29.5t24 -42.5l134 71q-12 44 -41.5 78.5t-76 55.5
t-110.5 21q-66 0 -124.5 -24t-97 -67.5t-47.5 -104.5q-7 -58 15 -100.5t60 -71t76 -46.5q31 -13 60.5 -26.5t46.5 -32.5t11 -49q-4 -22 -18 -37.5t-34.5 -23t-46.5 -7.5q-28 0 -49 9t-37.5 26t-30 40t-25.5 50zM618 924l-107 54l-171 -156l81 -45z" />
    <glyph glyph-name="sacute" unicode="&#x15b;" horiz-adv-x="443" 
d="M80 174l-76 -97q26 -28 59.5 -50t73 -33.5t84.5 -11.5q52 0 94 16t68.5 49t32.5 83q5 37 -9 63t-39 45t-56 31q-19 8 -44 16.5t-42 19.5t-15 26q3 15 19.5 22t35.5 7q31 0 63 -15.5t57 -39.5l66 96q-36 30 -82.5 49.5t-102.5 19.5q-46 0 -89 -15t-72.5 -44t-35.5 -73
q-5 -36 7 -62.5t34.5 -45t51.5 -33.5q14 -7 32.5 -13.5t36 -14.5t27.5 -17.5t8 -21.5q-1 -12 -9.5 -19t-20 -10t-23.5 -3q-22 0 -44 8.5t-44 26t-46 41.5zM483 678l-108 54l-170 -156l81 -44z" />
    <glyph glyph-name="Scircumflex" unicode="&#x15c;" horiz-adv-x="607" 
d="M161 251l-127 -82q16 -57 51 -100t86 -66.5t112 -24.5q77 0 139.5 25t103.5 74t51 119q7 55 -9.5 96.5t-50.5 72t-81 48.5q-22 9 -47.5 18.5t-47 21t-33 26.5t-7.5 34t17.5 32.5t33.5 20.5t41 7q27 0 46 -11t33 -29.5t24 -42.5l134 71q-12 44 -41.5 78.5t-76 55.5
t-110.5 21q-66 0 -124.5 -24t-97 -67.5t-47.5 -104.5q-7 -58 15 -100.5t60 -71t76 -46.5q31 -13 60.5 -26.5t46.5 -32.5t11 -49q-4 -22 -18 -37.5t-34.5 -23t-46.5 -7.5q-28 0 -49 9t-37.5 26t-30 40t-25.5 50zM435 861l74 -85l112 69l-172 142l-212 -136l95 -74z" />
    <glyph glyph-name="scircumflex" unicode="&#x15d;" horiz-adv-x="443" 
d="M80 174l-76 -97q26 -28 59.5 -50t73 -33.5t84.5 -11.5q52 0 94 16t68.5 49t32.5 83q5 37 -9 63t-39 45t-56 31q-19 8 -44 16.5t-42 19.5t-15 26q3 15 19.5 22t35.5 7q31 0 63 -15.5t57 -39.5l66 96q-36 30 -82.5 49.5t-102.5 19.5q-46 0 -89 -15t-72.5 -44t-35.5 -73
q-5 -36 7 -62.5t34.5 -45t51.5 -33.5q14 -7 32.5 -13.5t36 -14.5t27.5 -17.5t8 -21.5q-1 -12 -9.5 -19t-20 -10t-23.5 -3q-21 0 -43.5 8.5t-44.5 26t-46 41.5zM312 616l74 -86l112 69l-172 143l-212 -137l95 -74z" />
    <glyph glyph-name="Scedilla" unicode="&#x15e;" horiz-adv-x="607" 
d="M161 251l-127 -82q16 -57 51 -100t86 -66.5t112 -24.5q75 0 138 25t104.5 74t51.5 119q7 55 -9.5 96.5t-50.5 72t-81 48.5q-22 9 -47.5 18.5t-47 20.5t-33 26t-7.5 35q4 19 17 32.5t31.5 20.5t39.5 7q27 0 47 -11t35 -29.5t25 -42.5l134 71q-14 45 -43 79.5t-75 55
t-110 20.5q-68 0 -126 -24t-96 -68.5t-47 -104.5q-7 -60 15 -102.5t59.5 -70t76.5 -44.5q31 -13 60.5 -26.5t46.5 -32.5t11 -49q-4 -22 -18 -37.5t-34.5 -23t-46.5 -7.5q-28 0 -49 9t-37.5 26t-30 40t-25.5 50zM263 60l-115 -192q23 8 47 11.5t38 2.5q12 0 24 -2.5t20 -9
t6 -18.5q0 -11 -10 -20t-24 -13t-27 -4q-17 -1 -36.5 6t-36.5 19l-53 -66q33 -21 66 -31t72 -10q32 1 63 14t53.5 36.5t26.5 56.5q5 43 -19.5 70.5t-57.5 28.5q-9 0 -17 -1.5t-16 -2.5l108 122z" />
    <glyph glyph-name="scedilla" unicode="&#x15f;" horiz-adv-x="443" 
d="M79 175l-75 -98q29 -28 63 -49.5t73.5 -33.5t84.5 -12q51 1 91.5 17t67 49t32.5 82q5 38 -8.5 64.5t-38.5 45.5t-57 31q-20 8 -43.5 15.5t-39 19t-12.5 29.5q3 16 20 23.5t36 7.5q30 0 59.5 -18t52.5 -43l67 96q-38 30 -83.5 49.5t-101.5 19.5q-45 0 -85.5 -14.5t-67 -44
t-33.5 -71.5q-5 -40 8.5 -67.5t40 -45.5t57.5 -31q20 -7 39.5 -15.5t32 -20t9.5 -30.5q-2 -11 -10.5 -19t-19.5 -12.5t-23 -4.5q-19 -1 -41 8.5t-45.5 28t-49.5 44.5zM199 63l-115 -192q24 8 47.5 12t37.5 3q11 0 23 -3t20.5 -9.5t6.5 -18.5q0 -12 -10 -20t-24 -12.5
t-28 -4.5q-16 0 -35.5 6.5t-36.5 18.5l-52 -66q33 -21 65.5 -31t71.5 -10q32 1 63 13.5t53.5 36.5t26.5 58q6 43 -18.5 69.5t-59.5 28.5q-8 0 -16 -1l-16 -2l109 121z" />
    <glyph glyph-name="Scaron" unicode="&#x160;" horiz-adv-x="607" 
d="M161 251l-127 -82q16 -57 51 -100t86 -66.5t112 -24.5q77 0 139.5 25t103.5 74t51 119q7 55 -9.5 96.5t-50.5 72t-81 48.5q-22 9 -47.5 18.5t-47 21t-33 26.5t-7.5 34t17.5 32.5t33.5 20.5t41 7q27 0 46 -11t33 -29.5t24 -42.5l134 71q-12 44 -41.5 78.5t-76 55.5
t-110.5 21q-66 0 -124.5 -24t-97 -67.5t-47.5 -104.5q-7 -58 15 -100.5t60 -71t76 -46.5q31 -13 60.5 -26.5t46.5 -32.5t11 -49q-4 -22 -18 -37.5t-34.5 -23t-46.5 -7.5q-28 0 -49 9t-37.5 26t-30 40t-25.5 50zM435 903l-74 85l-112 -69l172 -143l211 138l-94 73z" />
    <glyph glyph-name="scaron" unicode="&#x161;" horiz-adv-x="443" 
d="M80 174l-76 -97q26 -28 59.5 -50t73 -33.5t84.5 -11.5q52 0 94 16t68.5 49t32.5 83q5 37 -9 63t-39 45t-56 31q-19 8 -44 16.5t-42 19.5t-15 26q3 15 19.5 22t35.5 7q31 0 63 -15.5t57 -39.5l66 96q-36 30 -82.5 49.5t-102.5 19.5q-46 0 -89 -15t-72.5 -44t-35.5 -73
q-5 -36 7 -62.5t34.5 -45t51.5 -33.5q14 -7 32.5 -13.5t36 -14.5t27.5 -17.5t8 -21.5q-1 -12 -9.5 -19t-20 -10t-23.5 -3q-21 0 -43.5 8.5t-44.5 26t-46 41.5zM297 645l-73 85l-112 -69l171 -143l213 138l-95 73z" />
    <glyph glyph-name="uni0162" unicode="&#x162;" horiz-adv-x="545" 
d="M192 15l-115 -193q24 8 47.5 12t37.5 3q12 0 24 -3t20 -9.5t6 -18.5q0 -11 -10 -19.5t-24 -13t-27 -4.5q-17 0 -36 7t-36 18l-53 -66q32 -21 65 -31t72 -9q32 0 63 12.5t53.5 36.5t26.5 58q6 43 -18.5 70t-58.5 28q-8 0 -16.5 -1t-16.5 -2l109 121zM68 549h188l-94 -549
h166l95 549h186l26 151h-540z" />
    <glyph glyph-name="uni0163" unicode="&#x163;" horiz-adv-x="308" 
d="M74 14l-115 -193q24 8 47.5 12t37.5 3q12 0 24 -3t20 -9.5t6 -18.5q0 -11 -10 -19.5t-24 -13t-27 -4.5q-17 0 -36 7t-36 18l-53 -66q32 -21 65 -31t72 -9q32 0 63 12.5t53.5 36.5t26.5 58q6 43 -18.5 70t-58.5 28q-8 0 -16.5 -1t-16.5 -2l109 121zM56 460l-22 -125h301
l22 125h-301zM161 620l-106 -620h143l108 620h-145z" />
    <glyph glyph-name="Tcaron" unicode="&#x164;" horiz-adv-x="545" 
d="M68 549h188l-94 -549h166l95 549h186l26 151h-540zM396 903l-74 85l-112 -69l172 -143l211 138l-94 73z" />
    <glyph glyph-name="tcaron" unicode="&#x165;" horiz-adv-x="469" 
d="M55 460l-22 -125h302l22 125h-302zM161 620l-106 -620h143l108 620h-145zM474 785l-130 -256l112 -24l165 247z" />
    <glyph glyph-name="Tbar" unicode="&#x166;" horiz-adv-x="561" 
d="M108 303h368l41 130h-368zM68 549h188l-94 -549h166l95 549h186l26 151h-540z" />
    <glyph glyph-name="tbar" unicode="&#x167;" horiz-adv-x="240" 
d="M21 177h209l23 131h-209zM56 460l-22 -125h301l22 125h-301zM161 620l-106 -620h143l108 620h-145z" />
    <glyph glyph-name="Utilde" unicode="&#x168;" horiz-adv-x="680" 
d="M158 700l-80 -470q-10 -80 17 -138t84 -89t135 -31q80 0 146.5 31t110.5 88.5t57 138.5l79 470h-166l-79 -457q-6 -33 -23.5 -60.5t-45 -43.5t-64.5 -15q-35 1 -55 17.5t-26.5 43.5t-2.5 57l80 458h-167zM265 843l65 -63q6 14 18 31.5t37 18.5q24 2 43.5 -11t39 -26.5
t44.5 -14.5q30 -1 57 12t48.5 32.5t34.5 38.5l-62 76q-15 -19 -33.5 -35t-39.5 -17q-25 -1 -42.5 11.5t-36 26t-45.5 13.5q-29 0 -55.5 -13.5t-46 -34.5t-26.5 -45z" />
    <glyph glyph-name="utilde" unicode="&#x169;" 
d="M324 0h150l79 460h-149zM214 180l50 280h-156l-50 -296q-6 -50 5 -90t43 -62t87 -22q57 0 96 27.5t62.5 72.5t31.5 95l-28 -5q-5 -22 -18 -42t-32.5 -31.5t-43.5 -10.5q-24 2 -34.5 14t-12 30.5t-0.5 39.5zM162 598l65 -63q6 14 17.5 31t37.5 19q24 1 43 -11.5t39 -26
t45 -14.5q30 -1 57 11.5t48.5 32.5t34.5 39l-62 76q-15 -20 -33.5 -35.5t-39.5 -16.5q-25 -1 -42.5 11.5t-36 25.5t-45.5 13q-31 1 -56 -12.5t-43 -35t-29 -44.5z" />
    <glyph glyph-name="Umacron" unicode="&#x16a;" horiz-adv-x="680" 
d="M158 700l-80 -470q-10 -80 17 -138t84 -89t135 -31q80 0 146.5 31t110.5 88.5t57 138.5l79 470h-166l-79 -457q-6 -33 -23.5 -60.5t-45 -43.5t-64.5 -15q-35 1 -55 17.5t-26.5 43.5t-2.5 57l80 458h-167zM265 777h364l21 130h-364z" />
    <glyph glyph-name="umacron" unicode="&#x16b;" 
d="M324 0h150l79 460h-149zM214 180l50 280h-156l-50 -296q-6 -50 5 -90t43 -62t87 -22q57 0 96 27.5t62.5 72.5t31.5 95l-28 -5q-5 -22 -18 -42t-32.5 -31.5t-43.5 -10.5q-24 2 -34.5 14t-12 30.5t-0.5 39.5zM162 531h364l20 131h-363z" />
    <glyph glyph-name="Ubreve" unicode="&#x16c;" horiz-adv-x="680" 
d="M158 700l-80 -470q-10 -80 17 -138t84 -89t135 -31q80 0 146.5 31t110.5 88.5t57 138.5l79 470h-166l-79 -457q-6 -33 -23.5 -60.5t-45 -43.5t-64.5 -15q-35 1 -55 17.5t-26.5 43.5t-2.5 57l80 458h-167zM310 922q-2 -41 13 -74t47.5 -52t81.5 -19q50 0 86.5 19.5t60 52
t32.5 72.5l-100 1q-4 -16 -14.5 -29.5t-25.5 -21.5t-34 -8q-19 1 -30 9t-16 21.5t-6 28.5h-95z" />
    <glyph glyph-name="ubreve" unicode="&#x16d;" 
d="M324 0h150l79 460h-149zM214 180l50 280h-156l-50 -296q-6 -50 5 -90t43 -62t87 -22q57 0 96 27.5t62.5 72.5t31.5 95l-28 -5q-5 -22 -18 -42t-32.5 -31.5t-43.5 -10.5q-24 2 -34.5 14t-12 30.5t-0.5 39.5zM207 677q-2 -42 13.5 -75t48 -52t80.5 -19q50 1 86.5 20
t60 51.5t32.5 73.5h-100q-4 -15 -14.5 -29t-25.5 -22t-34 -7q-18 0 -29.5 8.5t-16.5 21.5t-5 29h-96z" />
    <glyph glyph-name="Uring" unicode="&#x16e;" horiz-adv-x="680" 
d="M158 700l-79 -470q-11 -80 16 -138t83.5 -89t134.5 -31q80 0 146.5 31t111 88.5t57.5 138.5l79 470h-166l-79 -457q-6 -33 -23.5 -60.5t-45 -43.5t-64.5 -15q-35 1 -55 17.5t-26.5 43.5t-2.5 57l80 458h-167zM343 893q-5 -33 8 -59t39 -41.5t59 -15.5t63.5 15t51 40.5
t24.5 58.5t-9 59t-39 41.5t-60 15.5q-33 0 -62.5 -15t-50 -40.5t-24.5 -58.5zM420 891q2 13 10.5 24t21 18.5t23.5 6.5q18 -1 27.5 -15t7.5 -32q-1 -12 -10 -23.5t-21.5 -18t-24.5 -6.5q-17 1 -26.5 15t-7.5 31z" />
    <glyph glyph-name="uring" unicode="&#x16f;" 
d="M324 0h150l79 460h-149zM214 180l50 280h-155l-51 -296q-6 -50 5 -89.5t43 -62t87 -22.5q57 0 96 27.5t62.5 72.5t31.5 95l-27 -5q-6 -22 -19 -42t-32 -31.5t-44 -10.5q-24 2 -34.5 14t-12 30.5t-0.5 39.5zM239 647q-4 -32 9 -58t39 -41.5t58 -15.5q34 0 64 14.5
t50.5 40.5t25.5 58q4 34 -9 60t-39 41.5t-60 15.5q-33 0 -62.5 -15t-50 -41t-25.5 -59zM317 646q2 12 10.5 23.5t21 18.5t23.5 6q17 -1 27 -15t8 -32q-1 -12 -10 -23t-21.5 -18t-24.5 -6q-17 1 -26.5 14.5t-7.5 31.5z" />
    <glyph glyph-name="Uhungarumlaut" unicode="&#x170;" horiz-adv-x="680" 
d="M350 777l173 183l-125 34l-143 -188zM543 777l173 183l-125 34l-143 -188zM158 700l-79 -470q-11 -80 16 -138t84 -89t134 -31q83 0 149.5 30.5t109.5 88.5t56 139l79 470h-166l-79 -457q-6 -33 -22.5 -60.5t-44 -43.5t-66.5 -15q-35 0 -55 16.5t-26.5 44t-2.5 57.5
l80 458h-167z" />
    <glyph glyph-name="uhungarumlaut" unicode="&#x171;" 
d="M247 531l173 183l-125 34l-143 -188zM440 531l173 183l-125 34l-143 -188zM214 180l50 280h-155l-51 -296q-7 -50 4 -89.5t43.5 -62t87.5 -22.5q48 0 83 20.5t59 54.5l-11 -65h150l79 460h-149l-50 -283q-4 -25 -17 -43t-32 -28t-44 -10q-24 0 -34.5 12.5t-12.5 31.5
t0 40z" />
    <glyph glyph-name="Uogonek" unicode="&#x172;" horiz-adv-x="680" 
d="M337 -129q-10 -7 -24.5 -13.5t-28.5 -5.5q-15 2 -21 11.5t-5 24.5q3 19 17 35.5t34 31t42 27.5l-39 25q-33 -16 -67 -36t-58.5 -46.5t-29.5 -61.5q-5 -47 25.5 -73.5t76.5 -27.5q35 0 59.5 12t42.5 27zM158 700l-79 -470q-11 -80 16 -138t84 -89t134 -31q83 0 149.5 30.5
t109.5 88.5t56 139l79 470h-166l-79 -457q-6 -33 -22.5 -60.5t-44 -43.5t-66.5 -15q-35 0 -55 16.5t-26.5 44t-2.5 57.5l80 458h-167z" />
    <glyph glyph-name="uogonek" unicode="&#x173;" 
d="M445 -111q-10 -7 -24.5 -13.5t-28.5 -5.5q-15 2 -21 11.5t-5 24.5q3 19 17 35.5t34 31t42 27.5l-39 25q-33 -16 -67 -36t-58.5 -46.5t-29.5 -61.5q-5 -47 25.5 -73.5t76.5 -27.5q35 0 59.5 12t42.5 27zM214 180l50 280h-155l-51 -296q-7 -50 4 -89.5t43.5 -62t87.5 -22.5
q48 0 83 20.5t59 54.5l-11 -65h150l79 460h-149l-50 -283q-4 -25 -17 -43t-32 -28t-44 -10q-24 0 -34.5 12.5t-12.5 31.5t0 40z" />
    <glyph glyph-name="Wcircumflex" unicode="&#x174;" horiz-adv-x="1033" 
d="M730 287l-117 451l-264 -449l-59 411h-194l174 -744l290 423l149 -422l416 743h-201zM642 882l74 -85l111 69l-172 143l-211 -137l94 -74z" />
    <glyph glyph-name="wcircumflex" unicode="&#x175;" horiz-adv-x="738" 
d="M46 460l146 -491l193 273l100 -273l316 491h-160l-134 -234l-83 272l-175 -270l-51 232h-152zM453 642l74 -85l111 69l-172 143l-211 -138l95 -73z" />
    <glyph glyph-name="Ycircumflex" unicode="&#x176;" horiz-adv-x="640" 
d="M542 700l-177 -259l-86 259h-186l166 -411l-51 -289h170l48 281l313 419h-197zM440 862l74 -86l112 70l-172 142l-211 -137l95 -74z" />
    <glyph glyph-name="ycircumflex" unicode="&#x177;" horiz-adv-x="505" 
d="M570 460h-157l-206 -367l78 -2l-81 369h-161l122 -418l-158 -261h155zM331 616l74 -85l111 69l-172 142l-211 -136l95 -74z" />
    <glyph glyph-name="Ydieresis" unicode="&#x178;" horiz-adv-x="640" 
d="M219 870q-4 -34 18 -58t57 -24q35 -1 64.5 22.5t32.5 56.5q5 35 -17.5 59t-57.5 24q-34 1 -63 -22.5t-34 -57.5zM492 870q-4 -34 18 -58t57 -24q34 -1 63.5 22.5t33.5 56.5q5 35 -18 59t-57 24q-35 1 -64 -22.5t-33 -57.5zM542 700l-176 -260l-87 260h-187l167 -412
l-50 -288h169l48 281l312 419h-196z" />
    <glyph glyph-name="Zacute" unicode="&#x179;" horiz-adv-x="601" 
d="M120 549h269l-411 -549h549l26 145l-285 1l416 554h-537zM621 924l-108 54l-171 -156l82 -45z" />
    <glyph glyph-name="zacute" unicode="&#x17a;" horiz-adv-x="506" 
d="M273 323l-289 -323h451l24 137l-190 1l279 322h-442l-24 -137h191zM533 686l-108 54l-170 -156l80 -45z" />
    <glyph glyph-name="Zdotaccent" unicode="&#x17b;" horiz-adv-x="601" 
d="M120 549h269l-411 -549h549l26 145l-285 1l416 554h-537zM354 860q-3 -35 19 -58.5t57 -24.5q34 0 63.5 23t33.5 57q4 35 -18.5 58.5t-56.5 24.5q-35 0 -64 -23.5t-34 -56.5z" />
    <glyph glyph-name="zdotaccent" unicode="&#x17c;" horiz-adv-x="506" 
d="M273 323l-289 -323h451l24 137l-190 1l279 322h-442l-24 -137h191zM267 625q-4 -34 18.5 -58t57.5 -24q34 0 63.5 23t33.5 57t-18.5 58t-57.5 24q-34 1 -63.5 -22.5t-33.5 -57.5z" />
    <glyph glyph-name="Zcaron" unicode="&#x17d;" horiz-adv-x="601" 
d="M120 549h269l-411 -549h549l26 145l-285 1l416 554h-537zM445 903l-74 85l-112 -69l172 -143l211 138l-94 73z" />
    <glyph glyph-name="zcaron" unicode="&#x17e;" horiz-adv-x="501" 
d="M355 658l-74 84l-111 -69l172 -143l211 138l-94 73zM275 323l-291 -323h451l24 137l-191 1l280 322h-442l-24 -137h193z" />
    <glyph glyph-name="florin" unicode="&#x192;" horiz-adv-x="600" 
d="M127 -200q48 0 88 20.5t68 58t38 87.5l80 369h89l28 125h-90l31 131q8 32 23.5 51t35.5 19q11 0 21 -5.5t23 -19.5l73 107q-33 28 -61 40t-60 12q-47 1 -86.5 -20t-67 -58.5t-39.5 -87.5l-37 -169h-67l-29 -125h69l-75 -332q-7 -31 -23 -50t-37 -19q-9 0 -19.5 6
t-23.5 19l-74 -106q34 -28 62 -40.5t60 -12.5z" />
    <glyph glyph-name="uni0212" unicode="&#x212;" horiz-adv-x="628" 
d="M270 317l136 -317h189l-157 317h-168zM163 700l-119 -700h165l121 700h-167zM242 557h137q30 -1 51.5 -12.5t31 -31t4.5 -47.5q-5 -29 -23 -49.5t-44.5 -31t-58.5 -11.5h-129l-24 -131h152q81 1 144.5 29t104 79t51.5 120q10 70 -16 120.5t-81.5 79t-134.5 29.5h-141z
M262 776q11 40 36.5 73.5t64 53.5t89.5 19q49 0 79 -20t42 -52.5t7 -73.5h-95q0 17 -5.5 30.5t-17.5 21t-32 8.5q-18 0 -33 -8.5t-25 -22t-15 -28.5z" />
    <glyph glyph-name="uni0213" unicode="&#x213;" horiz-adv-x="399" 
d="M255 460h-147l-79 -460h147zM359 305l83 126q-14 18 -33.5 29t-44.5 11q-45 1 -82 -27t-61.5 -71.5t-33.5 -91.5l28 -53q6 27 17.5 50.5t30.5 38t44 13.5q17 0 29.5 -7.5t22.5 -17.5zM129 531q12 40 37.5 73.5t64 53.5t89.5 19q49 0 79 -20t42 -52.5t6 -73.5h-94
q0 17 -6 30.5t-18 21.5t-31 8t-34 -8.5t-24.5 -22t-14.5 -28.5z" />
    <glyph glyph-name="uni0218" unicode="&#x218;" horiz-adv-x="607" 
d="M161 251l-127 -82q16 -57 51 -100t86 -66.5t112 -24.5q77 0 139.5 25t103.5 74t51 119q7 55 -9.5 96.5t-50.5 72t-81 48.5q-22 9 -47.5 18.5t-47 21t-33 26.5t-7.5 34t17.5 32.5t33.5 20.5t41 7q27 0 46 -11t33 -29.5t24 -42.5l134 71q-12 44 -41.5 78.5t-76 55.5
t-110.5 21q-66 0 -124.5 -24t-97 -67.5t-47.5 -104.5q-7 -58 15 -100.5t60 -71t76 -46.5q31 -13 60.5 -26.5t46.5 -32.5t11 -49q-4 -22 -18 -37.5t-34.5 -23t-46.5 -7.5q-28 0 -49 9t-37.5 26t-30 40t-25.5 50zM213 -71l-130 -256l112 -24l165 247z" />
    <glyph glyph-name="uni0219" unicode="&#x219;" horiz-adv-x="443" 
d="M80 174l-76 -97q26 -28 59.5 -50t73 -33.5t84.5 -11.5q52 0 94 16t68.5 49t32.5 83q5 37 -9 63t-39 45t-56 31q-19 8 -44 16.5t-42 19.5t-15 26q3 15 19.5 22t35.5 7q31 0 63 -15.5t57 -39.5l66 96q-36 30 -82.5 49.5t-102.5 19.5q-46 0 -89 -15t-72.5 -44t-35.5 -73
q-5 -36 7 -62.5t34.5 -45t51.5 -33.5q14 -7 32.5 -13.5t36 -14.5t27.5 -17.5t8 -21.5q-1 -12 -9.5 -19t-20 -10t-23.5 -3q-22 0 -44 8.5t-44 26t-46 41.5zM151 -68l-129 -256l112 -24l164 247z" />
    <glyph glyph-name="uni021A" unicode="&#x21a;" horiz-adv-x="545" 
d="M68 549h188l-94 -549h166l95 549h186l26 151h-540zM202 -60l-129 -256l111 -24l164 247z" />
    <glyph glyph-name="uni021B" unicode="&#x21b;" horiz-adv-x="308" 
d="M56 460l-22 -125h301l22 125h-301zM161 620l-106 -620h143l108 620h-145zM83 -60l-129 -256l112 -24l164 247z" />
    <glyph glyph-name="uni0237" unicode="&#x237;" horiz-adv-x="264" 
d="M-76 -77l-75 -109q21 -19 49 -35.5t71 -16.5q55 0 95.5 21t65.5 58.5t33 86.5l91 532h-144l-85 -494q-3 -18 -11 -34t-21 -25.5t-29 -9.5q-13 0 -22.5 7.5t-17.5 18.5z" />
    <glyph glyph-name="circumflex" unicode="&#x2c6;" horiz-adv-x="466" 
d="M317 629l74 -85l112 69l-172 142l-212 -137l95 -74z" />
    <glyph glyph-name="caron" unicode="&#x2c7;" horiz-adv-x="466" 
d="M318 678l-74 84l-112 -68l172 -143l211 137l-94 74z" />
    <glyph glyph-name="breve" unicode="&#x2d8;" horiz-adv-x="530" 
d="M218 850q-2 -41 13 -74t47.5 -52t82.5 -19q49 0 85.5 19t60 52t32.5 73l-100 1q-4 -15 -14 -29t-25.5 -22t-33.5 -7q-19 0 -30.5 8t-16.5 21.5t-6 28.5h-95z" />
    <glyph glyph-name="dotaccent" unicode="&#x2d9;" horiz-adv-x="291" 
d="M171 815q-3 -35 20.5 -59t58.5 -24t63 23t32 58q3 35 -20 58.5t-59 23.5q-35 0 -63 -23t-32 -57z" />
    <glyph glyph-name="ring" unicode="&#x2da;" horiz-adv-x="318" 
d="M141 770q-4 -32 8.5 -58t38.5 -41.5t59 -15.5q34 0 64 15t50 40.5t25 57.5q5 34 -8.5 60t-39 41.5t-59.5 15.5t-63.5 -15t-50 -41t-24.5 -59zM218 769q2 13 10.5 24t21 18t24.5 6q17 -1 26.5 -14.5t7.5 -32.5q-1 -12 -10 -23t-21 -17.5t-25 -6.5q-17 1 -26.5 14.5
t-7.5 31.5z" />
    <glyph glyph-name="ogonek" unicode="&#x2db;" horiz-adv-x="252" 
d="M153 -111q-10 -7 -24.5 -13.5t-28.5 -5.5q-15 2 -21 11.5t-5 24.5q3 19 17 35.5t34 31t42 27.5l-39 25q-33 -16 -67 -36t-58.5 -46.5t-29.5 -61.5q-5 -47 25.5 -73.5t76.5 -27.5q35 0 59.5 12t42.5 27z" />
    <glyph glyph-name="tilde" unicode="&#x2dc;" horiz-adv-x="514" 
d="M153 639l64 -63q6 14 18 31.5t37 18.5q23 2 43 -11t40 -26.5t44 -14.5q30 -1 57 12t49 33t34 39l-62 75q-15 -20 -32.5 -35.5t-39.5 -16.5q-25 0 -42.5 12t-36 25.5t-46.5 13.5q-30 1 -55.5 -12.5t-43.5 -35t-28 -45.5z" />
    <glyph glyph-name="hungarumlaut" unicode="&#x2dd;" horiz-adv-x="0" 
d="M125 519l173 183l-125 34l-143 -188zM318 519l173 183l-125 34l-143 -188z" />
    <glyph glyph-name="gravecomb" unicode="&#x300;" horiz-adv-x="0" 
d="M242 536l84 42l-123 160l-116 -52z" />
    <glyph glyph-name="acutecomb" unicode="&#x301;" horiz-adv-x="0" 
d="M173 534l205 150l-117 57l-177 -160z" />
    <glyph glyph-name="uni0302" unicode="&#x302;" horiz-adv-x="0" 
d="M136 549l139 100h-37l102 -100l81 84l-150 124l-193 -124z" />
    <glyph glyph-name="tildecomb" unicode="&#x303;" horiz-adv-x="0" 
d="M140 574q2 11 11.5 23t24 20t31.5 8q16 0 29 -8t25.5 -19t27.5 -19t36 -8q31 0 61.5 14t54 34t34.5 38l-59 76q-20 -24 -40.5 -38.5t-41.5 -14.5q-19 0 -30.5 8t-21.5 18t-24.5 18t-38.5 8q-30 0 -58.5 -13.5t-50 -35t-31.5 -46.5z" />
    <glyph glyph-name="uni0304" unicode="&#x304;" horiz-adv-x="0" 
d="M67 566h372l18 109h-372z" />
    <glyph glyph-name="uni0306" unicode="&#x306;" horiz-adv-x="0" 
d="M230 546q49 0 88.5 18.5t65.5 51.5t32 76h-115q-3 -17 -12 -30t-21 -21t-26 -8q-21 0 -32 17t-6 42h-116q-7 -43 8.5 -76t50 -51.5t83.5 -18.5z" />
    <glyph glyph-name="uni0307" unicode="&#x307;" horiz-adv-x="0" 
d="M162 532q38 0 63 23.5t25 58.5t-25 58.5t-63 23.5q-37 0 -62.5 -23.5t-25.5 -58.5t25.5 -58.5t62.5 -23.5z" />
    <glyph glyph-name="uni0308" unicode="&#x308;" horiz-adv-x="0" 
d="M202 550q39 0 63.5 23t24.5 59t-24.5 59t-63.5 23q-40 0 -64 -23t-24 -59t24 -59t64 -23zM370 550q39 0 63.5 23t24.5 59t-24.5 59t-63.5 23q-40 0 -64 -23t-24 -59t24 -59t64 -23z" />
    <glyph glyph-name="uni030A" unicode="&#x30a;" horiz-adv-x="0" 
d="M187 520q37 0 69.5 16t54 43t26.5 60q9 51 -22 85.5t-88 34.5q-36 0 -68 -16t-53 -42.5t-27 -61.5q-8 -51 22.5 -85t85.5 -34zM199 590q-20 0 -31.5 14t-7.5 35q4 22 19.5 36t36.5 14t32.5 -14t7.5 -36q-3 -21 -19.5 -35t-37.5 -14z" />
    <glyph glyph-name="uni030B" unicode="&#x30b;" horiz-adv-x="0" 
d="M125 519l173 183l-125 34l-143 -188zM318 519l173 183l-125 34l-143 -188z" />
    <glyph glyph-name="uni030C" unicode="&#x30c;" horiz-adv-x="0" 
d="M236 549l192 125l-58 84l-140 -100h39l-104 99l-80 -83z" />
    <glyph glyph-name="uni0312" unicode="&#x312;" horiz-adv-x="0" 
d="M207 498l131 259l-109 23l-168 -250z" />
    <glyph glyph-name="uni0326" unicode="&#x326;" horiz-adv-x="0" 
d="M24 -211l145 145l-106 46l-120 -156z" />
    <glyph glyph-name="uni0327" unicode="&#x327;" horiz-adv-x="0" 
d="M59 -216q35 0 65 14t49.5 37.5t23.5 53.5q6 33 -11.5 57t-49.5 24q-26 0 -49 -4.5t-41 -10.5l54 -12l82 125l-90 3l-94 -153q17 2 34.5 2h30.5q24 0 33.5 -7t7.5 -22q-3 -16 -15 -25.5t-32 -9.5t-40 5t-37 14l-39 -62q22 -14 53.5 -21.5t64.5 -7.5z" />
    <glyph glyph-name="uni0328" unicode="&#x328;" horiz-adv-x="0" 
d="M52 -220q41 0 67.5 12.5t39.5 27.5l-21 69q-12 -10 -25.5 -15t-28.5 -5q-16 0 -23.5 9.5t-5.5 27.5q3 16 15 32t33 32t48 30l-42 25q-38 -18 -71.5 -39.5t-56.5 -47t-29 -58.5q-5 -32 7.5 -54.5t37 -34t55.5 -11.5z" />
    <glyph glyph-name="uni0394" unicode="&#x394;" horiz-adv-x="600" 
d="M-27 0l416 800l147 -800h-563zM161 115h227l-51 371z" />
    <glyph glyph-name="uni03A9" unicode="&#x3a9;" horiz-adv-x="600" 
d="M21 0l22 130l86 -12q-21 30 -34 62t-17.5 66.5t0.5 70.5q9 69 46.5 123.5t95 86.5t123.5 32t114 -32t70.5 -86.5t10.5 -123.5q-5 -36 -20 -70t-38.5 -66t-58.5 -63l90 12l-22 -130h-209l17 103q21 16 39 35t31.5 41t23.5 45.5t14 47.5q6 38 -2 66t-28.5 44t-52.5 16
q-31 0 -57.5 -16t-44 -44t-24.5 -66q-5 -31 -0.5 -62.5t18 -59t33.5 -47.5l-17 -103h-209z" />
    <glyph glyph-name="uni03BC" unicode="&#x3bc;" horiz-adv-x="570" 
d="M264 460h-155l-134 -780h144l57 336q15 -11 30 -15t31 -4q28 0 53 15t43 40l-9 -52h151l77 460h-145l-47 -257q-4 -24 -16 -43t-30 -29t-43 -10q-24 0 -37 10t-17 28.5t-1 41.5z" />
    <glyph glyph-name="pi" unicode="&#x3c0;" horiz-adv-x="584" 
d="M133 430l-74 -430h140l75 430h-141zM79 460l-21 -125h519l22 125h-520zM375 430l-52 -309q-5 -43 5.5 -69t33.5 -38.5t57 -16.5t75 -5l18 116q-17 4 -27 10.5t-13.5 20t-0.5 39.5l45 252h-141z" />
    <glyph glyph-name="uni0400" unicode="&#x400;" horiz-adv-x="560" 
d="M152 0h347l24 139h-347zM248 561h346l25 139h-347zM203 300h327l24 136h-328zM162 700l-119 -700h161l121 700h-163zM257 930l154 -154l85 39l-123 164z" />
    <glyph glyph-name="uni0401" unicode="&#x401;" horiz-adv-x="560" 
d="M152 0h347l24 139h-347zM248 561h346l25 139h-347zM203 300h327l24 136h-328zM162 700l-119 -700h161l121 700h-163zM452 860q-3 -35 20 -58.5t58 -24.5t64 22.5t32 56.5q4 36 -19 59.5t-58 23.5q-35 1 -64 -22.5t-33 -56.5zM216 860q-3 -35 20 -58.5t58 -24.5t64 22.5
t31 56.5q4 36 -18.5 59.5t-58.5 23.5q-34 1 -63 -22.5t-33 -56.5z" />
    <glyph glyph-name="uni0403" unicode="&#x403;" horiz-adv-x="492" 
d="M168 700l-119 -700h167l95 549h239l27 151h-409zM581 922l-110 56l-168 -155l82 -46z" />
    <glyph glyph-name="uni040C" unicode="&#x40c;" horiz-adv-x="615" 
d="M162 700l-119 -700h173l121 700h-175zM559 700l-329 -327l227 -373h193l-225 367l340 333h-206zM645 916l-110 56l-169 -155l83 -46z" />
    <glyph glyph-name="uni040D" unicode="&#x40d;" horiz-adv-x="770" 
d="M757 521l47 223l-725 -564l-46 -223zM325 700h-163l-129 -743l193 170zM804 744l-195 -176l-98 -568h162zM359 911l154 -154l84 39l-122 165z" />
    <glyph glyph-name="uni040E" unicode="&#x40e;" horiz-adv-x="587" 
d="M695 700h-175l-251 -415l73 -2l-83 417h-175l133 -480l-133 -220h171zM261 923q-2 -41 13.5 -74.5t48.5 -53t81 -19.5q50 1 87 20t60 52t31 73l-101 1q-4 -15 -14.5 -28.5t-25.5 -22t-35 -7.5q-17 1 -28.5 9t-16.5 21t-5 28z" />
    <glyph glyph-name="uni0410" unicode="&#x410;" horiz-adv-x="713" 
d="M173 136l364 -1l11 129h-342zM410 443l53 -227l-14 -42l54 -174h183l-230 749l-489 -749h195l114 179l-1 38z" />
    <glyph glyph-name="uni0411" unicode="&#x411;" horiz-adv-x="653" 
d="M148 300h227q29 -1 48.5 -10t28.5 -26t4 -44t-21 -45t-40.5 -27t-54.5 -9h-222l-25 -139h270q66 1 122.5 29t94.5 77.5t46 112.5q9 63 -16 112t-74 76.5t-113 28.5h-254zM168 700l-119 -700h170l97 561h317l24 139h-489z" />
    <glyph glyph-name="uni0412" unicode="&#x412;" horiz-adv-x="645" 
d="M225 349h137q65 1 122.5 19.5t96 56.5t46.5 97q7 46 -9 79.5t-47.5 55t-74 32.5t-88.5 11h-245l-120 -700h276q75 1 137.5 21t104 63t50.5 113q7 52 -11.5 89.5t-54 62t-81 36t-92.5 11.5h-138l-17 -91l134 -1q29 -1 51.5 -9.5t34 -26t6.5 -47.5q-5 -31 -25 -51
t-48.5 -29t-60.5 -10l-77 -1l79 440l69 -1q37 -1 57 -19t14 -52q-5 -24 -20.5 -40.5t-38 -25.5t-49.5 -10h-105z" />
    <glyph glyph-name="uni0413" unicode="&#x413;" horiz-adv-x="492" 
d="M168 700l-119 -700h167l95 549h239l27 151h-409z" />
    <glyph glyph-name="uni0414" unicode="&#x414;" horiz-adv-x="856" 
d="M474 426l72 -396h187l-210 709l-455 -708h199zM621 0l-20 -110h167l45 255h-778l-44 -255h167l20 110h443z" />
    <glyph glyph-name="uni0415" unicode="&#x415;" horiz-adv-x="587" 
d="M153 0h347l24 139h-348zM248 561h347l24 139h-347zM204 300h328l23 136h-327zM162 700l-118 -700h161l121 700h-164z" />
    <glyph glyph-name="uni0416" unicode="&#x416;" horiz-adv-x="1053" 
d="M295 700h-186l224 -322l-367 -378h204l352 365zM533 700l-118 -700h173l121 700h-176zM927 700l-320 -324l224 -376h193l-231 367l345 333h-211z" />
    <glyph glyph-name="uni0417" unicode="&#x417;" horiz-adv-x="648" 
d="M326 339q56 1 113 10.5t105 29.5t80.5 54.5t39.5 85.5q9 60 -21 103.5t-87 67.5t-130 23q-80 0 -141.5 -27t-100.5 -76t-51 -114l156 -1q12 37 45 60.5t82 22.5q28 0 47.5 -9.5t29 -26t4.5 -38.5q-5 -30 -29 -49t-58.5 -28.5t-74.5 -11.5zM321 -16q81 0 146.5 24.5
t108 70.5t51.5 112q8 57 -14.5 95.5t-66 61.5t-99.5 33.5t-114 10.5l-12 -85q33 -1 61.5 -6.5t49 -17.5t30 -30.5t3.5 -44.5q-6 -30 -26.5 -49.5t-50.5 -29t-64 -8.5q-53 0 -81 26t-27 75h-162q-6 -69 23.5 -122.5t91.5 -84t152 -31.5z" />
    <glyph glyph-name="uni0418" unicode="&#x418;" horiz-adv-x="770" 
d="M757 521l47 223l-725 -564l-46 -223zM325 700h-163l-129 -743l193 170zM804 744l-195 -176l-98 -568h162z" />
    <glyph glyph-name="uni0419" unicode="&#x419;" horiz-adv-x="770" 
d="M757 521l47 223l-725 -564l-46 -223zM325 700h-163l-129 -743l193 170zM804 744l-195 -176l-98 -568h162zM363 922q-2 -42 13 -75t47.5 -52t82.5 -19q49 0 85.5 19.5t60 52t32.5 73.5h-100q-4 -15 -14 -29t-25.5 -22t-33.5 -8q-19 1 -30.5 9t-16.5 21.5t-6 29.5h-95z" />
    <glyph glyph-name="uni041A" unicode="&#x41a;" horiz-adv-x="680" 
d="M162 700l-119 -700h173l121 700h-175zM559 700l-329 -327l227 -373h193l-225 367l340 333h-206z" />
    <glyph glyph-name="uni041B" unicode="&#x41b;" horiz-adv-x="747" 
d="M764 700h-562l-71 -413q-7 -40 -23.5 -70.5t-42.5 -50t-62 -23.5l-19 -142q96 3 161.5 37.5t104.5 99.5t54 158l42 253h221l-94 -549h171z" />
    <glyph glyph-name="uni041C" unicode="&#x41c;" horiz-adv-x="865" 
d="M284 356l135 -293l230 284l-19 -347h176l18 743l-370 -432l-216 425l-236 -736h180z" />
    <glyph glyph-name="uni041D" unicode="&#x41d;" horiz-adv-x="764" 
d="M139 294h518l26 151h-518zM618 700l-119 -700h167l121 700h-169zM162 700l-119 -700h167l121 700h-169z" />
    <glyph glyph-name="uni041E" unicode="&#x41e;" horiz-adv-x="797" 
d="M241 350q8 43 28 81.5t51.5 67.5t70 45.5t83.5 16.5q45 -1 76.5 -18.5t49.5 -47t23.5 -67t-1.5 -78.5q-8 -43 -28.5 -81.5t-51.5 -67.5t-69.5 -45.5t-83.5 -15.5q-45 0 -76 17.5t-49 47.5t-23.5 67.5t0.5 77.5zM63 350q-10 -75 7 -142.5t58.5 -119t104 -81t142.5 -29.5
q82 0 154 28.5t128.5 79.5t93.5 118.5t48 145.5q10 76 -7.5 142t-59.5 116.5t-104.5 79t-141.5 28.5q-80 0 -151.5 -27.5t-128 -77.5t-94 -116.5t-49.5 -144.5z" />
    <glyph glyph-name="uni041F" unicode="&#x41f;" horiz-adv-x="748" 
d="M569 549l-94 -549h170l120 700h-597l-120 -700h172l94 549h255z" />
    <glyph glyph-name="uni0420" unicode="&#x420;" horiz-adv-x="607" 
d="M162 700l-118 -700h167l121 700h-170zM243 562l139 -1q30 0 51 -11t30 -30.5t4 -47.5q-6 -29 -24 -49t-44.5 -30.5t-58.5 -10.5h-128l-25 -139h143q81 1 144.5 28t103.5 78t50 122q11 72 -16 122.5t-83.5 78t-135.5 28.5h-127z" />
    <glyph glyph-name="uni0421" unicode="&#x421;" horiz-adv-x="680" 
d="M246 350q9 45 31.5 82.5t55.5 65t73.5 42.5t83.5 15q64 0 109 -25.5t76 -66.5l25 182q-43 34 -91.5 53t-115.5 18q-83 0 -155.5 -27t-130 -76.5t-95 -116.5t-49.5 -146q-10 -77 8 -143t60.5 -116.5t107 -78.5t144.5 -28q69 0 121.5 19.5t99.5 51.5l25 182
q-43 -36 -98.5 -64t-124.5 -27q-43 0 -76 16.5t-54 44t-29 64.5t-1 79z" />
    <glyph glyph-name="uni0422" unicode="&#x422;" horiz-adv-x="546" 
d="M68 549h188l-94 -549h168l94 549h186l27 151h-542z" />
    <glyph glyph-name="uni0423" unicode="&#x423;" horiz-adv-x="600" 
d="M707 700h-181l-251 -415l74 -2l-83 417h-182l140 -480l-135 -220h178z" />
    <glyph glyph-name="uni0424" unicode="&#x424;" horiz-adv-x="905" 
d="M459 700l-119 -700h171l120 700h-172zM731 351q-9 -46 -39 -73t-73.5 -38.5t-94.5 -12.5l-133 1q-47 1 -85 12t-57 38t-9 72q9 46 38.5 73t73.5 38t95 12h133q47 -1 84.5 -12.5t56.5 -38t10 -71.5zM900 350q9 63 -9.5 112.5t-58 84.5t-94.5 54t-118 19h-193
q-88 0 -164.5 -32.5t-128.5 -92.5t-65 -144q-9 -63 10 -113t58.5 -85t94 -54t118.5 -19h194q66 0 126 19t109 53.5t80.5 84.5t40.5 113z" />
    <glyph glyph-name="uni0425" unicode="&#x425;" horiz-adv-x="695" 
d="M541 700l-142 -198l-69 198h-200l150 -335l-301 -365h213l166 229l83 -229h200l-165 353l278 347h-213z" />
    <glyph glyph-name="uni0426" unicode="&#x426;" horiz-adv-x="834" 
d="M238 151l95 549h-170l-121 -700h573l-24 -134h162l50 285h-107l94 549h-172l-94 -549h-286z" />
    <glyph glyph-name="uni0427" unicode="&#x427;" horiz-adv-x="696" 
d="M315 222l208 -1l27 150l-165 -1zM539 700l-119 -700h174l120 700h-175zM332 700h-170l-39 -232q-9 -65 10.5 -121.5t65 -90.5t116.5 -34l70 148q-34 0 -56.5 15t-31.5 41.5t-4 63.5z" />
    <glyph glyph-name="uni0428" unicode="&#x428;" horiz-adv-x="1049" 
d="M804 151h-199l94 549h-163l-94 -549h-200l95 549h-169l-120 -700h899l120 700h-169z" />
    <glyph glyph-name="uni0429" unicode="&#x429;" horiz-adv-x="1117" 
d="M804 151h-199l94 549h-163l-94 -549h-200l95 549h-169l-120 -700h844l-23 -134h161l49 285h-106l94 549h-169z" />
    <glyph glyph-name="uni042A" unicode="&#x42a;" horiz-adv-x="714" 
d="M311 319l139 -1q30 0 51 -11t30 -30.5t4 -47.5q-6 -28 -24 -48t-45 -31t-59 -11h-128l-25 -139h144q80 1 143.5 28t103.5 78t50 123q11 71 -16 122t-83.5 78.5t-134.5 27.5h-127zM250 550l-94 -550h167l121 700h-344l-26 -151z" />
    <glyph glyph-name="uni042B" unicode="&#x42b;" horiz-adv-x="881" 
d="M732 700l-118 -700h170l121 700h-173zM162 700l-119 -700h167l121 700h-169zM201 319l139 -1q30 0 51 -11t30 -30.5t4 -47.5q-6 -28 -24 -48t-44.5 -31t-59.5 -11h-127l-26 -139h144q81 1 144.5 28t103 78t50.5 123q10 71 -16.5 122t-83 78.5t-135.5 27.5h-127z" />
    <glyph glyph-name="uni042C" unicode="&#x42c;" horiz-adv-x="604" 
d="M162 700l-119 -700h167l121 700h-169zM201 319l139 -1q30 0 51 -11t30 -30.5t4 -47.5q-6 -28 -24 -48t-44.5 -31t-59.5 -11h-127l-26 -139h144q81 1 144.5 28t103 78t50.5 123q10 71 -16.5 122t-83 78.5t-135.5 27.5h-127z" />
    <glyph glyph-name="uni042D" unicode="&#x42d;" horiz-adv-x="680" 
d="M153 282h366l23 136h-366zM517 350q-8 -45 -33.5 -83.5t-62 -67t-79.5 -44.5t-88 -16q-63 0 -109 23.5t-77 56.5l-23 -163q43 -34 92 -53t115 -19q83 0 156 27.5t130.5 76.5t94.5 116t49 146q10 77 -8 143.5t-61 116.5t-106.5 78t-144.5 28q-68 1 -121 -18.5t-100 -51.5
l-22 -164q42 29 97.5 54.5t124.5 24.5q42 0 78 -17t60.5 -46t35 -66.5t2.5 -81.5z" />
    <glyph glyph-name="uni042E" unicode="&#x42e;" horiz-adv-x="1108" 
d="M139 294h332l26 151h-332zM162 700l-119 -700h167l121 700h-169zM552 350q8 43 28.5 81.5t51.5 67.5t70 45.5t84 16.5q45 -1 76 -18.5t49 -47t23.5 -67t-1.5 -78.5q-8 -43 -28.5 -81.5t-51.5 -67.5t-69.5 -45.5t-83.5 -15.5q-45 0 -76 17.5t-49 47.5t-23.5 67.5t0.5 77.5
zM374 350q-10 -75 7.5 -142.5t58.5 -119t103.5 -81t142.5 -29.5q82 0 154 28.5t128.5 79.5t93.5 118.5t49 145.5q10 76 -8 142t-59.5 116.5t-104.5 79t-142 28.5q-80 0 -151.5 -27.5t-128 -77.5t-94 -116.5t-49.5 -144.5z" />
    <glyph glyph-name="uni042F" unicode="&#x42f;" horiz-adv-x="628" 
d="M420 317h-182l-267 -317h203zM651 700h-168l-120 -700h168zM523 557l26 143h-155q-80 -1 -143.5 -28.5t-103.5 -78t-51 -121.5q-10 -68 17 -119.5t83.5 -80t134.5 -29.5h139l23 131l-142 1q-30 0 -50.5 11t-29 31.5t-3.5 47.5q6 29 24 49.5t45 31.5t59 11h127z" />
    <glyph glyph-name="uni0430" unicode="&#x430;" horiz-adv-x="528" 
d="M167 137q4 19 18 32.5t34.5 21t42.5 7.5q34 0 59.5 -10t48.5 -29l10 70q-23 22 -62.5 36t-86.5 14q-54 0 -100 -17.5t-76.5 -49.5t-37.5 -80q-6 -44 12.5 -76t53.5 -49t80 -17q47 1 85 18t63.5 48t35.5 73l-8 57q-7 -30 -24.5 -52t-42 -33.5t-53.5 -10.5q-22 0 -38 12
t-14 35zM144 318q26 12 66.5 27t84.5 12q23 0 38.5 -8.5t22 -22t3.5 -31.5l-54 -295h146l54 324q6 37 -7.5 65t-41 46.5t-64 28t-77.5 9.5q-58 0 -111 -16t-97 -35z" />
    <glyph glyph-name="uni0431" unicode="&#x431;" horiz-adv-x="590" 
d="M337 347q30 0 51 -15t31 -41t4 -60q-6 -32 -24 -58t-45 -41.5t-58 -15.5q-28 0 -46.5 13t-28 34.5t-9.5 46.5l-156 34q0 -66 24 -124t76 -94t134 -36q75 1 137 32t101.5 85t48.5 123q8 68 -16 122t-73.5 85.5t-119.5 31.5zM149 231l63 -21q0 33 11 59t29 43t40 26t45 9
l31 122q-47 0 -84 -17.5t-64.5 -49.5t-45 -75.5t-25.5 -95.5zM56 244l151 -35l-13 114q1 41 16.5 79t42 70.5t62 58t77.5 41.5q80 33 140 84t81 123l-146 1q-22 -40 -63 -66t-100 -52q-59 -25 -105.5 -66t-78.5 -95.5t-48 -119.5t-16 -137z" />
    <glyph glyph-name="uni0432" unicode="&#x432;" horiz-adv-x="509" 
d="M169 240l-7 -53l132 -1q12 0 21.5 -3.5t15 -9.5t7.5 -14t0 -17q-3 -19 -22 -33t-46 -14h-125l-17 -95h188q68 0 110.5 34.5t49.5 89.5q5 45 -15.5 70t-57.5 35.5t-79 10.5h-155zM168 221h156q40 1 76.5 12.5t61.5 36.5t31 64q6 44 -13.5 71.5t-53.5 41t-74 13.5h-145
l-17 -94l125 -1q13 0 21.5 -6t12.5 -15t1 -20q-2 -13 -10.5 -23t-20.5 -16t-26 -6h-117zM122 460l-78 -460h145l79 460h-146z" />
    <glyph glyph-name="uni0433" unicode="&#x433;" horiz-adv-x="347" 
d="M109 460l-79 -460h148l58 335h142l22 125h-291z" />
    <glyph glyph-name="uni0434" unicode="&#x434;" horiz-adv-x="684" 
d="M363 275l63 -246l144 30l-175 439l-324 -434l144 -33zM475 0l-17 -90h142l37 208h-607l-37 -208h148l17 90h317z" />
    <glyph glyph-name="uni0435" unicode="&#x435;" horiz-adv-x="558" 
d="M124 198h411q2 11 3.5 21t2.5 18q9 69 -13.5 121.5t-72.5 82t-125 29.5q-69 0 -125 -24t-94 -67t-56 -100q-4 -12 -6.5 -23.5t-4.5 -24.5q-9 -69 15.5 -123.5t77.5 -85.5t130 -32q59 0 106.5 16.5t84 47t65.5 70.5l-133 35q-14 -17 -32 -30.5t-40 -21t-48 -7.5
q-31 1 -49.5 18.5t-24.5 47t-2 64.5l7 24q7 32 23 58t40.5 42.5t56.5 14.5q26 -1 40.5 -12.5t20 -31t5.5 -43.5h-251z" />
    <glyph glyph-name="uni0436" unicode="&#x436;" horiz-adv-x="854" 
d="M711 460l-220 -184l170 -276h163l-163 261l232 199h-182zM550 460h-143l-78 -460h143zM236 460h-161l155 -188l-263 -272h181l254 265z" />
    <glyph glyph-name="uni0437" unicode="&#x437;" horiz-adv-x="521" 
d="M276 230q54 -1 100.5 8.5t77 33t36.5 63.5q6 42 -18 72t-65.5 46.5t-88.5 16.5q-55 0 -98.5 -20.5t-71 -56.5t-37.5 -84l138 -1q4 14 12 26t21 19.5t30 6.5q13 0 22 -5t14 -13t3 -19q-3 -20 -22 -30t-44 -12zM249 -10q54 0 103.5 17t83 49t39.5 78q7 47 -20 74.5
t-73.5 40t-100.5 11.5l-9 -57q20 -1 36 -6.5t24 -16t5 -29.5q-2 -16 -13 -28t-28.5 -18.5t-38.5 -6.5q-30 0 -44 17t-20 42l-137 1q2 -78 53 -123t140 -45z" />
    <glyph glyph-name="uni0438" unicode="&#x438;" horiz-adv-x="574" 
d="M540 327l39 177l-520 -371l-39 -176zM255 460h-146l-89 -503l173 145zM579 504l-173 -145l-62 -359h146z" />
    <glyph glyph-name="uni0439" unicode="&#x439;" horiz-adv-x="574" 
d="M540 327l39 177l-520 -371l-39 -176zM255 460h-146l-89 -503l173 145zM579 504l-173 -145l-62 -359h146zM212 694q-2 -41 13 -74t47.5 -52t81.5 -19q50 0 86.5 19t60 52t31.5 73l-99 1q-5 -15 -15 -29t-25 -22t-34 -7q-18 0 -29.5 8t-17 21.5t-5.5 28.5h-95z" />
    <glyph glyph-name="uni043A" unicode="&#x43a;" horiz-adv-x="554" 
d="M105 460l-78 -460h145l80 460h-147zM405 460l-217 -184l169 -276h167l-163 265l232 195h-188z" />
    <glyph glyph-name="uni043B" unicode="&#x43b;" horiz-adv-x="605" 
d="M582 460h-452l-46 -262q-7 -36 -29 -48t-52 -15l-19 -134q71 2 121 17.5t79.5 49.5t40.5 92l27 163h161l-57 -323h146z" />
    <glyph glyph-name="uni043C" unicode="&#x43c;" horiz-adv-x="637" 
d="M457 0h148l-48 502l-106 -179zM284 138l2 -170l245 318l26 216zM286 -32l56 156l-146 373l-43 -198zM-27 0h156l111 308l-44 189z" />
    <glyph glyph-name="uni043D" unicode="&#x43d;" horiz-adv-x="596" 
d="M106 187h365l19 112h-364zM447 460l-77 -460h144l79 460h-146zM107 460l-78 -460h145l79 460h-146z" />
    <glyph glyph-name="uni043E" unicode="&#x43e;" horiz-adv-x="572" 
d="M41 231q-9 -69 18 -123.5t81 -86t125 -31.5q74 0 136 31t103.5 85t50.5 124q10 70 -17 124t-80.5 85.5t-125.5 31.5q-73 0 -135.5 -31t-104 -85t-51.5 -124zM195 229q6 32 24.5 59t46 43t58.5 15q30 -1 48.5 -17.5t26.5 -42.5t3 -55q-6 -32 -25 -58.5t-46 -42t-58 -14.5
q-30 1 -49 17t-26.5 42t-2.5 54z" />
    <glyph glyph-name="uni043F" unicode="&#x43f;" 
d="M554 460h-447l-79 -460h146l57 329h155l-57 -329h146z" />
    <glyph glyph-name="uni0440" unicode="&#x440;" horiz-adv-x="598" 
d="M141 -220l116 680h-151l-117 -680h152zM582 230q8 68 -11.5 124t-62.5 89.5t-106 32.5q-47 0 -85.5 -20t-67 -54t-46 -78t-23.5 -93q-6 -48 -1 -91.5t23 -79t50.5 -56t80.5 -20.5q62 0 115.5 32t89.5 88t44 126zM425 231q-5 -32 -24.5 -57.5t-47.5 -40.5t-59 -14
q-20 1 -36 9.5t-26 23.5t-14 35t-1 42q5 25 16.5 45.5t29.5 36t38.5 24t41.5 7.5q31 0 50.5 -15.5t28 -40t3.5 -55.5z" />
    <glyph glyph-name="uni0441" unicode="&#x441;" horiz-adv-x="477" 
d="M194 229q6 34 27.5 61t52 43.5t65.5 16.5q37 0 68 -18t49 -50l20 148q-27 18 -62 29t-81 11q-74 0 -137 -30.5t-105 -84t-52 -124.5q-9 -70 18.5 -124t82 -85.5t126.5 -31.5q46 0 82 11.5t65 30.5l19 146q-27 -28 -65.5 -48t-81.5 -19q-33 1 -55.5 17t-32 42.5t-3.5 58.5
z" />
    <glyph glyph-name="uni0442" unicode="&#x442;" horiz-adv-x="323" 
d="M54 460l-21 -125h317l22 125h-318zM137 440l-75 -440h144l77 440h-146z" />
    <glyph glyph-name="uni0443" unicode="&#x443;" horiz-adv-x="505" 
d="M570 460h-157l-206 -367l78 -2l-81 369h-161l122 -418l-158 -261h155z" />
    <glyph glyph-name="uni0444" unicode="&#x444;" horiz-adv-x="647" 
d="M321 560l-112 -660h141l114 660h-143zM41 231q-10 -74 22 -128t94.5 -83.5t144.5 -29.5q86 0 156.5 29t115.5 83t56 128t-20.5 128t-94.5 83.5t-145 29.5q-86 0 -156.5 -29t-116 -82.5t-56.5 -128.5zM178 230q8 38 33 64t63.5 39t87.5 13q47 0 79 -13.5t47 -39t7 -62.5
q-8 -38 -33 -64t-64 -38.5t-89 -12.5q-46 0 -78.5 13t-46.5 38.5t-6 62.5z" />
    <glyph glyph-name="uni0445" unicode="&#x445;" horiz-adv-x="516" 
d="M393 460l-102 -119l-61 119h-165l133 -217l-223 -243h176l110 135l74 -135h158l-141 233l212 227h-171z" />
    <glyph glyph-name="uni0446" unicode="&#x446;" horiz-adv-x="603" 
d="M502 125l57 335h-150l-59 -335h-149l58 335h-151l-80 -460h390l-18 -102h142l39 227h-79z" />
    <glyph glyph-name="uni0447" unicode="&#x447;" horiz-adv-x="531" 
d="M221 116h150l22 124h-117zM369 460l-77 -460h150l80 460h-153zM250 460h-152l-22 -132q-8 -61 1 -109t43.5 -75.5t100.5 -27.5l55 124q-34 0 -46.5 18.5t-6.5 57.5z" />
    <glyph glyph-name="uni0448" unicode="&#x448;" horiz-adv-x="812" 
d="M472 125l58 335h-145l-58 -335h-132l58 335h-145l-80 -460h701l80 460h-146l-58 -335h-133z" />
    <glyph glyph-name="uni0449" unicode="&#x449;" horiz-adv-x="850" 
d="M472 125l58 335h-145l-58 -335h-132l58 335h-145l-80 -460h638l-19 -102h142l39 227h-78l58 335h-146l-58 -335h-132z" />
    <glyph glyph-name="uni044A" unicode="&#x44a;" horiz-adv-x="594" 
d="M255 208l116 -1q21 -1 32 -13t8 -31q-5 -22 -22.5 -34t-41.5 -12h-108l-21 -117l148 1q46 0 86 20t66.5 56.5t32.5 84.5q6 47 -12.5 79t-54 48.5t-80.5 15.5h-133zM170 336l-58 -336h139l79 460h-276l-21 -125z" />
    <glyph glyph-name="uni044B" unicode="&#x44b;" horiz-adv-x="740" 
d="M585 460l-78 -460h150l80 460h-152zM107 460l-78 -460h150l81 460h-153zM181 208l116 -1q14 0 23.5 -6t14 -16t2.5 -22q-3 -14 -12.5 -25t-22.5 -16t-29 -5h-109l-21 -117l149 1q46 0 86 20t66.5 56.5t32.5 84.5q6 47 -12.5 79t-54 48.5t-80.5 15.5h-133z" />
    <glyph glyph-name="uni044C" unicode="&#x44c;" horiz-adv-x="529" 
d="M113 460l-78 -460h151l79 460h-152zM187 208l115 -1q15 0 24.5 -6t14 -16t1.5 -22q-4 -22 -22 -34t-41 -12h-109l-21 -117l148 1q48 0 87.5 20t66 56.5t32.5 84.5q6 47 -12.5 79t-54 48.5t-80.5 15.5h-134z" />
    <glyph glyph-name="uni044D" unicode="&#x44d;" horiz-adv-x="479" 
d="M128 279l-18 -98h265l43 98h-290zM310 231q-7 -41 -28 -72t-52 -49t-68 -18q-40 0 -69.5 18t-47.5 50l-17 -127q27 -20 61.5 -31.5t80.5 -11.5q74 1 137.5 31t105.5 84t51 125q10 70 -17 124t-81.5 85.5t-127.5 30.5q-45 0 -81 -11.5t-66 -28.5l-16 -129q27 29 67 48.5
t79 17.5q36 0 57 -19.5t29.5 -50t2.5 -66.5z" />
    <glyph glyph-name="uni044E" unicode="&#x44e;" horiz-adv-x="796" 
d="M106 187h266l20 112h-266zM107 460l-78 -460h145l79 460h-146zM266 231q-10 -69 17 -123.5t81 -86t125 -31.5q74 0 136.5 31t103.5 85t51 124q9 70 -18 124t-80.5 85.5t-125.5 31.5q-73 0 -135.5 -31t-103.5 -85t-51 -124zM419 229q6 32 25 59t46 43t58 15
q30 -1 49 -17.5t26.5 -42.5t2.5 -55q-5 -32 -24 -58.5t-46.5 -42t-58.5 -14.5q-29 1 -48 17t-26.5 42t-3.5 54z" />
    <glyph glyph-name="uni044F" unicode="&#x44f;" horiz-adv-x="529" 
d="M169 0l161 209h-142l-182 -209h163zM465 0l78 460h-150l-80 -460h152zM411 266l-122 1q-14 0 -25.5 3.5t-17.5 12t-4 20.5q3 15 13.5 23t25.5 11.5t31 3.5h113l22 119h-148q-46 -1 -90 -16t-74 -46t-37 -81q-6 -50 16.5 -83.5t62.5 -50.5t85 -18l133 1z" />
    <glyph glyph-name="uni0450" unicode="&#x450;" horiz-adv-x="558" 
d="M124 198h411q2 11 3.5 21t2.5 18q9 69 -13.5 121.5t-72.5 82t-125 29.5q-69 0 -125 -24t-94 -67t-56 -100q-4 -12 -6.5 -23.5t-4.5 -24.5q-9 -69 15.5 -123.5t77.5 -85.5t130 -32q59 0 106.5 16.5t84 47t65.5 70.5l-133 35q-14 -17 -32 -30.5t-40 -21t-48 -7.5
q-31 1 -49.5 18.5t-24.5 47t-2 64.5l7 24q7 32 23 58t40.5 42.5t56.5 14.5q26 -1 40.5 -12.5t20 -31t5.5 -43.5h-251zM191 682l155 -151l85 39l-123 163z" />
    <glyph glyph-name="uni0451" unicode="&#x451;" horiz-adv-x="558" 
d="M124 198h411q2 11 3.5 21t2.5 18q9 69 -13.5 121.5t-72.5 82t-125 29.5q-69 0 -125 -24t-94 -67t-56 -100q-4 -12 -6.5 -23.5t-4.5 -24.5q-9 -69 15.5 -123.5t77.5 -85.5t130 -32q59 0 106.5 16.5t84 47t65.5 70.5l-133 35q-14 -17 -32 -30.5t-40 -21t-48 -7.5
q-31 1 -49.5 18.5t-24.5 47t-2 64.5l7 24q7 32 23 58t40.5 42.5t56.5 14.5q26 -1 40.5 -12.5t20 -31t5.5 -43.5h-251zM385 613q-3 -35 19.5 -58.5t57.5 -23.5q34 -1 63.5 22.5t32.5 57.5q4 35 -18.5 58.5t-57.5 23.5t-64 -23t-33 -57zM149 613q-4 -35 19 -58.5t58 -23.5
q34 -1 63.5 22.5t32.5 57.5q3 35 -19.5 58.5t-56.5 23.5q-35 0 -64 -23t-33 -57z" />
    <glyph glyph-name="uni0453" unicode="&#x453;" horiz-adv-x="347" 
d="M109 460l-79 -460h148l58 335h142l22 125h-291zM468 676l-111 57l-169 -155l84 -46z" />
    <glyph glyph-name="uni045C" unicode="&#x45c;" horiz-adv-x="427" 
d="M105 460l-78 -460h145l80 460h-147zM405 460l-217 -184l169 -276h167l-163 265l232 195h-188zM560 676l-110 57l-169 -155l84 -46z" />
    <glyph glyph-name="uni045D" unicode="&#x45d;" horiz-adv-x="574" 
d="M540 327l39 177l-520 -371l-39 -176zM255 460h-146l-89 -503l173 145zM579 504l-173 -145l-62 -359h146zM197 698l155 -152l86 40l-124 162z" />
    <glyph glyph-name="uni045E" unicode="&#x45e;" horiz-adv-x="465" 
d="M570 460h-157l-206 -367l78 -2l-81 369h-161l122 -418l-158 -261h155zM170 677q-2 -42 13.5 -75t48 -52t81.5 -19q49 1 86 20t60.5 51.5t31.5 73.5h-99q-5 -15 -15.5 -29t-25.5 -22t-34 -7q-18 0 -29.5 8.5t-16.5 21.5t-5 29h-96z" />
    <glyph glyph-name="Wgrave" unicode="&#x1e80;" horiz-adv-x="1033" 
d="M623 798l84 42l-123 160l-116 -52zM730 295l-118 443l-257 -441l-66 403h-194l180 -744l285 423l154 -422l410 743h-200z" />
    <glyph glyph-name="wgrave" unicode="&#x1e81;" horiz-adv-x="738" 
d="M435 558l84 42l-123 160l-116 -52zM46 460l146 -491l193 273l100 -273l316 491h-160l-134 -234l-83 272l-175 -270l-51 232h-152z" />
    <glyph glyph-name="Wacute" unicode="&#x1e82;" horiz-adv-x="1033" 
d="M623 798l205 150l-117 57l-177 -160zM730 295l-118 443l-257 -441l-66 403h-194l180 -744l285 423l154 -422l410 743h-200z" />
    <glyph glyph-name="wacute" unicode="&#x1e83;" horiz-adv-x="738" 
d="M435 558l205 150l-117 57l-177 -160zM46 460l146 -491l193 273l100 -273l316 491h-160l-134 -234l-83 272l-175 -270l-51 232h-152z" />
    <glyph glyph-name="Wdieresis" unicode="&#x1e84;" horiz-adv-x="1033" 
d="M668 880q-4 -35 19 -58t58 -24q34 0 63 23t33 57q4 35 -18.5 58.5t-58.5 24.5q-34 0 -63 -23.5t-33 -57.5zM432 880q-4 -35 19 -58t58 -24q34 0 63 23t33 57q4 35 -18.5 58.5t-58.5 24.5q-34 0 -63 -23.5t-33 -57.5zM730 295l-118 443l-257 -441l-66 403h-194l180 -744
l285 423l154 -422l410 743h-200z" />
    <glyph glyph-name="wdieresis" unicode="&#x1e85;" horiz-adv-x="738" 
d="M480 640q-4 -35 19 -58t58 -24q34 0 63 23t33 57q4 35 -18.5 58.5t-58.5 24.5q-34 0 -63 -23.5t-33 -57.5zM244 640q-4 -35 19 -58t58 -24q34 0 63 23t33 57q4 35 -18.5 58.5t-58.5 24.5q-34 0 -63 -23.5t-33 -57.5zM46 460l146 -491l193 273l100 -273l316 491h-160
l-134 -234l-83 272l-175 -270l-51 232h-152z" />
    <glyph glyph-name="uni1E86" unicode="&#x1e86;" horiz-adv-x="1033" 
d="M550 881q-3 -35 20.5 -59t58.5 -24t63 23t32 58q3 35 -20 58.5t-59 23.5q-35 0 -63 -23t-32 -57zM730 295l-118 443l-257 -441l-66 403h-194l180 -744l285 423l154 -422l410 743h-200z" />
    <glyph glyph-name="uni1E87" unicode="&#x1e87;" horiz-adv-x="738" 
d="M362 640q-3 -35 20.5 -59t58.5 -24t63 23t32 58q3 35 -20 58.5t-59 23.5q-35 0 -63 -23t-32 -57zM46 460l146 -491l193 273l100 -273l316 491h-160l-134 -234l-83 272l-175 -270l-51 232h-152z" />
    <glyph glyph-name="uni1E88" unicode="&#x1e88;" horiz-adv-x="1033" 
d="M385 -183q-3 -35 20.5 -59t58.5 -24t63 23t32 58q3 35 -20 58.5t-59 23.5q-35 0 -63 -23t-32 -57zM730 295l-118 443l-257 -441l-66 403h-194l180 -744l285 423l154 -422l410 743h-200z" />
    <glyph glyph-name="uni1E89" unicode="&#x1e89;" horiz-adv-x="738" 
d="M233 -171q-3 -35 20.5 -59t58.5 -24t63 23t32 58q3 35 -20 58.5t-59 23.5q-35 0 -63 -23t-32 -57zM46 460l146 -491l193 273l100 -273l316 491h-160l-134 -234l-83 272l-175 -270l-51 232h-152z" />
    <glyph glyph-name="uni1E9E" unicode="&#x1e9e;" horiz-adv-x="814" 
d="M546 -12q-42 0 -85 5.5t-83 16.5t-73 24l38 137q43 -20 80.5 -31t70.5 -11q27 0 49 6t34.5 20t12.5 36q0 25 -10.5 40.5t-26.5 26.5t-32.5 22.5t-27.5 28.5t-11 44q0 22 11.5 39t28.5 30t33.5 24.5t28 25t11.5 30.5q0 18 -12.5 32t-35.5 22t-55 8q-57 0 -99.5 -26.5
t-69 -74.5t-38.5 -113l-61 -352h-174l62 368q12 77 41 141t76.5 111t116.5 72.5t162 25.5q87 0 147.5 -22t91.5 -60t31 -85q0 -31 -11.5 -55.5t-29 -44t-34.5 -35.5t-28.5 -30.5t-11.5 -30.5q0 -17 10.5 -30t26.5 -25t32 -28.5t26.5 -42t10.5 -66.5q0 -52 -28 -91t-78 -60.5
t-117 -21.5z" />
    <glyph glyph-name="Ygrave" unicode="&#x1ef2;" horiz-adv-x="640" 
d="M403 777l84 42l-123 160l-116 -52zM542 700l-176 -260l-87 260h-187l167 -412l-50 -288h169l48 281l312 419h-196z" />
    <glyph glyph-name="ygrave" unicode="&#x1ef3;" horiz-adv-x="505" 
d="M303 531l84 42l-123 160l-116 -52zM570 460h-157l-206 -367l77 -2l-82 369h-159l122 -418l-157 -261h154z" />
    <glyph glyph-name="uni2010" unicode="&#x2010;" horiz-adv-x="216" 
d="M6 172h209l23 131h-209z" />
    <glyph glyph-name="figuredash" unicode="&#x2012;" horiz-adv-x="609" 
d="M69 172h467l22 131h-466z" />
    <glyph glyph-name="endash" unicode="&#x2013;" horiz-adv-x="760" 
d="M69 172h621l23 131h-621z" />
    <glyph glyph-name="emdash" unicode="&#x2014;" horiz-adv-x="912" 
d="M69 172h776l22 131h-775z" />
    <glyph glyph-name="quoteleft" unicode="&#x2018;" horiz-adv-x="321" 
d="M272 446l96 254h-110l-145 -254h159z" />
    <glyph glyph-name="quoteright" unicode="&#x2019;" horiz-adv-x="321" 
d="M191 700l-96 -254h109l145 254h-158z" />
    <glyph glyph-name="quotesinglbase" unicode="&#x201a;" horiz-adv-x="321" 
d="M95 80l-96 -254h109l145 254h-158z" />
    <glyph glyph-name="quotedblleft" unicode="&#x201c;" horiz-adv-x="546" 
d="M272 446l96 254h-110l-145 -254h159zM495 446l97 254h-110l-145 -254h158z" />
    <glyph glyph-name="quotedblright" unicode="&#x201d;" horiz-adv-x="546" 
d="M191 700l-96 -254h109l145 254h-158zM416 700l-97 -254h110l145 254h-158z" />
    <glyph glyph-name="quotedblbase" unicode="&#x201e;" horiz-adv-x="546" 
d="M90 80l-96 -254h109l145 254h-158zM315 80l-97 -254h110l145 254h-158z" />
    <glyph glyph-name="dagger" unicode="&#x2020;" horiz-adv-x="613" 
d="M152 540l-19 -125h441l20 125h-442zM327 700l-130 -850h140l131 850h-141z" />
    <glyph glyph-name="daggerdbl" unicode="&#x2021;" horiz-adv-x="613" 
d="M94 157l-20 -124h441l20 124h-441zM152 540l-19 -125h441l20 125h-442zM327 700l-130 -850h140l131 850h-141z" />
    <glyph glyph-name="bullet" unicode="&#x2022;" horiz-adv-x="302" 
d="M113 444q-3 -24 7 -45t30 -34t46 -13t48.5 12.5t37 33.5t16.5 45q3 25 -7 46t-29.5 34t-46.5 13q-26 0 -48.5 -12.5t-37 -33.5t-16.5 -46z" />
    <glyph glyph-name="ellipsis" unicode="&#x2026;" horiz-adv-x="897" 
d="M49 69q-3 -24 6.5 -45t28.5 -34t45 -13q26 -1 48.5 11.5t38 33.5t18.5 45q3 25 -6.5 45.5t-28.5 34t-45 13.5q-26 1 -49 -12t-38 -33.5t-18 -45.5zM340 69q-3 -24 6.5 -45t28.5 -34t45 -13q26 -1 48.5 11.5t38 33.5t18.5 45q3 25 -6.5 45.5t-28.5 34t-45 13.5
q-26 1 -49 -12t-38 -33.5t-18 -45.5zM631 69q-4 -37 18.5 -64.5t61.5 -27.5q26 -1 48.5 11.5t38 33.5t18.5 45q3 25 -6.5 45.5t-28.5 34t-45 13.5q-26 1 -49 -12t-37.5 -33.5t-18.5 -45.5z" />
    <glyph glyph-name="perthousand" unicode="&#x2030;" horiz-adv-x="1333" 
d="M944 167q-7 -49 11.5 -91t56.5 -68t90 -26q53 0 98.5 25.5t76 67t36.5 91.5q8 49 -10.5 91t-56.5 68t-90 26t-98 -25t-76 -67t-38 -92zM1066 166q3 16 14.5 31.5t28 26t34.5 9.5t29.5 -11t16.5 -24.5t2 -30.5q-2 -16 -13.5 -32t-28 -25.5t-35.5 -8.5q-17 1 -28.5 10
t-16.5 24t-3 31zM85 535q-7 -48 11.5 -90.5t56.5 -68t90 -25.5q53 0 98.5 25t76 67t37.5 91t-11.5 91t-56.5 68t-91 26q-52 0 -97.5 -25t-75.5 -67t-38 -92zM207 534q2 16 13.5 31.5t28.5 26t35 9.5t29.5 -10.5t16.5 -24.5t3 -30q-2 -17 -14 -32.5t-28.5 -25.5t-34.5 -9
q-17 1 -29 10.5t-17 24.5t-3 30zM503 167q-7 -49 11.5 -91t56.5 -68t90 -26q53 0 98.5 25.5t76 67t36.5 91.5q7 49 -11 91t-56 68t-90 26q-53 0 -98.5 -25t-76 -67t-37.5 -92zM625 166q3 16 14.5 31.5t28 26t34.5 9.5t29.5 -11t16.5 -24.5t3 -30.5q-3 -16 -14.5 -32
t-28 -25.5t-34.5 -8.5t-29.5 10t-16.5 24t-3 31zM720 700l-640 -700h157l642 700h-159z" />
    <glyph glyph-name="uni2031" unicode="&#x2031;" horiz-adv-x="1774" 
d="M1386 167q-7 -49 11 -91t56 -68t90 -26q53 0 98.5 25.5t76 67t37.5 91.5q7 49 -12 91t-56.5 68t-89.5 26q-53 0 -98.5 -25t-75.5 -67t-37 -92zM1507 166q3 16 14 31.5t28 26t35 9.5t29.5 -11t16.5 -24.5t3 -30.5t-14 -32t-28.5 -25.5t-35.5 -8.5q-17 1 -28.5 10t-16.5 24
t-3 31zM944 167q-7 -49 11.5 -91t56.5 -68t90 -26q53 0 98.5 25.5t76 67t36.5 91.5q8 49 -10.5 91t-56.5 68t-90 26t-98 -25t-76 -67t-38 -92zM1066 166q3 16 14.5 31.5t28 26t34.5 9.5t29.5 -11t16.5 -24.5t2 -30.5q-2 -16 -13.5 -32t-28 -25.5t-35.5 -8.5q-17 1 -28.5 10
t-16.5 24t-3 31zM85 535q-7 -48 11.5 -90.5t56.5 -68t90 -25.5q53 0 98.5 25t76 67t37.5 91t-11.5 91t-56.5 68t-91 26q-52 0 -97.5 -25t-75.5 -67t-38 -92zM207 534q2 16 13.5 31.5t28.5 26t35 9.5t29.5 -10.5t16.5 -24.5t3 -30q-2 -17 -14 -32.5t-28.5 -25.5t-34.5 -9
q-17 1 -29 10.5t-17 24.5t-3 30zM503 167q-7 -49 11.5 -91t56.5 -68t90 -26q53 0 98.5 25.5t76 67t36.5 91.5q7 49 -11 91t-56 68t-90 26q-53 0 -98.5 -25t-76 -67t-37.5 -92zM625 166q3 16 14.5 31.5t28 26t34.5 9.5t29.5 -11t16.5 -24.5t3 -30.5q-3 -16 -14.5 -32
t-28 -25.5t-34.5 -8.5t-29.5 10t-16.5 24t-3 31zM720 700l-640 -700h157l642 700h-159z" />
    <glyph glyph-name="guilsinglleft" unicode="&#x2039;" horiz-adv-x="340" 
d="M160 257l180 185l-84 67l-213 -249l131 -259l100 61z" />
    <glyph glyph-name="guilsinglright" unicode="&#x203a;" horiz-adv-x="340" 
d="M212 254l-179 -185l84 -67l213 249l-132 259l-99 -62z" />
    <glyph glyph-name="uni203D" unicode="&#x203d;" horiz-adv-x="608" 
d="M476 482q-7 -39 -34 -68t-65 -46t-79 -20l9 -70q48 3 98 17t95.5 41t76.5 68t39 96q7 49 -8 89t-46.5 69t-74 44.5t-90.5 15.5q-58 1 -110 -16t-94.5 -46t-73.5 -65l89 -85q30 40 71.5 63t90.5 23q37 0 62.5 -13.5t38 -37.5t5.5 -59zM267 504l-25 -303h90l79 303h-144z
M175 63q-4 -36 20 -61t62 -25q38 -1 69 24t36 60q4 36 -20 61t-62 26q-38 0 -69 -25t-36 -60z" />
    <glyph glyph-name="fraction" unicode="&#x2044;" horiz-adv-x="708" 
d="M652 700l-624 -700h124l624 700h-124z" />
    <glyph glyph-name="uni2070" unicode="&#x2070;" horiz-adv-x="379" 
d="M172 490q4 23 12 46.5t21 43t30 30.5t38 11q19 -1 30 -13.5t15.5 -31.5t4.5 -42t-2 -43q-3 -24 -12 -47.5t-22 -43t-30 -30.5t-37 -10t-30.5 13t-15 31.5t-4.5 42t2 43.5zM76 491q-6 -43 -0.5 -82t22 -70t45.5 -48.5t71 -17.5t76.5 17t61 46.5t43 69.5t22.5 84
q6 42 0.5 81.5t-22 70t-45.5 48.5t-72 18q-40 0 -75 -17.5t-61.5 -47t-43.5 -69t-22 -83.5z" />
    <glyph glyph-name="uni2074" unicode="&#x2074;" horiz-adv-x="414" 
d="M45 356l379 -1l15 86h-109l-13 -13l-180 -1zM157 385l142 161l-29 -163l-11 -6l-16 -97h104l72 420h-77l-300 -347z" />
    <glyph glyph-name="uni2075" unicode="&#x2075;" horiz-adv-x="375" 
d="M395 412q5 39 -7.5 69.5t-37.5 49t-61 19.5q-32 1 -61 -10.5t-54 -32.5l-73 -50q31 12 62.5 19.5t59.5 5.5q18 0 34 -7t25 -19t6 -31q-2 -20 -16 -34t-34.5 -21t-42.5 -7q-25 0 -49 13t-45 32l-50 -82q31 -24 69 -39.5t90 -15.5q41 1 81.5 16.5t69 47t34.5 77.5zM259 610
l161 1l16 87h-239l-102 -246l111 53z" />
    <glyph glyph-name="uni2076" unicode="&#x2076;" horiz-adv-x="372" 
d="M164 425q3 19 15.5 35.5t31 27t38.5 9.5q19 -1 31.5 -11t18 -25.5t3.5 -34.5q-3 -19 -15.5 -35.5t-30.5 -26t-38 -8.5q-19 1 -32 10.5t-18.5 25t-3.5 33.5zM275 696l-144 -154q-23 -24 -41.5 -52.5t-23.5 -63.5q-6 -47 11.5 -82.5t52.5 -55t81 -19.5t87 19t69 54t33 83
q5 37 -8.5 68t-39 50t-60.5 18q-20 1 -35.5 -5t-31.5 -18l24 9l158 149h-132z" />
    <glyph glyph-name="uni2077" unicode="&#x2077;" horiz-adv-x="368" 
d="M97 606l187 -1l-214 -324h112l269 419h-337z" />
    <glyph glyph-name="uni2078" unicode="&#x2078;" horiz-adv-x="351" 
d="M111 600q-5 -37 12.5 -62t47.5 -38t64 -13t67.5 12.5t57.5 37.5t28 61q6 36 -11 60.5t-47 38t-65 13.5q-36 0 -69.5 -13t-56.5 -37.5t-28 -59.5zM203 589q2 13 10.5 23.5t20.5 18t25 6.5q19 -1 28 -15t7 -32q-2 -12 -10.5 -23.5t-21 -18.5t-25.5 -7q-12 1 -20.5 8
t-11.5 17.5t-2 22.5zM62 395q-6 -38 12.5 -66t52 -43t71.5 -15q39 0 76 15t63 42.5t31 64.5q6 42 -14 69.5t-53.5 41.5t-68.5 14q-36 0 -73.5 -13.5t-64.5 -40.5t-32 -69zM163 409q3 14 13 27t24.5 21t29.5 7q22 -1 33.5 -17.5t7.5 -36.5q-3 -23 -23 -40.5t-43 -16.5
q-22 1 -33.5 17t-8.5 39z" />
    <glyph glyph-name="uni2079" unicode="&#x2079;" horiz-adv-x="369" 
d="M324 555q-2 -19 -14.5 -35.5t-30.5 -26.5t-38 -9q-19 1 -32 10.5t-18.5 25.5t-2.5 34q3 20 15.5 36t30.5 26t38 9q19 0 31.5 -10t18 -25.5t2.5 -34.5zM215 285l143 153q23 25 42 53.5t24 63.5q6 47 -11.5 82.5t-52.5 55t-82 19.5q-46 0 -87 -19t-68 -54t-34 -83
q-4 -37 9 -68t39 -50t60 -19q21 0 36.5 5.5t31.5 18.5l-25 -9l-157 -149h132z" />
    <glyph glyph-name="uni2080" unicode="&#x2080;" horiz-adv-x="379" 
d="M124 210q4 23 12.5 46.5t21.5 43t30 30.5t37 11q20 -1 30.5 -13.5t15 -31.5t4.5 -42t-2 -43q-3 -24 -12 -47.5t-22 -43t-30 -30.5t-37 -10t-30.5 13t-15 31.5t-4.5 42t2 43.5zM28 211q-6 -43 -0.5 -82t22 -70t45.5 -48.5t71 -17.5t77 17t61 46.5t42.5 69.5t22.5 84
q6 42 0.5 81.5t-21.5 70t-45 48.5t-72 18q-41 0 -75.5 -17.5t-61 -47t-43.5 -69t-23 -83.5z" />
    <glyph glyph-name="uni2081" unicode="&#x2081;" horiz-adv-x="350" 
d="M110 299l105 25l-55 -323h98l74 429l-207 -41z" />
    <glyph glyph-name="uni2082" unicode="&#x2082;" horiz-adv-x="399" 
d="M-3 3l350 -1l16 93l-160 1l109 87q28 22 49.5 50t25.5 62q6 36 -9.5 66.5t-48 50t-77.5 19.5q-52 0 -91 -22.5t-62.5 -59.5t-33.5 -81l100 -1q5 20 15.5 37.5t26 29t36.5 10.5q17 -1 26.5 -8.5t13 -20t1.5 -24.5q-4 -28 -26 -50.5t-46 -44.5z" />
    <glyph glyph-name="uni2083" unicode="&#x2083;" horiz-adv-x="361" 
d="M162 204q44 2 85.5 12t71 33t35.5 62q5 34 -10.5 60.5t-47 41.5t-71.5 15q-65 0 -107.5 -37t-55.5 -92l94 -1q7 20 23 34.5t40 14.5q20 0 29.5 -12t6.5 -29q-2 -17 -15.5 -29t-32 -19t-38.5 -9zM154 -9q46 0 84 14.5t63.5 42.5t30.5 66q5 34 -7.5 57t-37 36.5t-56.5 20
t-66 7.5l-9 -51q24 -1 43 -7t29 -18.5t6 -32.5q-3 -24 -24.5 -39t-45.5 -14q-27 1 -39 17.5t-12 42.5h-98q-2 -38 13 -70.5t47 -52t79 -19.5z" />
    <glyph glyph-name="uni2084" unicode="&#x2084;" horiz-adv-x="418" 
d="M-4 76l379 -1l15 86h-109l-13 -13l-179 -1zM108 105l141 161l-27 -163l-12 -6l-17 -97h105l72 420h-77l-300 -347z" />
    <glyph glyph-name="uni2085" unicode="&#x2085;" horiz-adv-x="384" 
d="M350 132q5 39 -7 69.5t-37.5 49t-61.5 19.5q-32 1 -61 -10.5t-54 -32.5l-73 -50q31 12 62.5 19.5t59.5 5.5q18 0 34 -7t25 -19t7 -31q-3 -20 -17 -34t-34 -21t-43 -7q-25 0 -49 13t-45 32l-50 -82q31 -24 69 -39.5t90 -15.5q41 1 81.5 16.5t69 47t34.5 77.5zM215 330
l160 1l16 87h-239l-102 -246l111 53z" />
    <glyph glyph-name="uni2086" unicode="&#x2086;" horiz-adv-x="383" 
d="M120 145q2 19 15 35.5t31.5 27t37.5 9.5q20 -1 32.5 -11t18 -25.5t2.5 -34.5t-15 -35.5t-30 -26t-38 -8.5q-19 1 -32.5 10.5t-19 25t-2.5 33.5zM231 416l-144 -154q-23 -24 -41.5 -52.5t-23.5 -63.5q-7 -47 10.5 -82.5t53 -55t80.5 -19.5q47 0 88 19t68.5 54t33.5 83
q4 37 -9.5 68t-39 50t-59.5 18q-21 1 -36.5 -5t-31.5 -18l24 9l158 149h-131z" />
    <glyph glyph-name="uni2087" unicode="&#x2087;" horiz-adv-x="373" 
d="M53 326l187 -1l-214 -325h111l270 420h-337z" />
    <glyph glyph-name="uni2088" unicode="&#x2088;" horiz-adv-x="357" 
d="M67 320q-5 -37 12.5 -62t48 -38t63.5 -13q34 0 68 12.5t57.5 37.5t28.5 61t-11.5 60.5t-47 38t-65.5 13.5q-36 0 -69.5 -13t-56.5 -37.5t-28 -59.5zM160 309q2 13 10 23.5t20 18t25 6.5q20 -1 29 -15t6 -32q-2 -12 -10.5 -23.5t-21 -18.5t-25.5 -7q-12 1 -20 8
t-11.5 17.5t-1.5 22.5zM18 115q-6 -38 12.5 -66t52.5 -43t72 -15q39 0 76 15t63 42.5t31 64.5q5 42 -15 69.5t-53.5 41.5t-68.5 14q-36 0 -73.5 -13.5t-64 -40.5t-32.5 -69zM120 129q2 14 12 27t24.5 21t29.5 7q22 -1 33.5 -17.5t8.5 -36.5q-3 -23 -23.5 -40.5t-43.5 -16.5
q-22 1 -33 17t-8 39z" />
    <glyph glyph-name="uni2089" unicode="&#x2089;" horiz-adv-x="386" 
d="M278 275q-2 -19 -15 -35.5t-31 -26.5t-37 -9t-32 10.5t-18.5 25.5t-3.5 34q3 20 15.5 36t31 26t37.5 9q20 0 32.5 -10t18 -25.5t2.5 -34.5zM169 5l143 153q23 25 41.5 53.5t23.5 63.5q7 47 -10.5 82.5t-52.5 55t-82 19.5q-46 0 -87 -19t-68 -54t-34 -83q-4 -37 8.5 -68
t38.5 -50t61 -19q20 0 36 5.5t32 18.5l-25 -9l-158 -149h133z" />
    <glyph glyph-name="Euro" unicode="&#x20ac;" horiz-adv-x="635" 
d="M89 382h479l15 84h-479zM53 251h474l14 83h-473zM275 350q6 47 23.5 89t44 73.5t61 49.5t74.5 18q41 1 73.5 -16t59.5 -46l24 161q-32 19 -67.5 30t-74.5 11q-74 0 -136 -30t-109.5 -82t-77.5 -118.5t-40 -139.5q-9 -68 0.5 -133.5t39 -119t81 -85t125.5 -31.5
q40 0 78 11.5t72 29.5l24 159q-34 -26 -74.5 -43.5t-84.5 -16.5q-41 0 -66.5 20t-38 53t-14.5 73t3 83z" />
    <glyph glyph-name="ruble" unicode="&#x20bd;" horiz-adv-x="679" 
d="M223 700l-120 -700h168l120 700h-168zM296 561h135q53 0 77.5 -17.5t22.5 -51.5q-2 -25 -17.5 -41.5t-43 -25t-65.5 -8.5h-132v-139h112q89 0 156.5 22t107 69t43.5 120q6 109 -58.5 160t-189.5 51h-148v-139zM276 77h209l23 131h-209zM49 285h209l23 131h-209zM15 77
h209l23 131h-209z" />
    <glyph glyph-name="trademark" unicode="&#x2122;" horiz-adv-x="724" 
d="M107 624h94l-48 -274h85l47 274h93l14 76h-272zM658 596l-14 -246h87l11 374zM448 718l-118 -367h89l70 237zM745 724l-190 -218l-107 211l-18 -109l109 -227l181 218z" />
    <glyph glyph-name="uni2150" unicode="&#x2150;" horiz-adv-x="913" 
d="M677 700l-624 -700h124l624 700h-124zM93 572l105 25l-55 -323h97l74 429l-206 -41zM587 326l186 -1l-213 -325h112l269 420h-337z" />
    <glyph glyph-name="uni2151" unicode="&#x2151;" horiz-adv-x="857" 
d="M671 700l-625 -700h125l624 700h-124zM93 572l105 25l-55 -323h97l74 429l-206 -41zM758 275q-3 -19 -15.5 -35.5t-30.5 -26.5t-37 -9t-32 10.5t-18.5 25.5t-3.5 34q3 20 15.5 36t30.5 26t38 9q19 0 31.5 -10t18.5 -25.5t3 -34.5zM649 5l142 153q23 25 41.5 53.5
t24.5 63.5q7 47 -11 82.5t-52.5 55t-81.5 19.5q-46 0 -87 -19t-68 -54t-34 -83q-4 -37 8.5 -68t38.5 -50t60 -19q21 0 37 5.5t31 18.5l-24 -9l-159 -149h134z" />
    <glyph glyph-name="uni2152" unicode="&#x2152;" horiz-adv-x="1175" 
d="M671 700l-625 -700h125l624 700h-124zM93 572l105 25l-55 -323h97l74 429l-206 -41zM557 299l105 25l-55 -323h97l74 429l-205 -41zM908 210q4 23 12.5 46.5t21.5 43t30 30.5t36 11q20 -1 31 -13.5t15.5 -31.5t4.5 -42t-3 -43q-3 -24 -11.5 -47.5t-21.5 -43t-30 -30.5
t-37 -10q-19 1 -30 13t-15.5 31.5t-4.5 42t2 43.5zM811 211q-5 -43 0 -82t22 -70t46 -48.5t71 -17.5t76.5 17t61 46.5t43 69.5t22.5 84q5 42 0 81.5t-21.5 70t-45.5 48.5t-71 18q-41 0 -76 -17.5t-61.5 -47t-43.5 -69t-23 -83.5z" />
    <glyph glyph-name="onethird" unicode="&#x2153;" horiz-adv-x="847" 
d="M670 700l-624 -700h124l624 700h-124zM93 572l105 25l-55 -323h97l74 429l-206 -41zM647 204q44 2 86 12t71 33t35 62q5 34 -10.5 60.5t-46.5 41.5t-71 15q-66 0 -108 -37t-55 -92l93 -1q7 20 23.5 34.5t39.5 14.5q20 0 29.5 -12t7.5 -29q-3 -17 -16.5 -29t-31.5 -19
t-39 -9zM640 -9q45 0 83 14.5t63.5 42.5t30.5 66q5 34 -7 57t-36.5 36.5t-57 20t-66.5 7.5l-8 -51q24 -1 42.5 -7t28.5 -18.5t6 -32.5q-3 -24 -24.5 -39t-45.5 -14q-27 1 -39 17.5t-12 42.5h-97q-2 -38 13 -70.5t46.5 -52t79.5 -19.5z" />
    <glyph glyph-name="twothirds" unicode="&#x2154;" horiz-adv-x="977" 
d="M812 700l-625 -700h125l624 700h-124zM47 283l349 -1l16 93l-160 1l110 87q27 22 48.5 50t26.5 62q6 36 -9.5 66.5t-48 50t-77.5 19.5q-52 0 -91 -22.5t-63 -59.5t-33 -81l99 -1q6 20 16 37.5t26 29t36 9.5q17 0 26.5 -8t13.5 -20t2 -24q-4 -28 -26 -50.5t-46 -44.5z
M776 204q44 2 86 12t71 33t35 62q6 34 -10 60.5t-47 41.5t-71 15q-65 0 -107.5 -37t-55.5 -92l94 -1q7 20 23 34.5t40 14.5q19 0 28.5 -12t7.5 -29q-3 -17 -16 -29t-31.5 -19t-38.5 -9zM769 -9q45 0 83.5 14.5t64 42.5t30.5 66q5 34 -7.5 57t-37 36.5t-57 20t-66.5 7.5
l-7 -51q23 -1 42 -7t28.5 -18.5t5.5 -32.5q-3 -24 -24 -39t-46 -14q-26 1 -38.5 17.5t-12.5 42.5h-97q-2 -38 13 -70.5t47 -52t79 -19.5z" />
    <glyph glyph-name="uni2155" unicode="&#x2155;" horiz-adv-x="836" 
d="M671 700l-625 -700h125l624 700h-124zM93 572l105 25l-55 -323h97l74 429l-206 -41zM811 132q5 39 -7 69.5t-37.5 49t-60.5 19.5q-33 1 -62 -10.5t-54 -32.5l-72 -50q30 12 61.5 19.5t59.5 5.5q18 0 34 -7t25 -19t7 -31q-2 -20 -16.5 -34t-34.5 -21t-42 -7q-26 0 -50 13
t-45 32l-50 -82q31 -24 69 -39.5t90 -15.5q41 1 81.5 16.5t69 47t34.5 77.5zM676 330l161 1l15 87h-239l-102 -246l111 53z" />
    <glyph glyph-name="uni2156" unicode="&#x2156;" horiz-adv-x="975" 
d="M812 700l-625 -700h125l624 700h-124zM47 283l349 -1l16 93l-160 1l110 87q27 22 48.5 50t26.5 62q6 36 -9.5 66.5t-48 50t-77.5 19.5q-52 0 -91 -22.5t-63 -59.5t-33 -81l99 -1q6 20 16 37.5t26 29t36 9.5q17 0 26.5 -8t13.5 -20t2 -24q-4 -28 -26 -50.5t-46 -44.5z
M940 132q5 39 -7 69.5t-37.5 49t-60.5 19.5q-33 1 -62 -10.5t-54 -32.5l-73 -50q31 12 62.5 19.5t60.5 5.5q17 0 33 -7t25 -19t7 -31q-2 -20 -16 -34t-34.5 -21t-42.5 -7q-26 0 -50 13t-45 32l-50 -82q31 -24 69.5 -39.5t89.5 -15.5q42 1 82 16.5t68.5 47t34.5 77.5z
M805 330l161 1l15 87h-239l-102 -246l111 53z" />
    <glyph glyph-name="uni2157" unicode="&#x2157;" horiz-adv-x="903" 
d="M743 700l-624 -700h124l624 700h-124zM210 484q44 2 86 12t71 33t35 62q6 34 -10 60.5t-47 41.5t-71 15q-66 0 -108.5 -37t-55.5 -92l95 -1q6 20 22.5 34.5t39.5 14.5q19 0 29 -12t7 -29q-2 -17 -15 -29t-31.5 -19t-39.5 -9zM203 271q45 0 83.5 14.5t63.5 42.5t30 66
q5 34 -7 57t-36.5 36.5t-56.5 20t-67 7.5l-8 -51q24 -1 43 -7t29 -18.5t5 -32.5q-3 -24 -24.5 -39t-45.5 -14q-27 1 -39 17.5t-12 42.5h-97q-2 -38 13 -70.5t46.5 -52t79.5 -19.5zM866 132q5 39 -7.5 69.5t-38 49t-60.5 19.5q-32 1 -61.5 -10.5t-54.5 -32.5l-73 -50
q31 12 62.5 19.5t59.5 5.5q18 0 34 -7t25 -19t7 -31q-2 -20 -16 -34t-34.5 -21t-42.5 -7q-26 0 -50 13t-45 32l-50 -82q31 -24 69 -39.5t90 -15.5q41 1 81.5 16.5t69.5 47t35 77.5zM730 330l161 1l15 87h-239l-101 -246l110 53z" />
    <glyph glyph-name="uni2158" unicode="&#x2158;" horiz-adv-x="985" 
d="M800 699l-623 -699h124l624 699h-125zM51 356l379 -1l15 86h-109l-12 -13l-180 -1zM162 385l142 161l-28 -163l-11 -6l-17 -97h105l72 420h-78l-299 -347zM954 132q5 38 -7.5 68.5t-38 49.5t-60.5 19q-32 1 -61.5 -10.5t-54.5 -32.5l-72 -49q31 12 62 19.5t60 5.5
q17 -1 33 -7.5t25 -19t7 -31.5q-2 -20 -16 -34t-34.5 -20.5t-42.5 -6.5q-26 0 -50 12.5t-44 31.5l-51 -81q31 -24 69.5 -40t89.5 -15q42 0 82 15.5t69 47.5t35 78zM818 330h161l15 87h-239l-101 -246l110 53z" />
    <glyph glyph-name="uni2159" unicode="&#x2159;" horiz-adv-x="845" 
d="M689 700l-625 -700h125l624 700h-124zM93 572l105 25l-55 -323h97l74 429l-206 -41zM581 145q3 19 15.5 35.5t31 27t37.5 9.5q20 -1 32.5 -11t18 -25.5t2.5 -34.5t-15.5 -35.5t-30 -26t-37.5 -8.5q-19 1 -32 10.5t-18.5 25t-3.5 33.5zM692 416l-144 -154
q-23 -24 -41.5 -52.5t-23.5 -63.5q-7 -47 11 -82.5t53.5 -55t80.5 -19.5q46 0 87 19t68.5 54t33.5 83q4 37 -9 68t-39 50t-60 18q-21 1 -36 -5t-32 -18l25 9l158 149h-132z" />
    <glyph glyph-name="uni215A" unicode="&#x215a;" horiz-adv-x="903" 
d="M764 700l-623 -700h124l624 700h-125zM401 412q5 39 -7.5 69.5t-38 49t-60.5 19.5q-32 1 -61 -10.5t-54 -32.5l-73 -50q31 12 62.5 19.5t60.5 5.5q17 0 33 -7t25 -19t7 -31q-2 -20 -16.5 -34t-34.5 -21t-43 -7q-25 0 -49 13t-45 32l-50 -82q31 -24 69.5 -39.5t89.5 -15.5
q42 1 82 16.5t68.5 47t34.5 77.5zM265 610l161 1l16 87h-239l-102 -246l111 53zM639 145q3 19 15.5 35.5t31 27t37.5 9.5q20 -1 32.5 -11t18 -25.5t3.5 -34.5q-3 -19 -15.5 -35.5t-30.5 -26t-38 -8.5q-19 1 -32 10.5t-18.5 25t-3.5 33.5zM749 416l-143 -154
q-23 -24 -41.5 -52.5t-23.5 -63.5q-6 -47 11.5 -82.5t52.5 -55t81 -19.5t87.5 19t68.5 54t33 83q5 37 -8.5 68t-39 50t-60.5 18q-20 1 -35.5 -5t-31.5 -18l24 9l158 149h-133z" />
    <glyph glyph-name="oneeighth" unicode="&#x215b;" horiz-adv-x="864" 
d="M689 700l-625 -700h125l624 700h-124zM93 572l105 25l-55 -323h97l74 429l-206 -41zM571 320q-5 -37 12.5 -62t47.5 -38t63 -13q35 0 68.5 12.5t57.5 37.5t29 61t-12 60.5t-47 38t-66 13.5t-69.5 -13t-56 -37.5t-27.5 -59.5zM663 309q2 13 10 23.5t20.5 18t25.5 6.5
q19 -1 28 -15t6 -32q-2 -12 -10.5 -23.5t-20.5 -18.5t-25 -7q-12 1 -20.5 8t-11.5 17.5t-2 22.5zM521 115q-5 -38 13.5 -66t52 -43t71.5 -15q39 0 76 15t63 42.5t31 64.5q5 32 -6 55t-31.5 39t-46.5 23.5t-53 7.5q-35 0 -72.5 -13.5t-64.5 -40.5t-33 -69zM623 129
q3 14 12.5 27t24 21t29.5 7q22 -1 34 -17.5t8 -36.5q-3 -23 -23.5 -40.5t-42.5 -16.5t-33.5 17t-8.5 39z" />
    <glyph glyph-name="threeeighths" unicode="&#x215c;" horiz-adv-x="925" 
d="M749 700l-624 -700h124l624 700h-124zM210 484q44 2 86 12t71 33t35 62q6 34 -10 60.5t-47 41.5t-71 15q-66 0 -108 -37t-55 -92l94 -1q6 20 22.5 34.5t39.5 14.5q19 0 29 -12t7 -29q-2 -17 -15 -29t-31.5 -19t-39.5 -9zM203 271q45 0 83.5 14.5t63.5 42.5t30 66
q5 34 -7 57t-36.5 36.5t-56.5 20t-67 7.5l-8 -51q24 -1 43 -7t29 -18.5t5 -32.5q-3 -24 -24.5 -39t-45.5 -14q-27 1 -39 17.5t-12 42.5h-97q-2 -38 13 -70.5t46.5 -52t79.5 -19.5zM631 320q-5 -37 12.5 -62t47.5 -38t64 -13t67.5 12.5t57.5 37.5t29 61t-11.5 60.5t-46.5 38
t-66 13.5t-69.5 -13t-56.5 -37.5t-28 -59.5zM723 309q3 13 11 23.5t20 18t25 6.5q20 -1 28.5 -15t5.5 -32q-1 -12 -9.5 -23.5t-21 -18.5t-25.5 -7q-12 1 -20 8t-11.5 17.5t-2.5 22.5zM581 115q-5 -38 14 -66t52 -43t71 -15q39 0 76.5 15t63.5 42.5t31 64.5q5 42 -15 69.5
t-53.5 41.5t-68.5 14q-36 0 -73.5 -13.5t-64.5 -40.5t-33 -69zM683 129q3 14 13 27t24.5 21t29.5 7q21 -1 33 -17.5t9 -36.5q-3 -23 -23.5 -40.5t-43.5 -16.5q-22 1 -33.5 17t-8.5 39z" />
    <glyph glyph-name="fiveeighths" unicode="&#x215d;" horiz-adv-x="941" 
d="M764 700l-623 -700h124l624 700h-125zM395 412q5 39 -7.5 69.5t-37.5 49t-61 19.5q-32 1 -61 -10.5t-54 -32.5l-73 -50q31 12 62.5 19.5t59.5 5.5q18 0 34 -7t25 -19t6 -31q-2 -20 -16 -34t-34.5 -21t-42.5 -7q-25 0 -49 13t-45 32l-50 -82q31 -24 69 -39.5t90 -15.5
q41 1 81.5 16.5t69 47t34.5 77.5zM259 610l161 1l16 87h-239l-102 -246l111 53zM647 320q-5 -37 12.5 -62t47.5 -38t64 -13t67.5 12.5t57.5 37.5t29 61t-12 60.5t-47 38t-66 13.5q-35 0 -68.5 -13t-56.5 -37.5t-28 -59.5zM739 309q2 13 10 23.5t20.5 18t25.5 6.5
q19 -1 28 -15t6 -32q-1 -12 -9.5 -23.5t-21 -18.5t-25.5 -7q-12 1 -20 8t-12 17.5t-2 22.5zM597 115q-5 -38 13.5 -66t52 -43t71.5 -15q39 0 76.5 15t63.5 42.5t31 64.5q4 32 -7 55t-32 39t-46.5 23.5t-52.5 7.5q-35 0 -72.5 -13.5t-64.5 -40.5t-33 -69zM699 129q3 14 13 27
t24.5 21t29.5 7q21 -1 33 -17.5t9 -36.5q-3 -23 -23.5 -40.5t-43.5 -16.5q-22 1 -33.5 17t-8.5 39z" />
    <glyph glyph-name="seveneighths" unicode="&#x215e;" horiz-adv-x="834" 
d="M652 700l-624 -700h124l624 700h-124zM97 606l187 -1l-214 -324h112l269 419h-337zM540 320q-5 -37 12.5 -62t48 -38t63.5 -13q34 0 68 12.5t57.5 37.5t28.5 61t-11.5 60.5t-46.5 38t-66 13.5t-69.5 -13t-56.5 -37.5t-28 -59.5zM632 309q3 13 11 23.5t20 18t25 6.5
q20 -1 29 -15t6 -32q-2 -12 -10.5 -23.5t-21 -18.5t-25.5 -7q-12 1 -20 8t-11.5 17.5t-2.5 22.5zM490 115q-5 -38 13.5 -66t52 -43t71.5 -15q39 0 76.5 15t63.5 42.5t31 64.5q5 42 -15 69.5t-53.5 41.5t-68.5 14q-36 0 -73.5 -13.5t-64.5 -40.5t-33 -69zM593 129
q3 14 12.5 27t24 21t29.5 7q22 -1 33.5 -17.5t8.5 -36.5q-3 -23 -23.5 -40.5t-43.5 -16.5q-22 1 -33 17t-8 39z" />
    <glyph glyph-name="partialdiff" unicode="&#x2202;" horiz-adv-x="621" 
d="M292 -16q67 0 122.5 23.5t96 64t63 94t22.5 112.5q0 48 -10 94t-31.5 91.5t-55.5 93t-82 98t-110 105.5l-112 -75q51 -37 92 -74.5t73.5 -78t57.5 -86.5t45 -101l41 -1q-45 65 -95 97t-111 32q-51 0 -95.5 -19.5t-78.5 -54.5t-54 -82t-20 -103q0 -70 31.5 -121.5
t86.5 -80t124 -28.5zM304 119q-43 0 -69 28t-26 70q0 27 10.5 50.5t28.5 42t41 29t49 10.5q29 0 50 -12.5t32.5 -35.5t11.5 -52q0 -25 -9.5 -48.5t-26.5 -42t-40.5 -29t-51.5 -10.5z" />
    <glyph glyph-name="emptyset" unicode="&#x2205;" horiz-adv-x="600" 
d="M263 22q50 0 94 18t78.5 50t56.5 73.5t27 86.5q6 58 -16.5 106.5t-67 77.5t-104.5 29q-47 0 -91 -17.5t-79 -49t-57.5 -73t-27.5 -88.5q-6 -58 16 -106.5t66.5 -77.5t104.5 -29zM276 121q-32 0 -56 15.5t-36 42t-9 56.5q3 36 24 65t52.5 46.5t66.5 17.5q33 0 57 -15.5
t36 -41.5t9 -57q-2 -32 -22 -61.5t-51.5 -48.5t-70.5 -19zM98 26l442 381l-46 52l-441 -381z" />
    <glyph glyph-name="product" unicode="&#x220f;" horiz-adv-x="600" 
d="M88 0h124l100 583h96l-99 -583h124l99 583h77l18 117h-497l-18 -117h76z" />
    <glyph glyph-name="summation" unicode="&#x2211;" horiz-adv-x="600" 
d="M55 0h400l21 124h-195l147 228l-74 224h197l21 124h-400l113 -346z" />
    <glyph glyph-name="minus" unicode="&#x2212;" horiz-adv-x="575" 
d="M57 172h467l23 131h-467z" />
    <glyph glyph-name="uni2215" unicode="&#x2215;" horiz-adv-x="590" 
d="M524 700l-564 -849h152l560 849h-148z" />
    <glyph glyph-name="uni2219" unicode="&#x2219;" horiz-adv-x="313" 
d="M113 444q-3 -24 6.5 -45t28.5 -34t45 -13q26 -1 48.5 11.5t38 33.5t18.5 45q3 25 -6.5 45.5t-28.5 34t-45 13.5q-26 1 -49 -12t-38 -33.5t-18 -45.5z" />
    <glyph glyph-name="radical" unicode="&#x221a;" horiz-adv-x="600" 
d="M167 -196l-74 400l76 -35l-136 -37l-15 102l159 52l45 -284l-56 41l252 657h177l-19 -120h-159l106 87z" />
    <glyph glyph-name="infinity" unicode="&#x221e;" horiz-adv-x="806" 
d="M169 29q96 0 214 120q40 -60 82.5 -90t91.5 -30q50 0 97 28t81 73.5t43 99.5t-9.5 99t-56.5 73t-88 28q-96 0 -214 -121q-78 121 -174 121q-50 0 -97 -28t-80.5 -73t-42.5 -99t9 -99.5t56 -73.5t88 -28zM208 144q-20 0 -36 12t-24 32t-5 42q4 23 18.5 42t35 31t40.5 12
q28 0 52 -22t42 -63q-32 -41 -63.5 -63.5t-59.5 -22.5zM557 144q-28 0 -51.5 22.5t-42.5 63.5q32 41 63.5 63t58.5 22q21 0 37 -11.5t24 -31t4 -42.5q-3 -22 -17.5 -42t-35 -32t-40.5 -12z" />
    <glyph glyph-name="integral" unicode="&#x222b;" horiz-adv-x="600" 
d="M115 -200q47 0 87.5 20t69 57.5t38.5 88.5l139 625q8 33 23.5 51.5t36.5 18.5q10 0 20 -5.5t21 -19.5l76 107q-33 28 -60 40t-59 12q-47 1 -87 -19.5t-68 -58t-40 -88.5l-139 -626q-7 -31 -23.5 -50t-36.5 -19q-10 0 -19.5 6t-21.5 19l-76 -106q32 -28 59.5 -40.5
t59.5 -12.5z" />
    <glyph glyph-name="approxequal" unicode="&#x2248;" horiz-adv-x="600" 
d="M417 322q-29 0 -59.5 13t-63.5 37q-25 19 -45.5 28.5t-38.5 9.5t-29 -9t-14.5 -26t0.5 -42l-119 5q-5 44 16.5 84.5t62 66.5t91.5 26q30 0 58.5 -12t64.5 -37q27 -18 46 -26.5t31 -8.5q26 0 35.5 20.5t2.5 52.5l120 -5q4 -47 -17.5 -87t-58.5 -65t-83 -25zM376 72
q-30 0 -60.5 13t-63.5 37q-25 19 -45 28.5t-38 9.5t-29.5 -9t-15 -26t0.5 -42l-119 5q-5 44 16.5 84.5t62 66.5t91.5 26q30 0 60 -12t65 -37q26 -18 44.5 -26.5t30.5 -8.5q26 0 35.5 20.5t2.5 52.5l120 -5q4 -47 -17 -87t-58.5 -65t-82.5 -25z" />
    <glyph glyph-name="notequal" unicode="&#x2260;" horiz-adv-x="600" 
d="M210 -3l-113 49l320 501l113 -50zM28 103l22 131h515l-22 -131h-515zM63 309l21 131h515l-21 -131h-515z" />
    <glyph glyph-name="lessequal" unicode="&#x2264;" horiz-adv-x="600" 
d="M12 6l22 130h513l-22 -130h-513zM548 162l-475 213l18 101l545 214l-25 -148l-313 -112l275 -120z" />
    <glyph glyph-name="greaterequal" unicode="&#x2265;" horiz-adv-x="600" 
d="M21 6l22 130h513l-22 -130h-513zM47 162l25 148l314 112l-275 120l25 148l474 -214l-17 -101z" />
    <glyph glyph-name="lozenge" unicode="&#x25ca;" horiz-adv-x="600" 
d="M264 15l-149 341l263 340l137 -340zM298 241l85 115l-47 114l-89 -114z" />
    <glyph glyph-name="uniFF10" unicode="&#xff10;" horiz-adv-x="611" 
d="M214 350q6 40 19.5 79t34.5 70.5t49 50t62 18.5q27 -1 44 -14.5t26.5 -36t13 -50.5t2.5 -58.5t-4 -58.5q-5 -40 -19 -78.5t-35 -70.5t-48.5 -50.5t-62.5 -17.5q-27 1 -43.5 14.5t-26.5 36t-13 50t-2.5 58t3.5 58.5zM54 350q-7 -56 -3 -109t19.5 -99t43.5 -80.5
t69.5 -54.5t97.5 -20q70 0 128.5 28.5t102.5 78.5t71.5 115.5t38.5 140.5q6 56 3 110t-18 99.5t-43 80t-70 54t-99 19.5q-70 0 -128 -28t-102 -78.5t-72 -116t-39 -140.5z" />
    <glyph glyph-name="uniFF11" unicode="&#xff11;" horiz-adv-x="611" 
d="M162 497l176 42l-92 -539h160l123 715l-341 -69z" />
    <glyph glyph-name="uniFF12" unicode="&#xff12;" horiz-adv-x="611" 
d="M-18 0h581l27 155l-270 1l183 145q47 37 82 83.5t45 103.5q9 59 -16 110.5t-78 83.5t-129 32q-86 1 -152 -36t-107 -99t-54 -137h163q8 33 25 62.5t44 47.5t61 17q28 -1 45 -14t23.5 -32.5t2.5 -41.5q-5 -30 -23 -56.5t-43.5 -51t-52.5 -50.5z" />
    <glyph glyph-name="uniFF13" unicode="&#xff13;" horiz-adv-x="611" 
d="M296 340q56 1 109.5 10.5t98 30t74.5 54.5t38 84q9 58 -17 101.5t-77 68.5t-119 24q-71 0 -128 -28.5t-94.5 -77.5t-49.5 -111l155 -1q6 23 20.5 42t35.5 30.5t47 10.5q24 0 38 -9.5t20.5 -24.5t3.5 -35q-4 -28 -26 -48.5t-52.5 -32t-64.5 -13.5zM282 -16q76 0 139.5 25
t105.5 71.5t52 110.5q8 56 -12 94.5t-60.5 61t-93.5 33.5t-110 12l-13 -86q30 -1 55.5 -7t43.5 -18t26 -30t3 -43q-5 -28 -22 -48t-41.5 -30t-52.5 -9q-30 0 -50 13t-29 35.5t-8 52.5h-162q-6 -64 19.5 -118t78.5 -86.5t131 -33.5z" />
    <glyph glyph-name="uniFF14" unicode="&#xff14;" horiz-adv-x="611" 
d="M1 125l587 -1l24 144h-166l-20 -21l-270 -1zM171 175l222 272l-47 -276l-20 -11l-28 -160h173l120 700h-126l-467 -578z" />
    <glyph glyph-name="uniFF15" unicode="&#xff15;" horiz-adv-x="611" 
d="M586 224q8 63 -11.5 114.5t-61.5 82.5t-101 32q-55 1 -103 -17.5t-89 -54.5l-125 -83q52 21 104 32.5t100 9.5q31 0 57.5 -11t41.5 -32.5t10 -53.5q-5 -34 -27 -56t-54.5 -33.5t-70.5 -11.5q-42 0 -83 21t-75 54l-84 -138q49 -40 112.5 -66t148.5 -26q52 0 104 15.5
t95.5 45.5t73 74t38.5 102zM358 554h270l25 146h-396l-168 -407l181 86z" />
    <glyph glyph-name="uniFF16" unicode="&#xff16;" horiz-adv-x="611" 
d="M206 246q6 33 25.5 60t49.5 43.5t63 15.5q33 0 55 -17t31 -44t4 -58q-5 -33 -25.5 -60t-49.5 -42t-63 -15q-33 1 -55 16.5t-31 42.5t-4 58zM392 697l-240 -257q-38 -41 -69 -89t-40 -105q-11 -79 17 -138t86 -91.5t134 -32.5q79 0 147 32t114 90.5t56 139.5
q8 61 -13 112.5t-64 83t-100 31.5q-34 0 -61 -10t-55 -32l40 15l263 251h-215z" />
    <glyph glyph-name="uniFF17" unicode="&#xff17;" horiz-adv-x="611" 
d="M102 542h312l-358 -542h183l449 700h-559z" />
    <glyph glyph-name="uniFF18" unicode="&#xff18;" horiz-adv-x="611" 
d="M151 532q-7 -46 8 -81t45 -59t69.5 -36.5t80.5 -12.5q44 0 87 12t79 36t60.5 59t31.5 81q6 43 -8 77.5t-43.5 58.5t-69 36.5t-83.5 12.5q-61 0 -116.5 -21.5t-94 -63t-46.5 -99.5zM303 514q3 22 16.5 40.5t34 30t42.5 10.5t35.5 -12t19.5 -29t3 -39q-3 -20 -16.5 -39
t-33.5 -30t-42 -10t-36 12t-19.5 28.5t-3.5 37.5zM68 191q-6 -47 9.5 -85.5t48.5 -65.5t76.5 -41.5t90.5 -14.5q50 0 97.5 14t87.5 40.5t66.5 65t33.5 86.5q7 51 -10.5 90t-51.5 64.5t-76.5 38.5t-86.5 13q-45 0 -92 -12.5t-88.5 -38t-69.5 -64t-35 -90.5zM237 215
q5 24 21 45.5t39.5 34.5t49.5 12q25 -1 42 -14t25 -33.5t4 -43.5q-4 -27 -20 -48.5t-39.5 -34t-50.5 -11.5q-25 1 -42.5 13t-25 33.5t-3.5 46.5z" />
    <glyph glyph-name="uniFF19" unicode="&#xff19;" horiz-adv-x="611" 
d="M470 455q-6 -33 -26 -60t-49 -43.5t-64 -15.5q-32 0 -54 17t-31 44t-4 57q6 34 25.5 60.5t49 42.5t63.5 15q33 0 54.5 -16t31 -42.5t4.5 -58.5zM284 4l240 256q38 41 69.5 89t39.5 105q11 80 -17.5 138.5t-85.5 91t-135 32.5t-146 -31.5t-114 -89.5t-57 -140
q-7 -61 14 -113t63.5 -83t99.5 -31q35 -1 62 9.5t55 31.5l-40 -14l-264 -251h216z" />
    <glyph glyph-name="a.alt" horiz-adv-x="526" 
d="M167 140q3 19 15 31t32 19t43 7q32 0 59.5 -9.5t50.5 -27.5l10 67q-24 23 -63.5 37.5t-89.5 14.5q-53 0 -97 -17t-73 -49t-37 -79q-6 -45 12.5 -77t53 -49t76.5 -17q46 0 84.5 16.5t65 47t35.5 72.5l-7 59q-12 -42 -43 -70t-74 -26q-23 1 -39 13.5t-14 36.5zM139 319
q17 8 41 17.5t52 16t56 4.5q18 0 31.5 -4.5t22.5 -12.5t13 -20t1 -27l-53 -293h144l55 324q8 50 -18 83t-71 49.5t-98 16.5q-59 0 -113 -16t-99 -36z" />
    <glyph glyph-name="agrave.alt" horiz-adv-x="528" 
d="M167 137q4 19 17.5 32t34 20.5t42.5 7.5q34 1 59 -9t50 -28l10 69q-23 22 -62 36t-85 14q-53 0 -100 -17.5t-78 -51t-38 -81.5q-6 -43 11.5 -74t52.5 -47.5t80 -16.5q47 0 85.5 17t64.5 48t36 73l-7 57q-8 -30 -25 -52t-41 -33.5t-54 -10.5q-24 1 -40 12t-13 35zM143 318
q26 13 66 27.5t84 11.5q23 0 38 -8t22 -21.5t6 -32.5l-53 -295h144l55 324q6 50 -19 83t-70 49.5t-99 16.5q-59 0 -112 -16t-98 -36zM191 685l152 -152l86 40l-121 163z" />
    <glyph glyph-name="aacute.alt" horiz-adv-x="528" 
d="M167 137q4 19 17.5 32t34 20.5t42.5 7.5q34 1 59 -9t50 -28l10 69q-23 22 -62 36t-85 14q-53 0 -100 -17.5t-78 -51t-38 -81.5q-6 -43 11.5 -74t52.5 -47.5t80 -16.5q47 0 85.5 17t64.5 48t36 73l-7 57q-8 -30 -25 -52t-41 -33.5t-54 -10.5q-24 1 -40 12t-13 35zM143 318
q26 13 66 27.5t84 11.5q23 0 38 -8t22 -21.5t6 -32.5l-53 -295h144l55 324q6 50 -19 83t-70 49.5t-99 16.5q-59 0 -112 -16t-98 -36zM526 680l-108 55l-171 -156l82 -45z" />
    <glyph glyph-name="acircumflex.alt" horiz-adv-x="528" 
d="M167 137q4 19 17.5 32t34 20.5t42.5 7.5q34 1 59 -9t50 -28l10 69q-23 22 -62 36t-85 14q-53 0 -100 -17.5t-78 -51t-38 -81.5q-6 -43 11.5 -74t52.5 -47.5t80 -16.5q47 0 85.5 17t64.5 48t36 73l-7 57q-8 -30 -25 -52t-41 -33.5t-54 -10.5q-24 1 -40 12t-13 35zM143 318
q26 13 66 27.5t84 11.5q23 0 38 -8t22 -21.5t6 -32.5l-53 -295h144l55 324q6 50 -19 83t-70 49.5t-99 16.5q-59 0 -112 -16t-98 -36zM350 618l74 -85l112 69l-172 142l-211 -137l94 -74z" />
    <glyph glyph-name="atilde.alt" horiz-adv-x="528" 
d="M167 137q4 19 17.5 32t34 20.5t42.5 7.5q34 1 59 -9t50 -28l10 69q-23 22 -62 36t-85 14q-53 0 -100 -17.5t-78 -51t-38 -81.5q-6 -43 11.5 -74t52.5 -47.5t80 -16.5q47 0 85.5 17t64.5 48t36 73l-7 57q-8 -30 -25 -52t-41 -33.5t-54 -10.5q-24 1 -40 12t-13 35zM143 318
q26 13 66 27.5t84 11.5q23 0 38 -8t22 -21.5t6 -32.5l-53 -295h144l55 324q6 50 -19 83t-70 49.5t-99 16.5q-59 0 -112 -16t-98 -36zM152 601l63 -64q6 14 18 31.5t38 18.5q23 2 42.5 -11t39.5 -26t44 -14q30 -1 57.5 11.5t49 32.5t34.5 38l-60 76q-16 -20 -34 -35.5
t-40 -16.5q-25 0 -42.5 12.5t-35.5 25.5t-46 13q-30 1 -55.5 -12.5t-44 -35t-28.5 -44.5z" />
    <glyph glyph-name="adieresis.alt" horiz-adv-x="528" 
d="M167 137q4 19 17.5 32t34 20.5t42.5 7.5q34 1 59 -9t50 -28l10 69q-23 22 -62 36t-85 14q-53 0 -100 -17.5t-78 -51t-38 -81.5q-6 -43 11.5 -74t52.5 -47.5t80 -16.5q47 0 85.5 17t64.5 48t36 73l-7 57q-8 -30 -25 -52t-41 -33.5t-54 -10.5q-24 1 -40 12t-13 35zM143 318
q26 13 66 27.5t84 11.5q23 0 38 -8t22 -21.5t6 -32.5l-53 -295h144l55 324q6 50 -19 83t-70 49.5t-99 16.5q-59 0 -112 -16t-98 -36zM378 616q-4 -34 18 -58t57 -24t64 23t33 57q5 34 -17.5 58t-57.5 25q-35 0 -64 -23.5t-33 -57.5zM142 616q-5 -34 17.5 -58t57.5 -24
q34 0 63.5 23t32.5 57q5 34 -17.5 58t-56.5 25q-35 0 -64 -23.5t-33 -57.5z" />
    <glyph glyph-name="aring.alt" horiz-adv-x="528" 
d="M167 137q4 19 17.5 32t34 20.5t42.5 7.5q34 1 59 -9t50 -28l10 69q-23 22 -62 36t-85 14q-53 0 -100 -17.5t-78 -51t-38 -81.5q-6 -43 11.5 -74t52.5 -47.5t80 -16.5q47 0 85.5 17t64.5 48t36 73l-7 57q-8 -30 -25 -52t-41 -33.5t-54 -10.5q-24 1 -40 12t-13 35zM143 318
q26 13 66 27.5t84 11.5q23 0 38 -8t22 -21.5t6 -32.5l-53 -295h144l55 324q6 50 -19 83t-70 49.5t-99 16.5q-59 0 -112 -16t-98 -36zM229 650q-6 -49 25 -82.5t81 -33.5q34 0 64 15t50.5 40.5t24.5 58.5t-9 59t-39 41.5t-60 15.5q-32 0 -62 -15t-50 -40.5t-25 -58.5z
M306 648q2 13 10.5 24t21 18.5t24.5 6.5q17 -1 26.5 -15t7.5 -32q-1 -12 -10 -23.5t-21 -18t-25 -6.5q-16 1 -25.5 15t-8.5 31z" />
    <glyph glyph-name="amacron.alt" horiz-adv-x="528" 
d="M167 137q4 19 17.5 32t34 20.5t42.5 7.5q34 1 59 -9t50 -28l10 69q-23 22 -62 36t-85 14q-53 0 -100 -17.5t-78 -51t-38 -81.5q-6 -43 11.5 -74t52.5 -47.5t80 -16.5q47 0 85.5 17t64.5 48t36 73l-7 57q-8 -30 -25 -52t-41 -33.5t-54 -10.5q-24 1 -40 12t-13 35zM143 318
q26 13 66 27.5t84 11.5q23 0 38 -8t22 -21.5t6 -32.5l-53 -295h144l55 324q6 50 -19 83t-70 49.5t-99 16.5q-59 0 -112 -16t-98 -36zM151 541h364l23 131h-364z" />
    <glyph glyph-name="abreve.alt" horiz-adv-x="528" 
d="M167 137q4 19 17.5 32t34 20.5t42.5 7.5q34 1 59 -9t50 -28l10 69q-23 22 -62 36t-85 14q-53 0 -100 -17.5t-78 -51t-38 -81.5q-6 -43 11.5 -74t52.5 -47.5t80 -16.5q47 0 85.5 17t64.5 48t36 73l-7 57q-8 -30 -25 -52t-41 -33.5t-54 -10.5q-24 1 -40 12t-13 35zM143 318
q26 13 66 27.5t84 11.5q23 0 38 -8t22 -21.5t6 -32.5l-53 -295h144l55 324q6 50 -19 83t-70 49.5t-99 16.5q-59 0 -112 -16t-98 -36zM196 679q-3 -41 12 -74t47 -52t81 -19q50 0 87 19t61 52t32 73l-99 1q-5 -15 -15.5 -29t-25 -22t-34.5 -7q-18 0 -29.5 8t-16 21.5
t-5.5 28.5h-95z" />
    <glyph glyph-name="aogonek.alt" horiz-adv-x="528" 
d="M167 137q4 19 17.5 32t34 20.5t42.5 7.5q34 1 59 -9t50 -28l10 69q-23 22 -62 36t-85 14q-54 0 -100.5 -17.5t-77 -50t-38.5 -79.5q-6 -44 11.5 -75.5t52.5 -48.5t80 -17q47 0 85.5 17t64.5 48t36 73l-7 57q-8 -30 -25 -52t-41 -33.5t-54 -10.5q-23 1 -39 12.5t-14 34.5z
M143 318q26 13 66 27.5t84 11.5q23 0 38 -8t22 -21.5t6 -32.5l-53 -295h144l55 324q6 50 -19 83t-70 49.5t-99 16.5q-59 0 -112 -16t-98 -36zM403 -111q-10 -7 -24 -13.5t-29 -5.5q-16 1 -21.5 11t-3.5 25q4 20 18 36t34.5 30.5t42.5 27.5l-40 25q-33 -16 -67.5 -36
t-59 -46.5t-30.5 -61.5q-6 -47 24.5 -73.5t76.5 -27.5q35 0 59.5 11.5t42.5 27.5z" />
    </font>
</defs>
</svg>
