<?xml version="1.0" standalone="no"?>
<!DOCTYPE svg PUBLIC "-//W3C//DTD SVG 1.1//EN" "http://www.w3.org/Graphics/SVG/1.1/DTD/svg11.dtd" >
<svg xmlns="http://www.w3.org/2000/svg" xmlns:xlink="http://www.w3.org/1999/xlink" version="1.1">
<metadata>
Created by FontForge 20201107 at Fri Sep 10 18:37:55 2021
 By 
Copyright 2020 The Jost Project Authors (https://github.com/indestructible-type/Jost)
</metadata>
<defs>
<font id="Jost-Thin" horiz-adv-x="475" >
  <font-face 
    font-family="Jost Thin"
    font-weight="250"
    font-stretch="normal"
    units-per-em="1000"
    panose-1="0 0 0 0 0 0 0 0 0 0"
    ascent="800"
    descent="-200"
    x-height="460"
    cap-height="700"
    bbox="-134 -325 1406 1005"
    underline-thickness="50"
    underline-position="-125"
    unicode-range="U+000D-FF19"
  />
<missing-glyph horiz-adv-x="500" 
 />
    <glyph glyph-name=".notdef" horiz-adv-x="500" 
 />
    <glyph glyph-name="uni0000" horiz-adv-x="300" 
 />
    <glyph glyph-name="uni0000" horiz-adv-x="300" 
 />
    <glyph glyph-name="uni000D" unicode="&#xd;" horiz-adv-x="300" 
 />
    <glyph glyph-name="space" unicode=" " horiz-adv-x="300" 
 />
    <glyph glyph-name="exclam" unicode="!" horiz-adv-x="262" 
d="M124 700l4 -500h6l4 500h-14zM120 1q0 -5 3.5 -8t7.5 -3q5 0 8 3t3 8t-3 8t-8 3q-4 0 -7.5 -3t-3.5 -8z" />
    <glyph glyph-name="quotedbl" unicode="&#x22;" horiz-adv-x="403" 
d="M140 700l-50 -280h7l56 280h-13zM320 700l-50 -280h7l56 280h-13z" />
    <glyph glyph-name="numbersign" unicode="#" horiz-adv-x="571" 
d="M75 454h130h3h208h4h116v11h-461v-11zM35 240h461v11h-127h-6h-203h-5h-120v-11zM470 700l-58 -238l-1 -4l-51 -212l-1 -2l-59 -244h11l170 700h-11zM260 700l-170 -700h11l59 243v1l52 214l1 4l58 238h-11z" />
    <glyph glyph-name="dollar" unicode="$" horiz-adv-x="580" 
d="M248 818v-118h10v118h-10zM250 -2v-110h10v110h-10zM429 548l10 2q-9 36 -31 72.5t-60 61t-95 24.5q-47 0 -86.5 -19.5t-63 -55t-23.5 -83.5q0 -40 17.5 -71t46 -54t61 -39t62.5 -27q38 -14 76 -37.5t63.5 -59t25.5 -87.5q0 -49 -17 -88t-56 -61.5t-104 -22.5
q-60 0 -100.5 29t-65.5 73.5t-39 91.5l-10 -4q15 -48 41.5 -94.5t69 -76.5t104.5 -30q70 0 111 25t59 67t18 91q0 41 -14.5 72t-39 54t-54.5 39.5t-62 27.5q-42 16 -84 39t-70 58t-28 85q0 43 22 76t58.5 52t81.5 19q53 0 88.5 -23.5t57 -57.5t30.5 -68z" />
    <glyph glyph-name="percent" unicode="%" horiz-adv-x="701" 
d="M35 560q0 -42 18.5 -76t51.5 -54t78 -20t78.5 20t51.5 54t18 76t-18 76t-51.5 54t-78.5 20t-78 -20t-51.5 -54t-18.5 -76zM45 560q0 38 17 70t48 51t73 19q43 0 73.5 -19t47.5 -51t17 -70t-17 -70t-47.5 -51.5t-73.5 -19.5q-42 0 -73 19.5t-48 51.5t-17 70zM370 140
q0 -42 18.5 -76t51.5 -54t78 -20t78.5 20t51.5 54t18 76t-18 76t-51.5 54t-78.5 20t-78 -20t-51.5 -54t-18.5 -76zM380 140q0 38 17 70t48 51t73 19q43 0 73.5 -19t47.5 -51t17 -70t-17 -70t-47.5 -51.5t-73.5 -19.5q-42 0 -73 19.5t-48 51.5t-17 70zM573 700l-457 -700h12
l457 700h-12z" />
    <glyph glyph-name="ampersand" unicode="&#x26;" horiz-adv-x="675" 
d="M183 427l375 -427h13l-381 435q-22 26 -42.5 57.5t-20.5 83.5q0 50 35 87.5t106 37.5q45 0 73.5 -20t41.5 -49.5t13 -57.5q0 -46 -37.5 -86.5t-104.5 -80.5q-20 -12 -47.5 -25.5t-56.5 -31.5t-54 -42.5t-40.5 -57.5t-15.5 -77q0 -59 27.5 -100t74 -62t103.5 -21
q67 0 118.5 30t93 78t78.5 104.5t76 108.5l-8 5q-38 -53 -75 -108.5t-78 -102.5t-91 -76t-114 -29q-55 0 -99 19.5t-70 58.5t-26 95q0 53 22.5 89t56 60.5t69.5 43t63 34.5q35 21 62 41.5t45.5 41.5t28 43.5t9.5 47.5q0 32 -14.5 63.5t-45 52.5t-78.5 21q-50 0 -83.5 -18.5
t-50.5 -49t-17 -67.5q0 -36 9.5 -62.5t25 -47t31.5 -39.5z" />
    <glyph glyph-name="quotesingle" unicode="'" horiz-adv-x="223" 
d="M140 700l-50 -280h7l56 280h-13z" />
    <glyph glyph-name="parenleft" unicode="(" horiz-adv-x="240" 
d="M205 780q-60 -112 -87.5 -237t-27.5 -253q0 -127 27.5 -252t87.5 -238h5q-56 120 -83 241.5t-27 248.5q0 128 27 249t83 241h-5z" />
    <glyph glyph-name="parenright" unicode=")" horiz-adv-x="240" 
d="M35 -200q60 113 87.5 238t27.5 252q0 128 -27.5 253t-87.5 237h-5q56 -120 83 -241t27 -249q0 -127 -27 -248.5t-83 -241.5h5z" />
    <glyph glyph-name="asterisk" unicode="*" horiz-adv-x="592" 
d="M461 585l-167 -57l3 -6l167 51zM404 387l-106 140l-4 -5l100 -142zM198 380l100 142l-4 5l-106 -140zM128 573l167 -51l3 6l-167 57zM290 700l3 -175h6l3 175h-12z" />
    <glyph glyph-name="plus" unicode="+" horiz-adv-x="550" 
d="M65 250h410v10h-410v-10zM265 480v-450h10v450h-10z" />
    <glyph glyph-name="comma" unicode="," horiz-adv-x="276" 
d="M175 94l-105 -253l6 -2l110 250z" />
    <glyph glyph-name="hyphen" unicode="-" horiz-adv-x="210" 
d="M5 265h200v10h-200v-10z" />
    <glyph glyph-name="period" unicode="." horiz-adv-x="260" 
d="M119 1q0 -5 3.5 -8t7.5 -3q5 0 8 3t3 8t-3 8t-8 3q-4 0 -7.5 -3t-3.5 -8z" />
    <glyph glyph-name="slash" unicode="/" 
d="M448 700l-433 -850h12l433 850h-12z" />
    <glyph glyph-name="zero" unicode="0" horiz-adv-x="550" 
d="M66 350q0 70 14 133t41 112t66 77t88 28q50 0 88.5 -28t65.5 -77t41 -112t14 -133t-14 -133t-41 -112t-65.5 -77t-88.5 -28q-49 0 -88 28t-66 77t-41 112t-14 133zM55 350q0 -99 26 -181t75.5 -130.5t118.5 -48.5q70 0 119 48.5t75 130.5t26 181q0 100 -26 181.5t-75 130
t-119 48.5q-69 0 -118.5 -48.5t-75.5 -130t-26 -181.5z" />
    <glyph glyph-name="one" unicode="1" horiz-adv-x="410" 
d="M95 654l170 37v-691h10v705l-180 -40v-11z" />
    <glyph glyph-name="two" unicode="2" horiz-adv-x="514" 
d="M25 0h454v10h-429l304 318q38 39 67.5 84.5t29.5 106.5q0 32 -10.5 65.5t-33.5 62t-59 46.5t-86 18q-62 0 -109 -31.5t-72.5 -88t-25.5 -131.5h10q0 71 24 125t68.5 85t104.5 31q49 0 83 -17t55 -44.5t30.5 -59t9.5 -61.5q0 -42 -13.5 -74t-35 -58.5t-46.5 -52.5z" />
    <glyph glyph-name="three" unicode="3" horiz-adv-x="551" 
d="M248 362q53 0 103 20.5t82.5 59t32.5 92.5q0 45 -21 85t-62 65.5t-101 25.5q-57 0 -99 -23.5t-65 -64.5t-23 -96h10q0 76 47.5 125t129.5 49q56 0 95 -24.5t59 -62.5t20 -80q0 -39 -19.5 -69.5t-51 -51t-67.5 -31.5t-70 -11v-8zM278 -10q63 0 109.5 23.5t72.5 65t26 96.5
q0 48 -22 84.5t-57.5 60.5t-77.5 36t-81 12v-8q34 0 73 -11.5t74.5 -34.5t58 -57.5t22.5 -81.5q0 -50 -24.5 -90t-69 -62.5t-104.5 -22.5q-65 0 -110.5 24t-69 66t-23.5 95h-10q0 -41 14 -76.5t41.5 -62t67 -41.5t90.5 -15z" />
    <glyph glyph-name="four" unicode="4" horiz-adv-x="553" 
d="M25 140h493v10h-113h-3h-358l354 516v-519v-5v-142h11v700h-1z" />
    <glyph glyph-name="five" unicode="5" horiz-adv-x="557" 
d="M489 230q0 65 -27 113.5t-72 75.5t-100 27q-67 0 -115.5 -26.5t-71.5 -60.5l81 331h323v10h-330l-92 -373q26 35 57 59.5t68 37t80 12.5q53 0 95.5 -26.5t68 -72.5t25.5 -107q0 -75 -28.5 -126.5t-77.5 -77.5t-109 -26q-52 0 -90.5 17t-65 49t-44.5 76l-9 -5
q18 -45 46 -78t68.5 -51t94.5 -18q47 0 88 15t71.5 45t48 75t17.5 105z" />
    <glyph glyph-name="six" unicode="6" horiz-adv-x="536" 
d="M60 220q0 53 25.5 100.5t74.5 77t119 29.5q53 0 97.5 -27.5t72 -74.5t27.5 -105q0 -63 -26 -112.5t-72.5 -78.5t-109.5 -29q-62 0 -109 29t-73 78.5t-26 112.5zM330 700l-224 -321q-20 -28 -38 -72t-18 -87q0 -67 26.5 -119t75.5 -81.5t116 -29.5q68 0 116.5 29.5
t75 81.5t26.5 119q0 45 -16 84t-44.5 69t-66 47t-80.5 17q-56 0 -101.5 -21.5t-77.5 -60.5v0l242 345h-12z" />
    <glyph glyph-name="seven" unicode="7" horiz-adv-x="515" 
d="M35 690h454l-365 -690h11l370 700h-470v-10z" />
    <glyph glyph-name="eight" unicode="8" horiz-adv-x="516" 
d="M85 541q0 -37 15 -68.5t40 -55t55.5 -36.5t62.5 -13t62.5 13t55.5 36.5t40 55t15 68.5q0 45 -22.5 83.5t-61.5 62t-89 23.5t-89 -23.5t-61.5 -62t-22.5 -83.5zM95 541q0 43 21 79t58 58t84 22q48 0 84.5 -22t57.5 -58t21 -79q0 -48 -26 -85.5t-64 -59t-73 -21.5t-73 21.5
t-64 59t-26 85.5zM65 185q0 -41 12.5 -76.5t37 -62t60.5 -41.5t83 -15t83 15t60.5 41.5t37 62t12.5 76.5t-16 75t-43 59t-61.5 39t-72.5 14q-37 0 -72 -14t-62 -39t-43 -59t-16 -75zM75 185q0 53 27 93.5t69 63.5t87 23t87 -23t69 -63.5t27 -93.5t-22 -95t-62.5 -66
t-98.5 -24q-57 0 -98 24t-63 66t-22 95z" />
    <glyph glyph-name="nine" unicode="9" horiz-adv-x="536" 
d="M476 480q0 -53 -25.5 -100.5t-74.5 -77t-119 -29.5q-52 0 -97 27.5t-72.5 74.5t-27.5 105q0 63 26 113t73 78.5t109 28.5q63 0 109.5 -28.5t72.5 -78.5t26 -113zM206 0l224 321q20 28 38 72t18 87q0 67 -26.5 119t-75 81.5t-116.5 29.5q-67 0 -116 -29.5t-75.5 -81.5
t-26.5 -119q0 -45 16 -84t44.5 -69t66 -47t80.5 -17q56 0 102 21.5t77 60.5v0l-242 -345h12z" />
    <glyph glyph-name="colon" unicode=":" horiz-adv-x="300" 
d="M119 1q0 -5 3.5 -8t7.5 -3q5 0 8 3t3 8t-3 8t-8 3q-4 0 -7.5 -3t-3.5 -8zM119 349q0 -5 3.5 -8t7.5 -3q5 0 8 3t3 8t-3 8t-8 3q-4 0 -7.5 -3t-3.5 -8z" />
    <glyph glyph-name="semicolon" unicode=";" horiz-adv-x="276" 
d="M149 349q0 -5 3.5 -8t7.5 -3q5 0 8 3t3 8t-3 8t-8 3q-4 0 -7.5 -3t-3.5 -8zM175 94l-105 -253l6 -2l110 250z" />
    <glyph glyph-name="less" unicode="&#x3c;" horiz-adv-x="640" 
d="M82 257l493 203v10l-510 -210v-6l510 -209v10z" />
    <glyph glyph-name="equal" unicode="=" horiz-adv-x="615" 
d="M65 185h485v10h-485v-10zM65 310h485v10h-485v-10z" />
    <glyph glyph-name="greater" unicode="&#x3e;" horiz-adv-x="640" 
d="M558 258l-493 -203v-10l510 210v6l-510 209v-10z" />
    <glyph glyph-name="question" unicode="?" horiz-adv-x="542" 
d="M452 520q0 -48 -30 -88t-82 -63.5t-117 -23.5h-1l5 -175h8l-1 167q64 1 115.5 26.5t82 66.5t30.5 90q0 41 -13.5 75.5t-39 60.5t-62 40t-83.5 14q-49 0 -85.5 -14.5t-63.5 -41t-50 -61.5l9 -6q33 52 77 82.5t113 30.5q60 0 102 -24t64 -64.5t22 -91.5zM214 1q0 -5 3.5 -8
t7.5 -3q5 0 8 3t3 8t-3 8t-8 3q-4 0 -7.5 -3t-3.5 -8z" />
    <glyph glyph-name="at" unicode="@" horiz-adv-x="770" 
d="M216 320q0 66 24 109.5t61 65.5t77 22q35 0 60 -21t38.5 -54.5t13.5 -71.5q0 -53 -20.5 -97.5t-54.5 -71.5t-77 -27q-52 0 -87 41t-35 105zM205 320q0 -49 18 -84.5t49 -54t68 -18.5q43 0 79 28.5t58.5 75t22.5 100.5q0 45 -15 81.5t-42 58t-65 21.5q-42 0 -82 -23
t-65.5 -69t-25.5 -116zM35 320q0 -99 37.5 -173t109 -114.5t173.5 -40.5q86 0 144.5 18.5t103.5 40.5l-6 10q-41 -22 -100.5 -40t-141.5 -18q-98 0 -167 39t-105.5 110.5t-36.5 167.5q0 81 26.5 150t75.5 119.5t117 79t150 28.5q74 0 131.5 -26t97 -70t60 -99t20.5 -112
q0 -73 -27 -123.5t-65.5 -77t-75.5 -26.5q-29 0 -43.5 15.5t-19 37t-4.5 38.5q0 6 0.5 18t1.5 17l41 231h-12l-40 -230h2q-7 -43 -0.5 -74t25.5 -47.5t49 -16.5q28 0 59 14.5t58.5 44t44.5 74.5t17 105t-21 116.5t-62.5 102t-100.5 72.5t-136 27q-84 0 -153.5 -29.5
t-120.5 -82.5t-78.5 -123.5t-27.5 -152.5z" />
    <glyph glyph-name="A" unicode="A" horiz-adv-x="600" 
d="M129 272h343v10h-343v-10zM300 688l165 -412l1 -3l107 -273h12l-285 715l-285 -715h12l108 273l1 4z" />
    <glyph glyph-name="B" unicode="B" horiz-adv-x="495" 
d="M97 386h113q53 0 95.5 16t67.5 50t25 88q0 50 -23.5 85.5t-67.5 55t-107 19.5h-110v-700h120q68 0 118.5 21t78.5 65.5t28 113.5q0 48 -21 84t-54.5 60t-70.5 36t-69 12h-123v-8h113q38 0 75.5 -12.5t69 -36t50.5 -57.5t19 -78q0 -65 -26.5 -107t-74.5 -62t-113 -20h-110
v678h100q90 0 138.5 -39t48.5 -110q0 -53 -26 -85t-68.5 -46.5t-92.5 -14.5h-103v-8z" />
    <glyph glyph-name="C" unicode="C" horiz-adv-x="685" 
d="M62 350q0 102 41 180t112.5 122t164.5 44q47 0 87.5 -9t75 -27.5t62.5 -46.5v15q-44 39 -96 59.5t-129 20.5q-73 0 -133.5 -26.5t-104.5 -74.5t-68 -113.5t-24 -143.5t24 -143.5t68 -113.5t104.5 -74.5t133.5 -26.5q77 0 129 20.5t96 59.5v16q-29 -28 -62 -47t-73 -28
t-90 -9q-93 0 -165 45t-112.5 123t-40.5 178z" />
    <glyph glyph-name="D" unicode="D" horiz-adv-x="635" 
d="M90 700v-700h11v700h-11zM250 0q102 0 177.5 44t116.5 122.5t41 183.5t-41 183.5t-116.5 122.5t-177.5 44h-155v-11h155q75 0 135 -24t102 -69t64.5 -107.5t22.5 -138.5t-22.5 -138.5t-64.5 -107.5t-102 -69t-135 -24h-155v-11h155z" />
    <glyph glyph-name="E" unicode="E" horiz-adv-x="510" 
d="M92 0h338v10h-338v-10zM92 690h338v10h-338v-10zM92 384h318v10h-318v-10zM90 700v-700h11v700h-11z" />
    <glyph glyph-name="F" unicode="F" horiz-adv-x="450" 
d="M93 689h297v11h-297v-11zM93 373h287v10h-287v-10zM90 700v-700h11v700h-11z" />
    <glyph glyph-name="G" unicode="G" horiz-adv-x="765" 
d="M420 330h279q-1 -66 -23.5 -125t-63.5 -104.5t-97 -71.5t-125 -26q-96 0 -170.5 45t-116.5 123.5t-42 178.5q0 102 42.5 180t117 122.5t169.5 44.5q92 0 161.5 -42.5t106.5 -104.5l10 6q-30 44 -70 78t-91.5 54t-116.5 20q-73 0 -135 -26.5t-108 -74.5t-71.5 -113.5
t-25.5 -143.5t25.5 -143.5t71.5 -113.5t108 -74.5t135 -26.5t132 28t101 77t64.5 111.5t22.5 131.5h-290v-10z" />
    <glyph glyph-name="H" unicode="H" horiz-adv-x="647" 
d="M93 377h460v10h-460v-10zM546 700v-700h11v700h-11zM90 700v-700h11v700h-11z" />
    <glyph glyph-name="I" unicode="I" horiz-adv-x="180" 
d="M85 700v-700h10v700h-10z" />
    <glyph glyph-name="J" unicode="J" horiz-adv-x="197" 
d="M-127 -158l-7 -7q8 -10 25.5 -23t42 -22.5t50.5 -9.5q35 0 59 9.5t38 29.5t20 50t6 71v760h-11v-750q0 -87 -23 -123t-90 -36q-34 0 -63 16.5t-47 34.5z" />
    <glyph glyph-name="K" unicode="K" horiz-adv-x="454" 
d="M85 700v-700h11v700h-11zM408 700l-314 -328l328 -372h17l-330 372l315 328h-16z" />
    <glyph glyph-name="L" unicode="L" horiz-adv-x="430" 
d="M90 700v-700h320v10h-310v690h-10z" />
    <glyph glyph-name="M" unicode="M" horiz-adv-x="830" 
d="M142 675l273 -570l273 570l71 -675h11l-75 715l-280 -584l-280 584l-75 -715h11z" />
    <glyph glyph-name="N" unicode="N" horiz-adv-x="725" 
d="M624 700v-683l-534 698v-715h11v678l534 -693v715h-11z" />
    <glyph glyph-name="O" unicode="O" horiz-adv-x="774" 
d="M61 350q0 101 41.5 179t115.5 123t169 45q96 0 169.5 -45t115 -123t41.5 -179q0 -100 -41.5 -178.5t-115 -123.5t-169.5 -45q-95 0 -169 45t-115.5 123.5t-41.5 178.5zM50 350q0 -78 25 -143.5t70.5 -113.5t107 -74.5t134.5 -26.5t134.5 26.5t107 74.5t70.5 113.5
t25 143.5t-25 143.5t-70.5 113.5t-107 74.5t-134.5 26.5t-134.5 -26.5t-107 -74.5t-70.5 -113.5t-25 -143.5z" />
    <glyph glyph-name="P" unicode="P" horiz-adv-x="480" 
d="M90 700v-700h11v700h-11zM97 690h118q90 0 147 -50.5t57 -142.5t-57 -142.5t-147 -50.5h-118v-10h118q63 0 111.5 24t76 69.5t27.5 109.5q0 65 -27.5 110t-76 69t-111.5 24h-118v-10z" />
    <glyph glyph-name="Q" unicode="Q" horiz-adv-x="771" 
d="M61 350q0 101 41.5 179t115.5 123t169 45q96 0 169.5 -45t115 -123t41.5 -179q0 -100 -41.5 -178.5t-115 -123.5t-169.5 -45q-95 0 -169 45t-115.5 123.5t-41.5 178.5zM50 350q0 -78 25 -143.5t70.5 -113.5t107 -74.5t134.5 -26.5t134.5 26.5t107 74.5t70.5 113.5
t25 143.5t-25 143.5t-70.5 113.5t-107 74.5t-134.5 26.5t-134.5 -26.5t-107 -74.5t-70.5 -113.5t-25 -143.5zM400 300l320 -300h16l-320 300h-16z" />
    <glyph glyph-name="R" unicode="R" horiz-adv-x="468" 
d="M199 317l220 -317h14l-222 317h-12zM90 700v-700h11v700h-11zM92 689h113q66 0 116.5 -20t79.5 -60t29 -102q0 -61 -28.5 -102t-79.5 -61t-117 -20h-113v-10h113q68 0 121 21.5t84 64.5t31 107q0 65 -31 107.5t-84 64t-121 21.5h-113v-11z" />
    <glyph glyph-name="S" unicode="S" horiz-adv-x="488" 
d="M64 188l-11 -3q8 -52 31 -96t65.5 -70.5t107.5 -26.5q45 0 79.5 13.5t58 37.5t36 56.5t12.5 70.5q0 44 -14.5 76t-39 55t-55 39t-61.5 28q-49 19 -90.5 42.5t-66.5 57.5t-25 86q0 68 43.5 105t111.5 37q52 0 87 -19t56 -47t30 -56l11 4q-9 29 -32 59t-60.5 50.5
t-91.5 20.5q-48 0 -85.5 -18.5t-59 -53t-21.5 -82.5q0 -40 15.5 -70.5t42 -53t60 -40t69.5 -31.5q40 -15 78 -38t62.5 -59t24.5 -92q0 -72 -45.5 -119.5t-129.5 -47.5q-64 0 -104.5 26.5t-61.5 69t-27 89.5z" />
    <glyph glyph-name="T" unicode="T" horiz-adv-x="431" 
d="M20 689h190v-689h11v689h190v11h-391v-11z" />
    <glyph glyph-name="U" unicode="U" horiz-adv-x="576" 
d="M85 700v-480q0 -52 12.5 -94.5t38 -72.5t63.5 -46.5t89 -16.5t89 16.5t63.5 46.5t38 72.5t12.5 94.5v480h-11v-480q0 -102 -51 -160.5t-141 -58.5t-141 58.5t-51 160.5v480h-11z" />
    <glyph glyph-name="V" unicode="V" horiz-adv-x="600" 
d="M300 15l-272 685h-13l285 -715l285 715h-13z" />
    <glyph glyph-name="W" unicode="W" horiz-adv-x="950" 
d="M695 26l-220 689l-220 -689l-224 674h-11l235 -715l220 692l220 -692l235 715h-11z" />
    <glyph glyph-name="X" unicode="X" horiz-adv-x="500" 
d="M451 700l-198 -323l-194 323h-14l201 -333l-226 -367h14l218 356l214 -356h14l-221 367l206 333h-14z" />
    <glyph glyph-name="Y" unicode="Y" horiz-adv-x="507" 
d="M479 700l-231 -419l-220 419h-13l228 -434v-266h11v267l238 433h-13z" />
    <glyph glyph-name="Z" unicode="Z" horiz-adv-x="535" 
d="M40 689h458l-478 -689h490v11h-468l478 689h-480v-11z" />
    <glyph glyph-name="bracketleft" unicode="[" horiz-adv-x="260" 
d="M111 769h129v11h-140v-1000h140v11h-129v978z" />
    <glyph glyph-name="backslash" unicode="\" horiz-adv-x="435" 
d="M15 700l392 -700h13l-392 700h-13z" />
    <glyph glyph-name="bracketright" unicode="]" horiz-adv-x="260" 
d="M149 -209h-129v-11h140v1000h-140v-11h129v-978z" />
    <glyph glyph-name="asciicircum" unicode="^" horiz-adv-x="510" 
d="M255 693l175 -233h15l-190 250v0l-190 -250h15z" />
    <glyph glyph-name="underscore" unicode="_" horiz-adv-x="500" 
d="M0 -109h500v11h-500v-11z" />
    <glyph glyph-name="grave" unicode="`" horiz-adv-x="353" 
d="M100 692l173 -157l5 5l-170 160z" />
    <glyph glyph-name="a" unicode="a" horiz-adv-x="435" 
d="M50 133q0 48 22 76.5t57 41t73 12.5q44 0 84 -12.5t72 -38.5v13q-10 9 -32.5 20t-53.5 19.5t-70 8.5q-73 0 -117.5 -36.5t-44.5 -104.5q0 -50 22.5 -81.5t57 -46t69.5 -14.5q44 0 83 21.5t64 66t25 112.5l-6 20q0 -73 -23.5 -119.5t-60.5 -68.5t-79 -22q-35 0 -67.5 13.5
t-53.5 42.5t-21 77zM74 409q16 12 36.5 23.5t47 19.5t60.5 8q51 0 79.5 -16t40.5 -40t14.5 -47t2.5 -37v-320h10v320q0 48 -15.5 81.5t-47.5 51t-82 17.5q-55 0 -91 -17.5t-61 -35.5z" />
    <glyph glyph-name="b" unicode="b" horiz-adv-x="541" 
d="M90 780h-10v-780h10v780zM496 230q0 74 -28 127.5t-76.5 83t-108.5 29.5q-61 0 -105.5 -35t-68.5 -90t-24 -115q0 -59 24 -114.5t68.5 -90.5t105.5 -35q60 0 108.5 29.5t76.5 83.5t28 127zM486 230q0 -70 -27.5 -122t-74 -80t-104.5 -28q-54 0 -97 33.5t-68 86t-25 110.5
t25 110.5t68 86t97 33.5q58 0 104.5 -28t74 -79.5t27.5 -122.5z" />
    <glyph glyph-name="c" unicode="c" horiz-adv-x="488" 
d="M50 230q0 67 29.5 119t80.5 81.5t113 29.5q37 0 68.5 -10.5t54 -24.5t32.5 -26v13q-16 18 -58 38t-97 20q-66 0 -118.5 -31t-83.5 -85t-31 -124q0 -69 31 -123.5t83.5 -85.5t118.5 -31q55 0 97 19.5t58 38.5v13q-10 -12 -32.5 -26t-54 -24.5t-68.5 -10.5q-62 0 -113 29.5
t-80.5 81.5t-29.5 119z" />
    <glyph glyph-name="d" unicode="d" horiz-adv-x="541" 
d="M451 780v-780h10v780h-10zM45 230q0 -73 28 -127t76.5 -83.5t108.5 -29.5q62 0 106 35t68 90.5t24 114.5q0 60 -24 115t-68 90t-106 35q-60 0 -108.5 -29.5t-76.5 -83t-28 -127.5zM55 230q0 71 27.5 122.5t74 79.5t104.5 28q55 0 97.5 -33.5t67.5 -86t25 -110.5
t-25 -110.5t-67.5 -86t-97.5 -33.5q-58 0 -104.5 28t-74 80t-27.5 122z" />
    <glyph glyph-name="e" unicode="e" horiz-adv-x="502" 
d="M250 -10q63 0 109.5 27.5t89.5 89.5l-8 6q-40 -60 -84.5 -86.5t-106.5 -26.5q-55 0 -99 30.5t-70 83.5t-26 118t26.5 116.5t71.5 81.5t102 30q53 0 96.5 -27.5t69.5 -74t26 -103.5q0 -9 -1 -15t-3 -11l7 9h-398v-10h403q2 8 2 15v11q0 59 -27.5 108t-73 78.5t-101.5 29.5
q-60 0 -107.5 -31t-75 -85t-27.5 -122q0 -69 27 -123.5t73.5 -86.5t104.5 -32z" />
    <glyph glyph-name="f" unicode="f" horiz-adv-x="278" 
d="M50 460v-10h195v10h-195zM281 733l7 7q-7 10 -19 21t-28 19t-38 8q-42 0 -65.5 -20t-33 -51.5t-9.5 -66.5v-650h10v650q0 28 8 57.5t29 50t61 20.5q28 0 47 -15t31 -30z" />
    <glyph glyph-name="g" unicode="g" horiz-adv-x="541" 
d="M60 -30q0 -59 24 -104.5t67.5 -70.5t100.5 -25q58 0 105 27t75.5 80.5t28.5 132.5v450h-10v-450q0 -77 -27.5 -128.5t-72.5 -76.5t-99 -25q-53 0 -94.5 23.5t-64.5 66t-23 100.5h-10zM45 230q0 -73 28 -127t76.5 -83.5t108.5 -29.5q62 0 106 35t68 90.5t24 114.5
q0 60 -24 115t-68 90t-106 35q-60 0 -108.5 -29.5t-76.5 -83t-28 -127.5zM55 230q0 71 27.5 122.5t74 79.5t104.5 28q41 0 76 -20t60.5 -53t39.5 -72.5t14 -79.5q0 -60 -24.5 -114t-67.5 -87.5t-98 -33.5q-58 0 -104.5 28t-74 80t-27.5 122z" />
    <glyph glyph-name="h" unicode="h" 
d="M95 780h-10v-780h10v780zM380 320v-320h10v320q0 45 -13.5 78.5t-42.5 52.5t-77 19q-47 0 -85 -25t-60 -67.5t-22 -97.5h5q0 48 21.5 89t58.5 66t82 25q68 0 95.5 -39.5t27.5 -100.5z" />
    <glyph glyph-name="i" unicode="i" horiz-adv-x="190" 
d="M85 695q0 -4 2.5 -7t7.5 -3t7.5 3t2.5 7q0 5 -2.5 7.5t-7.5 2.5t-7.5 -2.5t-2.5 -7.5zM90 460v-460h10v460h-10z" />
    <glyph glyph-name="j" unicode="j" horiz-adv-x="180" 
d="M75 695q0 -4 2.5 -7t7.5 -3t7.5 3t2.5 7q0 5 -2.5 7.5t-7.5 2.5t-7.5 -2.5t-2.5 -7.5zM-96 -165l-7 -7q8 -10 19.5 -21t28 -19t37.5 -8q42 0 65.5 20t33 52t9.5 66v542h-10v-542q0 -28 -8 -57.5t-29 -50t-61 -20.5q-28 0 -47 15t-31 30z" />
    <glyph glyph-name="k" unicode="k" horiz-adv-x="372" 
d="M80 780v-780h10v780h-10zM328 460l-240 -190l260 -270h14l-260 270l242 190h-16z" />
    <glyph glyph-name="l" unicode="l" horiz-adv-x="180" 
d="M85 780v-780h10v780h-10z" />
    <glyph glyph-name="m" unicode="m" horiz-adv-x="690" 
d="M605 320q0 45 -12.5 78.5t-37.5 52.5t-63 19q-46 0 -86.5 -37.5t-55.5 -97.5q-3 61 -31.5 98t-81.5 37q-47 0 -87.5 -39t-54.5 -102v131h-10v-460h10v280q0 48 21 89t53.5 66t67.5 25q53 0 78 -39.5t25 -100.5v-320h10v280q0 48 20.5 89t53.5 66t68 25q53 0 78 -39.5
t25 -100.5v-320h10v320z" />
    <glyph glyph-name="n" unicode="n" 
d="M380 320v-320h10v320q0 67 -31 108.5t-102 41.5q-60 0 -104 -39.5t-58 -102.5v132h-10v-460h10v280q0 48 21.5 89t58.5 66t82 25q68 0 95.5 -39.5t27.5 -100.5z" />
    <glyph glyph-name="o" unicode="o" horiz-adv-x="556" 
d="M45 230q0 -69 31 -123.5t83.5 -85.5t118.5 -31t119 31t83.5 85.5t30.5 123.5q0 70 -30.5 124t-83.5 85t-119 31t-118.5 -31t-83.5 -85t-31 -124zM55 230q0 67 29.5 119t80.5 81.5t114 29.5q62 0 112.5 -29.5t80 -81.5t29.5 -119t-29.5 -119t-80 -81.5t-112.5 -29.5
q-63 0 -114 29.5t-80.5 81.5t-29.5 119z" />
    <glyph glyph-name="p" unicode="p" horiz-adv-x="541" 
d="M90 -220v680h-10v-680h10zM496 230q0 74 -28 127.5t-76.5 83t-108.5 29.5q-61 0 -105.5 -35t-68.5 -90t-24 -115q0 -59 24 -114.5t68.5 -90.5t105.5 -35q60 0 108.5 29.5t76.5 83.5t28 127zM486 230q0 -70 -27.5 -122t-74 -80t-104.5 -28q-54 0 -97 33.5t-68 86
t-25 110.5t25 110.5t68 86t97 33.5q58 0 104.5 -28t74 -79.5t27.5 -122.5z" />
    <glyph glyph-name="q" unicode="q" horiz-adv-x="541" 
d="M451 -220h10v680h-10v-680zM45 230q0 -73 28 -127t76.5 -83.5t108.5 -29.5q62 0 106 35t68 90.5t24 114.5q0 60 -24 115t-68 90t-106 35q-60 0 -108.5 -29.5t-76.5 -83t-28 -127.5zM55 230q0 71 27.5 122.5t74 79.5t104.5 28q55 0 97.5 -33.5t67.5 -86t25 -110.5
t-25 -110.5t-67.5 -86t-97.5 -33.5q-58 0 -104.5 28t-74 80t-27.5 122z" />
    <glyph glyph-name="r" unicode="r" horiz-adv-x="290" 
d="M95 460h-10v-460h10v460zM269 440l6 8q-13 9 -29.5 15.5t-33.5 6.5q-42 0 -69 -25t-40 -67.5t-13 -97.5h5q0 48 12.5 89t38.5 66t66 25q15 0 29.5 -5.5t27.5 -14.5z" />
    <glyph glyph-name="s" unicode="s" horiz-adv-x="403" 
d="M54 116l-10 -1q4 -32 20.5 -60.5t49.5 -46.5t84 -18q59 0 96.5 34t37.5 93q0 36 -18.5 60t-48 39t-62.5 24q-35 10 -63.5 21.5t-45.5 34t-17 63.5q0 49 32 74t78 25q61 0 91 -28.5t43 -64.5l10 3q-9 26 -26.5 48.5t-46 37t-71.5 14.5q-33 0 -60 -12.5t-43.5 -36.5
t-16.5 -60q0 -43 17.5 -67t47 -37t65.5 -24q34 -10 62.5 -24t45.5 -35.5t17 -54.5q0 -56 -35 -86.5t-89 -30.5q-47 0 -77.5 16.5t-46.5 43t-20 56.5z" />
    <glyph glyph-name="t" unicode="t" horiz-adv-x="190" 
d="M15 460v-10h160v10h-160zM90 620v-620h10v620h-10z" />
    <glyph glyph-name="u" unicode="u" 
d="M95 150v310h-10v-310q0 -74 31 -117t102 -43q60 0 104.5 39.5t57.5 102.5v-132h10v460h-10v-280q0 -47 -21.5 -88t-58 -66t-82.5 -25q-67 0 -95 40.5t-28 108.5z" />
    <glyph glyph-name="v" unicode="v" horiz-adv-x="420" 
d="M10 460l200 -475l200 475h-12l-188 -450l-188 450h-12z" />
    <glyph glyph-name="w" unicode="w" horiz-adv-x="620" 
d="M15 460l147 -475l143 456l153 -456l147 475h-10l-137 -442l-153 457l-143 -457l-137 442h-10z" />
    <glyph glyph-name="x" unicode="x" horiz-adv-x="380" 
d="M345 460l-155 -215l-155 215h-15l163 -223l-173 -237h15l165 229l165 -229h15l-173 237l162 223h-14z" />
    <glyph glyph-name="y" unicode="y" horiz-adv-x="425" 
d="M415 460h-11l-194 -440h11l-199 440h-12l200 -440l-106 -240h11z" />
    <glyph glyph-name="z" unicode="z" horiz-adv-x="430" 
d="M379 450l-359 -450h390v10h-369l359 450h-360v-10h339z" />
    <glyph glyph-name="braceleft" unicode="{" horiz-adv-x="281" 
d="M148 640q0 72 17 101t66 29h20v10h-20q-37 0 -57 -14.5t-28 -45t-8 -80.5v-210q0 -57 -17.5 -92t-40.5 -43v-10q23 -7 40.5 -42.5t17.5 -92.5v-210q0 -49 8 -80t28 -45.5t57 -14.5h20v10h-20q-49 0 -66 29t-17 101v210q0 33 -6.5 59.5t-16.5 45t-22 28t-23 9.5v-4
q11 0 23 9.5t22 28t16.5 45t6.5 59.5v210z" />
    <glyph glyph-name="bar" unicode="|" horiz-adv-x="210" 
d="M100 785v-1000h10v1000h-10z" />
    <glyph glyph-name="braceright" unicode="}" horiz-adv-x="281" 
d="M133 -60q0 -72 -17 -101t-66 -29h-20v-10h20q37 0 57 14.5t28 45.5t8 80v210q0 57 18 92.5t40 42.5v10q-22 8 -40 43t-18 92v210q0 50 -8 80.5t-28 45t-57 14.5h-20v-10h20q49 0 66 -29t17 -101v-210q0 -33 6.5 -59.5t16.5 -45t22 -28t23 -9.5v4q-11 0 -23 -9.5t-22 -28
t-16.5 -45t-6.5 -59.5v-210z" />
    <glyph glyph-name="asciitilde" unicode="~" horiz-adv-x="575" 
d="M88 178q-2 6 -3 11.5t-1 10.5q0 51 26.5 84t73.5 33q28 0 48 -12.5t35 -30l27 -31.5q21 -24 45.5 -47.5t64.5 -23.5q25 0 43.5 9.5t30.5 25.5t17 37.5t5 45.5q0 8 -1 15t-3 13l-10 3q3 -7 4 -16t1 -15q0 -46 -21.5 -77t-65.5 -31q-36 0 -60 23t-42 45q-13 16 -29.5 34
t-37.5 30.5t-51 12.5q-27 0 -48 -10t-35 -27q-13 -16 -19.5 -38t-6.5 -47q0 -13 3 -24z" />
    <glyph glyph-name="uni00A0" unicode="&#xa0;" horiz-adv-x="300" 
 />
    <glyph glyph-name="exclamdown" unicode="&#xa1;" horiz-adv-x="300" 
d="M176 -245l-4 500h-6l-4 -500h14zM180 454q0 5 -3 8t-8 3q-4 0 -7.5 -3t-3.5 -8t3.5 -8t7.5 -3q5 0 8 3t3 8z" />
    <glyph glyph-name="cent" unicode="&#xa2;" horiz-adv-x="580" 
d="M316 -4l-5 -108h14l-5 108h-4zM96 230q0 66 29.5 118t80 82t113.5 30q56 0 97.5 -21t57.5 -40v13q-16 18 -58 38t-97 20q-66 0 -118.5 -31t-83.5 -85t-31 -124q0 -69 31 -123.5t83.5 -85.5t118.5 -31q55 0 97 19.5t58 38.5v13q-16 -19 -57.5 -40t-97.5 -21
q-63 0 -113.5 30t-80 82.5t-29.5 117.5zM311 578l5 -115h4l5 115h-14z" />
    <glyph glyph-name="sterling" unicode="&#xa3;" horiz-adv-x="580" 
d="M87 305v-10h310v10h-310zM481 498h10q-2 30 -11.5 66.5t-30.5 69.5t-54.5 54.5t-83.5 21.5q-54 0 -93.5 -24.5t-60.5 -63.5t-21 -84q0 -38 12.5 -67.5t30.5 -54t36 -48t30.5 -48.5t12.5 -56q0 -44 -24.5 -85t-62.5 -84.5t-77 -94.5h403v10h-393l4 -10q9 18 34.5 46
t54.5 63.5t50 75t21 79.5q0 32 -12.5 58t-30.5 49.5t-36 48t-30.5 53t-12.5 65.5q0 41 20 78t57 60.5t88 23.5q45 0 77 -20t52 -51.5t30 -66t11 -64.5z" />
    <glyph glyph-name="currency" unicode="&#xa4;" horiz-adv-x="560" 
d="M57 523l64 -63l9 9l-63 64zM67 67l63 64l-9 9l-64 -63zM449 460l63 63l-9 10l-64 -64zM439 131l64 -64l9 10l-63 63zM52 300q0 -69 31 -123.5t83 -85.5t114 -31q63 0 114.5 31t82.5 85.5t31 123.5q0 70 -31 124t-82.5 85t-114.5 31q-62 0 -114 -31t-83 -85t-31 -124z
M62 300q0 66 29.5 118t79 82t109.5 30t109.5 -30t79 -82t29.5 -118t-29.5 -118t-79 -82t-109.5 -30t-109.5 30t-79 82t-29.5 118z" />
    <glyph glyph-name="yen" unicode="&#xa5;" horiz-adv-x="565" 
d="M30 270h477v10h-477v-10zM30 145h477v10h-477v-10zM494 700l-230 -419l-221 419h-13l228 -433v-267h11v265l238 435h-13z" />
    <glyph glyph-name="brokenbar" unicode="&#xa6;" horiz-adv-x="210" 
d="M100 695v-240h10v240h-10zM110 245h-10v-240h10v240z" />
    <glyph glyph-name="section" unicode="&#xa7;" horiz-adv-x="398" 
d="M357 616l7 4q-9 26 -33.5 46t-57.5 32t-70 12t-70 -12t-53.5 -36.5t-20.5 -62.5q0 -29 15.5 -48.5t39.5 -33t51 -23.5t51 -19q27 -10 60 -25.5t57.5 -37.5t24.5 -52q0 -35 -19.5 -59t-54 -38.5t-79.5 -22.5v0q37 0 67 7.5t51.5 22.5t33 37.5t11.5 52.5q0 34 -22.5 56
t-56 38t-66.5 29q-19 8 -45 17.5t-51 22.5t-41.5 31.5t-16.5 44.5q0 36 21 58t52 32.5t61 10.5q32 0 63.5 -11t56 -29.5t34.5 -43.5zM38 127l-8 -4q7 -37 35 -67.5t68 -48t82 -17.5q30 0 57 6t49 19.5t34.5 34t12.5 50.5q0 44 -24.5 70t-59.5 42t-68 29q-19 8 -44 18.5
t-48.5 24.5t-39 32.5t-15.5 42.5q0 26 17.5 52t52 45t84.5 24v0q-43 0 -74 -11t-51 -28.5t-29.5 -39t-9.5 -42.5q0 -33 24.5 -56.5t59.5 -39.5t66 -30q32 -13 66.5 -28.5t58.5 -40t24 -64.5t-23.5 -61.5t-56.5 -30t-63 -8.5q-43 0 -81 18t-63.5 47t-32.5 62z" />
    <glyph glyph-name="dieresis" unicode="&#xa8;" horiz-adv-x="422" 
d="M300 689q0 -5 3.5 -8t7.5 -3q5 0 8 3t3 8t-3 8t-8 3q-4 0 -7.5 -3t-3.5 -8zM100 689q0 -5 3.5 -8t7.5 -3q5 0 8 3t3 8t-3 8t-8 3q-4 0 -7.5 -3t-3.5 -8z" />
    <glyph glyph-name="copyright" unicode="&#xa9;" horiz-adv-x="800" 
d="M198 350q0 61 24.5 108t67.5 73.5t99 26.5q42 0 76 -12t59 -38v9q-26 23 -57.5 35.5t-77.5 12.5q-58 0 -102.5 -27.5t-70 -76t-25.5 -111.5q0 -62 25.5 -111t70 -76.5t102.5 -27.5q46 0 77.5 12.5t57.5 35.5v10q-26 -25 -58.5 -38t-76.5 -13q-56 0 -99 27t-67.5 74
t-24.5 107zM50 350q0 76 27 140t75.5 111t112 73t135.5 26t135.5 -26t112 -73t75.5 -111t27 -140t-27 -140t-75.5 -111t-112 -73t-135.5 -26t-135.5 26t-112 73t-75.5 111t-27 140zM40 350q0 -78 27.5 -144t76 -114.5t114.5 -75t142 -26.5q77 0 142.5 26.5t114 75t76 114.5
t27.5 144t-27.5 144t-76 114.5t-114 75t-142.5 26.5q-76 0 -142 -26.5t-114.5 -75t-76 -114.5t-27.5 -144z" />
    <glyph glyph-name="ordfeminine" unicode="&#xaa;" horiz-adv-x="238" 
d="M30 528q0 35 27.5 51.5t58.5 16.5q26 0 42.5 -8t25.5 -16v6q-7 7 -23 14.5t-45 7.5q-34 0 -62 -18t-28 -54q0 -39 24 -56t52 -17q38 0 61 26t23 59h-3q0 -32 -23.5 -56t-57.5 -24q-26 0 -49 15.5t-23 52.5zM48 662q14 14 31.5 23.5t42.5 9.5q32 0 46.5 -19t14.5 -51v-165
h5v165q0 33 -16 54t-50 21q-27 0 -46.5 -11t-31.5 -23z" />
    <glyph glyph-name="guillemotleft" unicode="&#xab;" horiz-adv-x="485" 
d="M210 255l205 228l-7 7l-208 -235l208 -235l7 7zM50 255l205 228l-7 7l-208 -235l208 -235l7 7z" />
    <glyph glyph-name="logicalnot" unicode="&#xac;" horiz-adv-x="620" 
d="M65 365h480v-190h10v200h-490v-10z" />
    <glyph glyph-name="uni00AD" unicode="&#xad;" horiz-adv-x="210" 
d="M5 265h200v10h-200v-10z" />
    <glyph glyph-name="registered" unicode="&#xae;" horiz-adv-x="800" 
d="M365 340l132 -190h9l-133 190h-8zM300 570v-420h7v420h-7zM301 563h68q59 0 97 -26.5t38 -82.5q0 -55 -38 -82.5t-97 -27.5h-68v-6h68q61 0 101.5 29t40.5 87t-40.5 87t-101.5 29h-68v-7zM50 350q0 76 27 140t75.5 111t112 73t135.5 26t135.5 -26t112 -73t75.5 -111
t27 -140t-27 -140t-75.5 -111t-112 -73t-135.5 -26t-135.5 26t-112 73t-75.5 111t-27 140zM40 350q0 -78 27.5 -144t76 -114.5t114.5 -75t142 -26.5q77 0 142.5 26.5t114 75t76 114.5t27.5 144t-27.5 144t-76 114.5t-114 75t-142.5 26.5q-76 0 -142 -26.5t-114.5 -75
t-76 -114.5t-27.5 -144z" />
    <glyph glyph-name="macron" unicode="&#xaf;" horiz-adv-x="510" 
d="M80 665h350v10h-350v-10z" />
    <glyph glyph-name="degree" unicode="&#xb0;" horiz-adv-x="278" 
d="M20 600q0 -52 34 -86t85 -34t85 34t34 86q0 53 -34 86.5t-85 33.5t-85 -33.5t-34 -86.5zM30 600q0 49 32 79.5t77 30.5t77 -30.5t32 -79.5t-32 -79.5t-77 -30.5t-77 30.5t-32 79.5z" />
    <glyph glyph-name="plusminus" unicode="&#xb1;" horiz-adv-x="610" 
d="M65 0h480v10h-480v-10zM65 380h480v10h-480v-10zM300 620v-470h10v470h-10z" />
    <glyph glyph-name="uni00B2" unicode="&#xb2;" horiz-adv-x="332" 
d="M30 282h272v6h-257l182 191q23 23 40.5 50.5t17.5 64.5q0 25 -11.5 51.5t-36.5 45t-65 18.5q-37 0 -65 -19t-43.5 -53t-15.5 -79h6q0 64 32 104.5t86 40.5q39 0 62.5 -17.5t34 -42.5t10.5 -49q0 -37 -17.5 -62.5t-39.5 -48.5z" />
    <glyph glyph-name="uni00B3" unicode="&#xb3;" horiz-adv-x="308" 
d="M140 497q32 0 62 12t49.5 35.5t19.5 55.5q0 40 -28 73t-82 33q-52 0 -82.5 -30.5t-30.5 -79.5h6q0 46 29 75t78 29q50 0 77 -31t27 -69q0 -31 -20 -53t-49 -33.5t-56 -11.5v-5zM158 274q56 0 90.5 31t34.5 80q0 39 -22.5 64.5t-55.5 38.5t-65 13v-5q27 0 59 -12t55 -36.5
t23 -62.5q0 -46 -32.5 -75.5t-86.5 -29.5q-58 0 -90 31.5t-32 79.5h-6q0 -32 15 -59t44 -42.5t69 -15.5z" />
    <glyph glyph-name="acute" unicode="&#xb4;" horiz-adv-x="353" 
d="M253 692l-8 8l-170 -160l5 -5z" />
    <glyph glyph-name="mu" unicode="&#xb5;" 
d="M95 460h-10v-780h10v394q13 -40 42.5 -62t80.5 -22q60 0 104.5 39.5t57.5 102.5v-132h10v460h-10v-280q0 -47 -21.5 -88.5t-58 -66.5t-82.5 -25q-67 0 -95 41t-28 109v310z" />
    <glyph glyph-name="paragraph" unicode="&#xb6;" horiz-adv-x="448" 
d="M288 270v-490h10v910h80v-910h10v920h-100q-62 0 -114 -25t-83 -72.5t-31 -117.5q0 -69 31 -117t83 -73t114 -25z" />
    <glyph glyph-name="periodcentered" unicode="&#xb7;" horiz-adv-x="242" 
d="M110 221q0 -5 3.5 -8t7.5 -3q5 0 8 3t3 8t-3 8t-8 3q-4 0 -7.5 -3t-3.5 -8z" />
    <glyph glyph-name="cedilla" unicode="&#xb8;" horiz-adv-x="350" 
d="M176 0l-55 -88q17 12 38 19t43 7t42.5 -15.5t20.5 -48.5q0 -42 -31 -63t-66 -21q-25 0 -43 8t-39 26l-7 -6q21 -21 41 -29.5t48 -8.5t52 11t39.5 32t15.5 51q0 25 -11.5 41t-28 24.5t-33.5 8.5q-25 0 -37.5 -6t-32.5 -18l56 76h-12z" />
    <glyph glyph-name="uni00B9" unicode="&#xb9;" horiz-adv-x="470" 
d="M143 666l102 23v-415h6v423l-108 -24v-7z" />
    <glyph glyph-name="ordmasculine" unicode="&#xba;" horiz-adv-x="278" 
d="M20 580q0 -52 34 -86t85 -34t85 34t34 86q0 53 -34 86.5t-85 33.5t-85 -33.5t-34 -86.5zM30 580q0 49 32 79.5t77 30.5t77 -30.5t32 -79.5t-32 -79.5t-77 -30.5t-77 30.5t-32 79.5z" />
    <glyph glyph-name="guillemotright" unicode="&#xbb;" horiz-adv-x="485" 
d="M275 255l-205 -228l7 -7l208 235l-208 235l-7 -7zM435 255l-205 -228l7 -7l208 235l-208 235l-7 -7z" />
    <glyph glyph-name="onequarter" unicode="&#xbc;" horiz-adv-x="754" 
d="M671 700l-573 -700h12l573 700h-12zM21 666l102 23v-415h6v423l-108 -24v-7zM401 84h296v6h-68h-2h-220zM408 84l217 316v-312v-3v-85h6v420v0l-230 -336h7z" />
    <glyph glyph-name="onehalf" unicode="&#xbd;" horiz-adv-x="819" 
d="M671 700l-573 -700h12l573 700h-12zM21 666l102 23v-415h6v423l-108 -24v-7zM496 2h272v6h-257l182 191q23 23 41 50t18 64q0 25 -12 52t-37 45.5t-65 18.5q-37 0 -65 -19t-43.5 -53t-15.5 -79h6q0 64 32 104.5t86 40.5q39 0 62.5 -17.5t34 -43t10.5 -49.5
q0 -37 -17.5 -62.5t-39.5 -48.5z" />
    <glyph glyph-name="threequarters" unicode="&#xbe;" horiz-adv-x="820" 
d="M738 700l-573 -700h12l573 700h-12zM145 497q32 0 62 12t49.5 35.5t19.5 55.5q0 40 -28 73t-82 33q-52 0 -82.5 -30.5t-30.5 -79.5h6q0 46 29 75t78 29q50 0 77 -31t27 -69q0 -31 -20 -53t-49 -33.5t-56 -11.5v-5zM163 274q56 0 90.5 31t34.5 80q0 39 -22.5 64.5
t-55.5 38.5t-65 13v-5q27 0 59 -12t55 -36.5t23 -62.5q0 -46 -32.5 -75.5t-86.5 -29.5q-58 0 -90 31.5t-32 79.5h-6q0 -32 15 -59t44 -42.5t69 -15.5zM468 84h296v6h-68h-2h-220zM475 84l217 316v-312v-3v-85h6v420v0l-230 -336h7z" />
    <glyph glyph-name="questiondown" unicode="&#xbf;" horiz-adv-x="542" 
d="M90 180q0 48 30.5 88t82.5 63.5t117 23.5v0l-5 175h-8l1 -167q-64 -1 -115.5 -26t-82 -66.5t-30.5 -90.5q0 -41 13.5 -75.5t39 -60.5t62 -40t83.5 -14q50 0 86 14.5t63 41t50 61.5l-9 6q-33 -52 -77 -82.5t-113 -30.5q-60 0 -102 24t-64 65t-22 91zM328 699q0 5 -3 8
t-8 3q-4 0 -7.5 -3t-3.5 -8t3.5 -8t7.5 -3q5 0 8 3t3 8z" />
    <glyph glyph-name="Agrave" unicode="&#xc0;" horiz-adv-x="600" 
d="M127 272h345v10h-345v-10zM300 688l165 -412l1 -3l107 -273h12l-285 715l-285 -715h12l108 273l1 4zM164 932l174 -157l4 5l-170 160z" />
    <glyph glyph-name="Aacute" unicode="&#xc1;" horiz-adv-x="600" 
d="M127 272h345v10h-345v-10zM300 688l165 -412l1 -3l107 -273h12l-285 715l-285 -715h12l108 273l1 4zM436 932l-8 8l-170 -160l4 -5z" />
    <glyph glyph-name="Acircumflex" unicode="&#xc2;" horiz-adv-x="600" 
d="M127 272h345v10h-345v-10zM300 688l165 -412l1 -3l107 -273h12l-285 715l-285 -715h12l108 273l1 4zM300 910l153 -135l7 7l-160 140l-160 -140l7 -7z" />
    <glyph glyph-name="Atilde" unicode="&#xc3;" horiz-adv-x="600" 
d="M127 272h345v10h-345v-10zM300 688l165 -412l1 -3l107 -273h12l-285 715l-285 -715h12l108 273l1 4zM174 796l10 -1q0 13 5 24.5t17 19t32 7.5q23 0 40 -11.5t36 -23.5t46 -12q15 0 27 5.5t21.5 17.5t17.5 30l-10 3q-11 -24 -22.5 -36t-33.5 -12q-20 0 -34.5 7t-27 16.5
t-27 16.5t-35.5 7q-22 0 -36 -8.5t-20 -21.5t-6 -28z" />
    <glyph glyph-name="Adieresis" unicode="&#xc4;" horiz-adv-x="600" 
d="M127 272h345v10h-345v-10zM300 688l165 -412l1 -3l107 -273h12l-285 715l-285 -715h12l108 273l1 4zM389 806q0 -5 3.5 -8t7.5 -3q5 0 8 3t3 8t-3 8t-8 3q-4 0 -7.5 -3t-3.5 -8zM189 806q0 -5 3.5 -8t7.5 -3q5 0 8 3t3 8t-3 8t-8 3q-4 0 -7.5 -3t-3.5 -8z" />
    <glyph glyph-name="Aring" unicode="&#xc5;" horiz-adv-x="600" 
d="M127 272h345v10h-345v-10zM300 688l165 -412l1 -3l107 -273h12l-285 715l-285 -715h12l108 273l1 4zM198 808q0 -45 31.5 -72.5t70.5 -27.5t70.5 27.5t31.5 72.5t-31.5 72.5t-70.5 27.5t-70.5 -27.5t-31.5 -72.5zM208 808q0 40 28 65t64 25t64 -25t28 -65t-28 -65
t-64 -25t-64 25t-28 65z" />
    <glyph glyph-name="AE" unicode="&#xc6;" horiz-adv-x="896" 
d="M207 280h290v10h-290v-10zM485 700l-480 -700h13l480 700h-13zM497 0h319v10h-319v-10zM500 690h316v10h-331zM497 384h299v10h-299v-10zM490 700v-700h11v700h-11z" />
    <glyph glyph-name="Ccedilla" unicode="&#xc7;" horiz-adv-x="685" 
d="M62 350q0 102 41 180t112.5 122t164.5 44q47 0 87.5 -9t75 -27.5t62.5 -46.5v15q-44 39 -96 59.5t-129 20.5q-73 0 -133.5 -26.5t-104.5 -74.5t-68 -113.5t-24 -143.5t24 -143.5t68 -113.5t104.5 -74.5t133.5 -26.5q77 0 129 20.5t96 59.5v16q-29 -28 -62 -47t-73 -28
t-90 -9q-93 0 -165 45t-112.5 123t-40.5 178zM374 -1l-55 -88q17 12 38 19t43 7t42.5 -15.5t20.5 -48.5q0 -42 -31 -63t-66 -21q-25 0 -43 8t-39 26l-7 -6q21 -21 41 -29.5t48 -8.5t52 11t39.5 32t15.5 51q0 25 -11.5 41t-28 24.5t-33.5 8.5q-25 0 -37.5 -6t-32.5 -18l56 76
h-12z" />
    <glyph glyph-name="Egrave" unicode="&#xc8;" horiz-adv-x="510" 
d="M92 0h338v10h-338v-10zM92 690h338v10h-338v-10zM92 384h318v10h-318v-10zM90 700v-700h11v700h-11zM104 925l174 -157l4 5l-170 160z" />
    <glyph glyph-name="Eacute" unicode="&#xc9;" horiz-adv-x="510" 
d="M92 0h338v10h-338v-10zM92 690h338v10h-338v-10zM92 384h318v10h-318v-10zM90 700v-700h11v700h-11zM416 925l-8 8l-170 -160l4 -5z" />
    <glyph glyph-name="Ecircumflex" unicode="&#xca;" horiz-adv-x="510" 
d="M92 0h338v10h-338v-10zM92 690h338v10h-338v-10zM92 384h318v10h-318v-10zM90 700v-700h11v700h-11zM260 903l153 -135l7 7l-160 140l-160 -140l7 -7z" />
    <glyph glyph-name="Edieresis" unicode="&#xcb;" horiz-adv-x="510" 
d="M92 0h338v10h-338v-10zM92 690h338v10h-338v-10zM92 384h318v10h-318v-10zM90 700v-700h11v700h-11zM349 799q0 -5 3.5 -8t7.5 -3q5 0 8 3t3 8t-3 8t-8 3q-4 0 -7.5 -3t-3.5 -8zM149 799q0 -5 3.5 -8t7.5 -3q5 0 8 3t3 8t-3 8t-8 3q-4 0 -7.5 -3t-3.5 -8z" />
    <glyph glyph-name="Igrave" unicode="&#xcc;" horiz-adv-x="180" 
d="M85 700v-700h10v700h-10zM-66 925l174 -157l4 5l-170 160z" />
    <glyph glyph-name="Iacute" unicode="&#xcd;" horiz-adv-x="180" 
d="M85 700v-700h10v700h-10zM246 925l-8 8l-170 -160l4 -5z" />
    <glyph glyph-name="Icircumflex" unicode="&#xce;" horiz-adv-x="180" 
d="M85 700v-700h10v700h-10zM90 903l153 -135l7 7l-160 140l-160 -140l7 -7z" />
    <glyph glyph-name="Idieresis" unicode="&#xcf;" horiz-adv-x="180" 
d="M85 700v-700h10v700h-10zM149 799q0 -5 3.5 -8t7.5 -3q5 0 8 3t3 8t-3 8t-8 3q-4 0 -7.5 -3t-3.5 -8zM9 799q0 -5 3.5 -8t7.5 -3q5 0 8 3t3 8t-3 8t-8 3q-4 0 -7.5 -3t-3.5 -8z" />
    <glyph glyph-name="Eth" unicode="&#xd0;" horiz-adv-x="680" 
d="M5 345h300v10h-300v-10zM90 700v-700h11v700h-11zM250 0q102 0 177.5 44t116.5 122.5t41 183.5t-41 183.5t-116.5 122.5t-177.5 44h-155v-11h155q74 0 134 -24t102.5 -69t65 -107.5t22.5 -138.5t-22.5 -138.5t-65 -107.5t-102.5 -69t-134 -24h-155v-11h155z" />
    <glyph glyph-name="Ntilde" unicode="&#xd1;" horiz-adv-x="665" 
d="M584 700v-683l-534 698v-715h11v678l534 -693v715h-11zM205 756l9 -1q0 13 5 24.5t17.5 19t32.5 7.5q23 0 39.5 -11.5t35.5 -23.5t46 -12q15 0 27 5.5t21.5 17.5t17.5 30l-9 3q-11 -24 -22.5 -36t-33.5 -12q-20 0 -34.5 7t-27 16.5t-27 16.5t-35.5 7q-22 0 -36 -8.5
t-20 -21.5t-6 -28z" />
    <glyph glyph-name="Ograve" unicode="&#xd2;" horiz-adv-x="774" 
d="M61 350q0 101 41.5 179t115.5 123t169 45q96 0 169.5 -45t115 -123t41.5 -179q0 -100 -41.5 -178.5t-115 -123.5t-169.5 -45q-95 0 -169 45t-115.5 123.5t-41.5 178.5zM50 350q0 -78 25 -143.5t70.5 -113.5t107 -74.5t134.5 -26.5t134.5 26.5t107 74.5t70.5 113.5
t25 143.5t-25 143.5t-70.5 113.5t-107 74.5t-134.5 26.5t-134.5 -26.5t-107 -74.5t-70.5 -113.5t-25 -143.5zM252 925l172 -157l6 5l-170 160z" />
    <glyph glyph-name="Oacute" unicode="&#xd3;" horiz-adv-x="774" 
d="M61 350q0 101 41.5 179t115.5 123t169 45q96 0 169.5 -45t115 -123t41.5 -179q0 -100 -41.5 -178.5t-115 -123.5t-169.5 -45q-95 0 -169 45t-115.5 123.5t-41.5 178.5zM50 350q0 -78 25 -143.5t70.5 -113.5t107 -74.5t134.5 -26.5t134.5 26.5t107 74.5t70.5 113.5
t25 143.5t-25 143.5t-70.5 113.5t-107 74.5t-134.5 26.5t-134.5 -26.5t-107 -74.5t-70.5 -113.5t-25 -143.5zM522 925l-8 8l-170 -160l6 -5z" />
    <glyph glyph-name="Ocircumflex" unicode="&#xd4;" horiz-adv-x="774" 
d="M61 350q0 101 41.5 179t115.5 123t169 45q96 0 169.5 -45t115 -123t41.5 -179q0 -100 -41.5 -178.5t-115 -123.5t-169.5 -45q-95 0 -169 45t-115.5 123.5t-41.5 178.5zM50 350q0 -78 25 -143.5t70.5 -113.5t107 -74.5t134.5 -26.5t134.5 26.5t107 74.5t70.5 113.5
t25 143.5t-25 143.5t-70.5 113.5t-107 74.5t-134.5 26.5t-134.5 -26.5t-107 -74.5t-70.5 -113.5t-25 -143.5zM387 903l153 -135l7 7l-160 140l-160 -140l7 -7z" />
    <glyph glyph-name="Otilde" unicode="&#xd5;" horiz-adv-x="774" 
d="M61 350q0 101 41.5 179t115.5 123t169 45q96 0 169.5 -45t115 -123t41.5 -179q0 -100 -41.5 -178.5t-115 -123.5t-169.5 -45q-95 0 -169 45t-115.5 123.5t-41.5 178.5zM50 350q0 -78 25 -143.5t70.5 -113.5t107 -74.5t134.5 -26.5t134.5 26.5t107 74.5t70.5 113.5
t25 143.5t-25 143.5t-70.5 113.5t-107 74.5t-134.5 26.5t-134.5 -26.5t-107 -74.5t-70.5 -113.5t-25 -143.5zM262 789l8 -1q0 13 5.5 24.5t18 19t32.5 7.5q23 0 39.5 -11.5t35 -23.5t45.5 -12q15 0 27 5.5t21.5 17.5t17.5 30l-8 3q-11 -24 -22.5 -36t-33.5 -12
q-20 0 -34.5 7t-27 16.5t-27 16.5t-35.5 7q-22 0 -36 -8.5t-20 -21.5t-6 -28z" />
    <glyph glyph-name="Odieresis" unicode="&#xd6;" horiz-adv-x="774" 
d="M61 350q0 101 41.5 179t115.5 123t169 45q96 0 169.5 -45t115 -123t41.5 -179q0 -100 -41.5 -178.5t-115 -123.5t-169.5 -45q-95 0 -169 45t-115.5 123.5t-41.5 178.5zM50 350q0 -78 25 -143.5t70.5 -113.5t107 -74.5t134.5 -26.5t134.5 26.5t107 74.5t70.5 113.5
t25 143.5t-25 143.5t-70.5 113.5t-107 74.5t-134.5 26.5t-134.5 -26.5t-107 -74.5t-70.5 -113.5t-25 -143.5zM486 809q0 -5 3.5 -8t7.5 -3q5 0 8 3t3 8t-3 8t-8 3q-4 0 -7.5 -3t-3.5 -8zM266 809q0 -5 3.5 -8t7.5 -3q5 0 8 3t3 8t-3 8t-8 3q-4 0 -7.5 -3t-3.5 -8z" />
    <glyph glyph-name="multiply" unicode="&#xd7;" horiz-adv-x="578" 
d="M88 46l201 202l201 -202l7 7l-202 201l203 202l-7 7l-202 -203l-202 203l-7 -7l203 -202l-202 -201z" />
    <glyph glyph-name="Oslash" unicode="&#xd8;" horiz-adv-x="790" 
d="M61 350q0 101 41.5 179t115.5 123t169 45q96 0 169.5 -45t115 -123t41.5 -179q0 -100 -41.5 -178.5t-115 -123.5t-169.5 -45q-95 0 -169 45t-115.5 123.5t-41.5 178.5zM50 350q0 -78 25 -143.5t70.5 -113.5t107 -74.5t134.5 -26.5t134.5 26.5t107 74.5t70.5 113.5
t25 143.5t-25 143.5t-70.5 113.5t-107 74.5t-134.5 26.5t-134.5 -26.5t-107 -74.5t-70.5 -113.5t-25 -143.5zM712 733l-648 -760l10 -6l649 760z" />
    <glyph glyph-name="Ugrave" unicode="&#xd9;" horiz-adv-x="576" 
d="M85 700v-480q0 -52 12.5 -94.5t38 -72.5t63.5 -46.5t89 -16.5t89 16.5t63.5 46.5t38 72.5t12.5 94.5v480h-11v-480q0 -102 -51 -160.5t-141 -58.5t-141 58.5t-51 160.5v480h-11zM152 925l174 -157l4 5l-170 160z" />
    <glyph glyph-name="Uacute" unicode="&#xda;" horiz-adv-x="576" 
d="M85 700v-480q0 -52 12.5 -94.5t38 -72.5t63.5 -46.5t89 -16.5t89 16.5t63.5 46.5t38 72.5t12.5 94.5v480h-11v-480q0 -102 -51 -160.5t-141 -58.5t-141 58.5t-51 160.5v480h-11zM424 925l-8 8l-170 -160l4 -5z" />
    <glyph glyph-name="Ucircumflex" unicode="&#xdb;" horiz-adv-x="576" 
d="M85 700v-480q0 -52 12.5 -94.5t38 -72.5t63.5 -46.5t89 -16.5t89 16.5t63.5 46.5t38 72.5t12.5 94.5v480h-11v-480q0 -102 -51 -160.5t-141 -58.5t-141 58.5t-51 160.5v480h-11zM288 903l153 -135l7 7l-160 140l-160 -140l7 -7z" />
    <glyph glyph-name="Udieresis" unicode="&#xdc;" horiz-adv-x="576" 
d="M85 700v-480q0 -52 12.5 -94.5t38 -72.5t63.5 -46.5t89 -16.5t89 16.5t63.5 46.5t38 72.5t12.5 94.5v480h-11v-480q0 -102 -51 -160.5t-141 -58.5t-141 58.5t-51 160.5v480h-11zM367 779q0 -5 3.5 -8t7.5 -3q5 0 8 3t3 8t-3 8t-8 3q-4 0 -7.5 -3t-3.5 -8zM187 779
q0 -5 3.5 -8t7.5 -3q5 0 8 3t3 8t-3 8t-8 3q-4 0 -7.5 -3t-3.5 -8z" />
    <glyph glyph-name="Yacute" unicode="&#xdd;" horiz-adv-x="507" 
d="M409 925l-8 8l-170 -160l5 -5zM479 700l-231 -419l-220 419h-13l228 -434v-266h11v267l238 433h-13z" />
    <glyph glyph-name="Thorn" unicode="&#xde;" horiz-adv-x="520" 
d="M80 700v-700h10v700h-10zM84 550h156q63 0 114.5 -23.5t82 -68.5t30.5 -108q0 -58 -30.5 -103t-82 -71t-114.5 -26h-156v-10h156q68 0 121.5 25.5t85 73t31.5 111.5q0 65 -31.5 112t-85 72.5t-121.5 25.5h-156v-10z" />
    <glyph glyph-name="germandbls" unicode="&#xdf;" horiz-adv-x="530" 
d="M300 -10q42 0 76 15.5t58.5 44t38 67.5t13.5 85q0 50 -15 80.5t-38.5 48.5t-49.5 28t-49.5 17.5t-38.5 18t-15 29.5q0 18 13 34t32.5 32.5t39 37t32.5 47t13 63.5q0 45 -21.5 80.5t-57 55.5t-78.5 20q-51 0 -90 -28.5t-61 -78t-22 -112.5v-575h10v580q0 58 21 104
t57.5 73t84.5 27q41 0 74 -19.5t53 -52.5t20 -74q0 -34 -13 -60t-32.5 -46.5t-39 -37.5t-32.5 -34t-13 -36q0 -22 15 -34t38.5 -20t49.5 -18t49.5 -27t38.5 -46.5t15 -78.5q0 -57 -22 -102t-61.5 -71.5t-92.5 -26.5q-27 0 -57.5 6.5t-57.5 18t-43 27.5l-7 -6
q16 -17 44.5 -29.5t60.5 -19.5t60 -7z" />
    <glyph glyph-name="agrave" unicode="&#xe0;" horiz-adv-x="435" 
d="M50 135q0 46 25.5 76t65 45t80.5 15q51 0 85 -14.5t52 -31.5v10q-10 9 -27.5 20t-44 18.5t-65.5 7.5q-45 0 -86.5 -16.5t-68 -48.5t-26.5 -81q0 -52 22.5 -84t58 -46.5t72.5 -14.5q51 0 88.5 24t58 63t20.5 83h-5q0 -43 -21.5 -79.5t-58.5 -58.5t-82 -22q-35 0 -68 13.5
t-54 43t-21 78.5zM84 395q19 18 40.5 32.5t48.5 23.5t60 9q62 0 92 -37.5t30 -102.5v-320h10v320q0 45 -14 78.5t-43.5 52.5t-74.5 19q-55 0 -93 -22t-63 -45zM98 707l172 -157l6 5l-170 160z" />
    <glyph glyph-name="aacute" unicode="&#xe1;" horiz-adv-x="435" 
d="M50 135q0 46 25.5 76t65 45t80.5 15q51 0 85 -14.5t52 -31.5v10q-10 9 -27.5 20t-44 18.5t-65.5 7.5q-45 0 -86.5 -16.5t-68 -48.5t-26.5 -81q0 -52 22.5 -84t58 -46.5t72.5 -14.5q51 0 88.5 24t58 63t20.5 83h-5q0 -43 -21.5 -79.5t-58.5 -58.5t-82 -22q-35 0 -68 13.5
t-54 43t-21 78.5zM84 395q19 18 40.5 32.5t48.5 23.5t60 9q62 0 92 -37.5t30 -102.5v-320h10v320q0 45 -14 78.5t-43.5 52.5t-74.5 19q-55 0 -93 -22t-63 -45zM348 707l-8 8l-170 -160l6 -5z" />
    <glyph glyph-name="acircumflex" unicode="&#xe2;" horiz-adv-x="435" 
d="M50 135q0 46 25.5 76t65 45t80.5 15q51 0 85 -14.5t52 -31.5v10q-10 9 -27.5 20t-44 18.5t-65.5 7.5q-45 0 -86.5 -16.5t-68 -48.5t-26.5 -81q0 -52 22.5 -84t58 -46.5t72.5 -14.5q51 0 88.5 24t58 63t20.5 83h-5q0 -43 -21.5 -79.5t-58.5 -58.5t-82 -22q-35 0 -68 13.5
t-54 43t-21 78.5zM84 395q19 18 40.5 32.5t48.5 23.5t60 9q62 0 92 -37.5t30 -102.5v-320h10v320q0 45 -14 78.5t-43.5 52.5t-74.5 19q-55 0 -93 -22t-63 -45zM233 675l153 -135l7 7l-160 140l-160 -140l7 -7z" />
    <glyph glyph-name="atilde" unicode="&#xe3;" horiz-adv-x="435" 
d="M50 135q0 46 25.5 76t65 45t80.5 15q51 0 85 -14.5t52 -31.5v10q-10 9 -27.5 20t-44 18.5t-65.5 7.5q-45 0 -86.5 -16.5t-68 -48.5t-26.5 -81q0 -52 22.5 -84t58 -46.5t72.5 -14.5q51 0 88.5 24t58 63t20.5 83h-5q0 -43 -21.5 -79.5t-58.5 -58.5t-82 -22q-35 0 -68 13.5
t-54 43t-21 78.5zM84 395q19 18 40.5 32.5t48.5 23.5t60 9q62 0 92 -37.5t30 -102.5v-320h10v320q0 45 -14 78.5t-43.5 52.5t-74.5 19q-55 0 -93 -22t-63 -45zM98 581l8 -1q0 13 5.5 24.5t18 19t32.5 7.5q23 0 39.5 -11.5t35 -23.5t45.5 -12q15 0 27 5.5t21.5 17.5t17.5 30
l-8 3q-11 -24 -22.5 -36t-33.5 -12q-20 0 -34.5 7t-27 16.5t-27 16.5t-35.5 7q-22 0 -36 -8.5t-20 -21.5t-6 -28z" />
    <glyph glyph-name="adieresis" unicode="&#xe4;" horiz-adv-x="435" 
d="M50 135q0 46 25.5 76t65 45t80.5 15q51 0 85 -14.5t52 -31.5v10q-10 9 -27.5 20t-44 18.5t-65.5 7.5q-45 0 -86.5 -16.5t-68 -48.5t-26.5 -81q0 -52 22.5 -84t58 -46.5t72.5 -14.5q51 0 88.5 24t58 63t20.5 83h-5q0 -43 -21.5 -79.5t-58.5 -58.5t-82 -22q-35 0 -68 13.5
t-54 43t-21 78.5zM84 395q19 18 40.5 32.5t48.5 23.5t60 9q62 0 92 -37.5t30 -102.5v-320h10v320q0 45 -14 78.5t-43.5 52.5t-74.5 19q-55 0 -93 -22t-63 -45zM292 561q0 -5 3.5 -8t7.5 -3q5 0 8 3t3 8t-3 8t-8 3q-4 0 -7.5 -3t-3.5 -8zM132 561q0 -5 3.5 -8t7.5 -3q5 0 8 3
t3 8t-3 8t-8 3q-4 0 -7.5 -3t-3.5 -8z" />
    <glyph glyph-name="aring" unicode="&#xe5;" horiz-adv-x="435" 
d="M50 135q0 46 25.5 76t65 45t80.5 15q51 0 85 -14.5t52 -31.5v10q-10 9 -27.5 20t-44 18.5t-65.5 7.5q-45 0 -86.5 -16.5t-68 -48.5t-26.5 -81q0 -52 22.5 -84t58 -46.5t72.5 -14.5q51 0 88.5 24t58 63t20.5 83h-5q0 -43 -21.5 -79.5t-58.5 -58.5t-82 -22q-35 0 -68 13.5
t-54 43t-21 78.5zM84 395q19 18 40.5 32.5t48.5 23.5t60 9q62 0 92 -37.5t30 -102.5v-320h10v320q0 45 -14 78.5t-43.5 52.5t-74.5 19q-55 0 -93 -22t-63 -45zM131 630q0 -45 31.5 -72.5t70.5 -27.5t70.5 27.5t31.5 72.5t-31.5 72.5t-70.5 27.5t-70.5 -27.5t-31.5 -72.5z
M141 630q0 40 28 65t64 25t64 -25t28 -65t-28 -65t-64 -25t-64 25t-28 65z" />
    <glyph glyph-name="ae" unicode="&#xe6;" horiz-adv-x="825" 
d="M194 -10q72 0 117.5 49.5t54.5 138.5h-5q13 -90 65.5 -139t136.5 -49q68 0 125 31t91 86l-8 6q-35 -54 -90 -83.5t-118 -29.5q-60 0 -104.5 28.5t-68.5 80t-24 121.5l-5 -2h423q2 10 2.5 14t0.5 11q0 61 -27 110t-73.5 78t-103.5 29q-54 0 -101.5 -24.5t-79.5 -66.5
t-42 -97h4q5 95 -26 141.5t-100 46.5q-43 0 -85.5 -17.5t-75.5 -49.5l7 -8q21 21 46 35.5t51.5 22t53.5 7.5q59 0 89.5 -36t30.5 -104v-87l5 1q-21 22 -56.5 34.5t-78.5 12.5q-55 0 -97 -18.5t-65 -52t-23 -78.5q0 -61 43.5 -101.5t110.5 -40.5zM194 0q-62 0 -103 37.5
t-41 94.5q0 62 48.5 100.5t126.5 38.5q42 0 77.5 -12.5t55.5 -34.5l-3 6l4 -51l1 19q-7 -94 -51 -146t-115 -52zM365 236q0 62 29 113t77.5 81t107.5 30q55 0 99.5 -28t71 -75t26.5 -105v-10.5t-2 -7.5l7 4h-420z" />
    <glyph glyph-name="ccedilla" unicode="&#xe7;" horiz-adv-x="488" 
d="M50 230q0 67 29.5 119t80.5 81.5t113 29.5q37 0 68.5 -10.5t54 -24.5t32.5 -26v13q-16 18 -58 38t-97 20q-66 0 -118.5 -31t-83.5 -85t-31 -124q0 -69 31 -123.5t83.5 -85.5t118.5 -31q55 0 97 19.5t58 38.5v13q-10 -12 -32.5 -26t-54 -24.5t-68.5 -10.5q-62 0 -113 29.5
t-80.5 81.5t-29.5 119zM267 -3l-55 -88q17 12 38 19t43 7t42.5 -15.5t20.5 -48.5q0 -42 -31 -63t-66 -21q-25 0 -43 8t-39 26l-7 -6q21 -21 41 -29.5t48 -8.5t52 11t39.5 32t15.5 51q0 25 -11.5 41t-28 24.5t-33.5 8.5q-25 0 -37.5 -6t-32.5 -18l56 76h-12z" />
    <glyph glyph-name="egrave" unicode="&#xe8;" horiz-adv-x="502" 
d="M52 228h403q1 6 1.5 13t0.5 13q0 63 -28.5 111.5t-74.5 76.5t-99 28q-49 0 -89.5 -20.5t-68.5 -57t-42 -84.5q-5 -18 -7.5 -37t-2.5 -39q0 -69 27.5 -124t74 -86.5t103.5 -31.5q63 0 101 19.5t60.5 46.5t37.5 51l-8 6q-15 -24 -37 -50.5t-58.5 -44.5t-95.5 -18
q-54 0 -98.5 30.5t-70.5 83t-26 118.5v0q0 72 29 123t74.5 78t96.5 27q52 0 97.5 -29t72 -79t21.5 -114h-394v-10zM110 687l172 -157l6 5l-170 160z" />
    <glyph glyph-name="eacute" unicode="&#xe9;" horiz-adv-x="502" 
d="M52 228h403q1 6 1.5 13t0.5 13q0 63 -28.5 111.5t-74.5 76.5t-99 28q-49 0 -89.5 -20.5t-68.5 -57t-42 -84.5q-5 -18 -7.5 -37t-2.5 -39q0 -69 27.5 -124t74 -86.5t103.5 -31.5q63 0 101 19.5t60.5 46.5t37.5 51l-8 6q-15 -24 -37 -50.5t-58.5 -44.5t-95.5 -18
q-54 0 -98.5 30.5t-70.5 83t-26 118.5v0q0 72 29 123t74.5 78t96.5 27q52 0 97.5 -29t72 -79t21.5 -114h-394v-10zM400 687l-8 8l-170 -160l6 -5z" />
    <glyph glyph-name="ecircumflex" unicode="&#xea;" horiz-adv-x="502" 
d="M52 228h403q1 6 1.5 13t0.5 13q0 63 -28.5 111.5t-74.5 76.5t-99 28q-49 0 -89.5 -20.5t-68.5 -57t-42 -84.5q-5 -18 -7.5 -37t-2.5 -39q0 -69 27.5 -124t74 -86.5t103.5 -31.5q63 0 101 19.5t60.5 46.5t37.5 51l-8 6q-15 -24 -37 -50.5t-58.5 -44.5t-95.5 -18
q-54 0 -98.5 30.5t-70.5 83t-26 118.5v0q0 72 29 123t74.5 78t96.5 27q52 0 97.5 -29t72 -79t21.5 -114h-394v-10zM255 665l153 -135l7 7l-160 140l-160 -140l7 -7z" />
    <glyph glyph-name="edieresis" unicode="&#xeb;" horiz-adv-x="502" 
d="M52 228h403q1 6 1.5 13t0.5 13q0 63 -28.5 111.5t-74.5 76.5t-99 28q-49 0 -89.5 -20.5t-68.5 -57t-42 -84.5q-5 -18 -7.5 -37t-2.5 -39q0 -69 27.5 -124t74 -86.5t103.5 -31.5q63 0 101 19.5t60.5 46.5t37.5 51l-8 6q-15 -24 -37 -50.5t-58.5 -44.5t-95.5 -18
q-54 0 -98.5 30.5t-70.5 83t-26 118.5v0q0 72 29 123t74.5 78t96.5 27q52 0 97.5 -29t72 -79t21.5 -114h-394v-10zM344 541q0 -5 3.5 -8t7.5 -3q5 0 8 3t3 8t-3 8t-8 3q-4 0 -7.5 -3t-3.5 -8zM144 541q0 -5 3.5 -8t7.5 -3q5 0 8 3t3 8t-3 8t-8 3q-4 0 -7.5 -3t-3.5 -8z" />
    <glyph glyph-name="igrave" unicode="&#xec;" horiz-adv-x="190" 
d="M90 460v-460h10v460h-10zM-60 687l172 -157l6 5l-170 160z" />
    <glyph glyph-name="iacute" unicode="&#xed;" horiz-adv-x="190" 
d="M90 460v-460h10v460h-10zM250 687l-8 8l-170 -160l6 -5z" />
    <glyph glyph-name="icircumflex" unicode="&#xee;" horiz-adv-x="190" 
d="M90 460v-460h10v460h-10zM95 665l153 -135l7 7l-160 140l-160 -140l7 -7z" />
    <glyph glyph-name="idieresis" unicode="&#xef;" horiz-adv-x="190" 
d="M90 460v-460h10v460h-10zM164 541q0 -5 3.5 -8t7.5 -3q5 0 8 3t3 8t-3 8t-8 3q-4 0 -7.5 -3t-3.5 -8zM4 541q0 -5 3.5 -8t7.5 -3q5 0 8 3t3 8t-3 8t-8 3q-4 0 -7.5 -3t-3.5 -8z" />
    <glyph glyph-name="eth" unicode="&#xf0;" horiz-adv-x="536" 
d="M268 -10q66 0 115 29t76 80.5t27 120.5q0 30 -6.5 57t-23.5 60t-48 80t-80.5 115.5t-121.5 167.5l-7 -6q51 -69 84.5 -115.5t58 -81t46 -67.5t48.5 -76v1q-65 82 -179 82q-57 0 -104 -29.5t-75 -78.5t-28 -109q0 -69 27 -120.5t76.5 -80.5t114.5 -29zM268 0
q-61 0 -108 28t-73.5 78t-26.5 114q0 56 27 103t72 75.5t98 28.5q63 0 112.5 -27t78 -73.5t28.5 -106.5q0 -64 -26.5 -113.5t-73.5 -78t-108 -28.5zM178 520l248 110l-4 10l-248 -110z" />
    <glyph glyph-name="ntilde" unicode="&#xf1;" 
d="M95 460h-10v-460h10v460zM380 320v-320h10v320q0 67 -31 108.5t-102 41.5q-47 0 -85 -25t-60 -67.5t-22 -97.5h5q0 48 21.5 89t58.5 66t82 25q68 0 95.5 -39.5t27.5 -100.5zM112 551l9 -1q0 13 5 24.5t17.5 19t32.5 7.5q23 0 39.5 -11.5t35.5 -23.5t46 -12q15 0 27 5.5
t21.5 17.5t17.5 30l-9 3q-11 -24 -22.5 -36t-33.5 -12q-20 0 -34.5 7t-27 16.5t-27 16.5t-35.5 7q-22 0 -36 -8.5t-20 -21.5t-6 -28z" />
    <glyph glyph-name="ograve" unicode="&#xf2;" horiz-adv-x="556" 
d="M45 230q0 -69 31 -123.5t83.5 -85.5t118.5 -31t119 31t83.5 85.5t30.5 123.5q0 70 -30.5 124t-83.5 85t-119 31t-118.5 -31t-83.5 -85t-31 -124zM55 230q0 67 29.5 119t80.5 81.5t114 29.5q62 0 112.5 -29.5t80 -81.5t29.5 -119t-29.5 -119t-80 -81.5t-112.5 -29.5
q-63 0 -114 29.5t-80.5 81.5t-29.5 119zM142 687l174 -157l4 5l-170 160z" />
    <glyph glyph-name="oacute" unicode="&#xf3;" horiz-adv-x="556" 
d="M45 230q0 -69 31 -123.5t83.5 -85.5t118.5 -31t119 31t83.5 85.5t30.5 123.5q0 70 -30.5 124t-83.5 85t-119 31t-118.5 -31t-83.5 -85t-31 -124zM55 230q0 67 29.5 119t80.5 81.5t114 29.5q62 0 112.5 -29.5t80 -81.5t29.5 -119t-29.5 -119t-80 -81.5t-112.5 -29.5
q-63 0 -114 29.5t-80.5 81.5t-29.5 119zM414 687l-8 8l-170 -160l4 -5z" />
    <glyph glyph-name="ocircumflex" unicode="&#xf4;" horiz-adv-x="556" 
d="M45 230q0 -69 31 -123.5t83.5 -85.5t118.5 -31t119 31t83.5 85.5t30.5 123.5q0 70 -30.5 124t-83.5 85t-119 31t-118.5 -31t-83.5 -85t-31 -124zM55 230q0 67 29.5 119t80.5 81.5t114 29.5q62 0 112.5 -29.5t80 -81.5t29.5 -119t-29.5 -119t-80 -81.5t-112.5 -29.5
q-63 0 -114 29.5t-80.5 81.5t-29.5 119zM278 685l153 -135l7 7l-160 140l-160 -140l7 -7z" />
    <glyph glyph-name="otilde" unicode="&#xf5;" horiz-adv-x="556" 
d="M45 230q0 -69 31 -123.5t83.5 -85.5t118.5 -31t119 31t83.5 85.5t30.5 123.5q0 70 -30.5 124t-83.5 85t-119 31t-118.5 -31t-83.5 -85t-31 -124zM55 230q0 67 29.5 119t80.5 81.5t113 29.5q63 0 113.5 -29.5t80 -81.5t29.5 -119t-29.5 -119t-80 -81.5t-113.5 -29.5
q-62 0 -113 29.5t-80.5 81.5t-29.5 119zM152 551l10 -1q0 13 5 24.5t17 19t32 7.5q23 0 40 -11.5t36 -23.5t46 -12q15 0 27 5.5t21.5 17.5t17.5 30l-10 3q-11 -24 -22.5 -36t-33.5 -12q-20 0 -34.5 7t-27 16.5t-27 16.5t-35.5 7q-22 0 -36 -8.5t-20 -21.5t-6 -28z" />
    <glyph glyph-name="odieresis" unicode="&#xf6;" horiz-adv-x="556" 
d="M45 230q0 -69 31 -123.5t83.5 -85.5t118.5 -31t119 31t83.5 85.5t30.5 123.5q0 70 -30.5 124t-83.5 85t-119 31t-118.5 -31t-83.5 -85t-31 -124zM55 230q0 67 29.5 119t80.5 81.5t114 29.5q62 0 112.5 -29.5t80 -81.5t29.5 -119t-29.5 -119t-80 -81.5t-112.5 -29.5
q-63 0 -114 29.5t-80.5 81.5t-29.5 119zM367 561q0 -5 3.5 -8t7.5 -3q5 0 8 3t3 8t-3 8t-8 3q-4 0 -7.5 -3t-3.5 -8zM167 561q0 -5 3.5 -8t7.5 -3q5 0 8 3t3 8t-3 8t-8 3q-4 0 -7.5 -3t-3.5 -8z" />
    <glyph glyph-name="divide" unicode="&#xf7;" horiz-adv-x="623" 
d="M299 451q0 -5 3.5 -8t7.5 -3q5 0 8 3t3 8t-3 8t-8 3q-4 0 -7.5 -3t-3.5 -8zM299 31q0 -5 3.5 -8t7.5 -3q5 0 8 3t3 8t-3 8t-8 3q-4 0 -7.5 -3t-3.5 -8zM60 235h500v10h-500v-10z" />
    <glyph glyph-name="oslash" unicode="&#xf8;" horiz-adv-x="546" 
d="M45 230q0 -69 31 -123.5t83.5 -85.5t118.5 -31t119 31t83.5 85.5t30.5 123.5q0 70 -30.5 124t-83.5 85t-119 31t-118.5 -31t-83.5 -85t-31 -124zM55 230q0 67 29.5 119t80.5 81.5t114 29.5q62 0 112.5 -29.5t80 -81.5t29.5 -119t-29.5 -119t-80 -81.5t-112.5 -29.5
q-63 0 -114 29.5t-80.5 81.5t-29.5 119zM458 493l-390 -524l9 -6l390 524z" />
    <glyph glyph-name="ugrave" unicode="&#xf9;" 
d="M380 0h10v460h-10v-460zM95 150v310h-10v-310q0 -74 31 -117t102 -43q48 0 85.5 25t59.5 67.5t22 97.5h-5q0 -47 -21.5 -88.5t-58 -66.5t-82.5 -25q-67 0 -95 41t-28 109zM82 697l173 -157l5 5l-170 160z" />
    <glyph glyph-name="uacute" unicode="&#xfa;" 
d="M380 0h10v460h-10v-460zM95 150v310h-10v-310q0 -74 31 -117t102 -43q48 0 85.5 25t59.5 67.5t22 97.5h-5q0 -47 -21.5 -88.5t-58 -66.5t-82.5 -25q-67 0 -95 41t-28 109zM393 697l-8 8l-170 -160l5 -5z" />
    <glyph glyph-name="ucircumflex" unicode="&#xfb;" 
d="M380 0h10v460h-10v-460zM95 150v310h-10v-310q0 -74 31 -117t102 -43q48 0 85.5 25t59.5 67.5t22 97.5h-5q0 -47 -21.5 -88.5t-58 -66.5t-82.5 -25q-67 0 -95 41t-28 109zM238 675l152 -135l8 7l-160 140l-160 -140l6 -7z" />
    <glyph glyph-name="udieresis" unicode="&#xfc;" 
d="M380 0h10v460h-10v-460zM95 150v310h-10v-310q0 -74 31 -117t102 -43q48 0 85.5 25t59.5 67.5t22 97.5h-5q0 -47 -21.5 -88.5t-58 -66.5t-82.5 -25q-67 0 -95 41t-28 109zM306 561q0 -5 4 -8t8 -3q5 0 7.5 3t2.5 8t-2.5 8t-7.5 3q-4 0 -8 -3t-4 -8zM146 561q0 -5 4 -8
t8 -3q5 0 7.5 3t2.5 8t-2.5 8t-7.5 3q-4 0 -8 -3t-4 -8z" />
    <glyph glyph-name="yacute" unicode="&#xfd;" horiz-adv-x="425" 
d="M415 460h-11l-194 -440h11l-199 440h-12l200 -440l-106 -240h11zM368 687l-8 8l-170 -160l5 -5z" />
    <glyph glyph-name="thorn" unicode="&#xfe;" horiz-adv-x="541" 
d="M90 -220v1000h-10v-1000h10zM496 230q0 74 -28 127.5t-76.5 83t-108.5 29.5q-61 0 -105.5 -35t-68.5 -90t-24 -115q0 -59 24 -114.5t68.5 -90.5t105.5 -35q60 0 108.5 29.5t76.5 83.5t28 127zM486 230q0 -70 -27.5 -122t-74 -80t-104.5 -28q-54 0 -97 33.5t-68 86
t-25 110.5t25 110.5t68 86t97 33.5q58 0 104.5 -28t74 -79.5t27.5 -122.5z" />
    <glyph glyph-name="ydieresis" unicode="&#xff;" horiz-adv-x="425" 
d="M415 460h-11l-194 -440h11l-199 440h-12l200 -440l-106 -240h11zM282 561q0 -5 3 -8t7 -3q5 0 8.5 3t3.5 8t-3.5 8t-8.5 3q-4 0 -7 -3t-3 -8zM122 561q0 -5 3 -8t7 -3q5 0 8.5 3t3.5 8t-3.5 8t-8.5 3q-4 0 -7 -3t-3 -8z" />
    <glyph glyph-name="Amacron" unicode="&#x100;" horiz-adv-x="600" 
d="M127 272h345v10h-345v-10zM300 688l165 -412l1 -3l107 -273h12l-285 715l-285 -715h12l108 273l1 4zM125 795h350v10h-350v-10z" />
    <glyph glyph-name="amacron" unicode="&#x101;" horiz-adv-x="435" 
d="M50 135q0 46 25.5 76t65 45t80.5 15q51 0 85 -14.5t52 -31.5v10q-10 9 -27.5 20t-44 18.5t-65.5 7.5q-45 0 -86.5 -16.5t-68 -48.5t-26.5 -81q0 -52 22.5 -84t58 -46.5t72.5 -14.5q51 0 88.5 24t58 63t20.5 83h-5q0 -43 -21.5 -79.5t-58.5 -58.5t-82 -22q-35 0 -68 13.5
t-54 43t-21 78.5zM84 395q19 18 40.5 32.5t48.5 23.5t60 9q62 0 92 -37.5t30 -102.5v-320h10v320q0 45 -14 78.5t-43.5 52.5t-74.5 19q-55 0 -93 -22t-63 -45zM58 550h350v10h-350v-10z" />
    <glyph glyph-name="Abreve" unicode="&#x102;" horiz-adv-x="600" 
d="M127 272h345v10h-345v-10zM300 688l165 -412l1 -3l107 -273h12l-285 715l-285 -715h12l108 273l1 4zM142 925q0 -34 17.5 -66.5t53 -53t87.5 -20.5q53 0 88 20.5t52.5 53t17.5 66.5h-10q0 -33 -18 -62.5t-51 -48.5t-79 -19t-79 19t-51 48.5t-18 62.5h-10z" />
    <glyph glyph-name="abreve" unicode="&#x103;" horiz-adv-x="435" 
d="M50 135q0 46 25.5 76t65 45t80.5 15q51 0 85 -14.5t52 -31.5v10q-10 9 -27.5 20t-44 18.5t-65.5 7.5q-45 0 -86.5 -16.5t-68 -48.5t-26.5 -81q0 -52 22.5 -84t58 -46.5t72.5 -14.5q51 0 88.5 24t58 63t20.5 83h-5q0 -43 -21.5 -79.5t-58.5 -58.5t-82 -22q-35 0 -68 13.5
t-54 43t-21 78.5zM84 395q19 18 40.5 32.5t48.5 23.5t60 9q62 0 92 -37.5t30 -102.5v-320h10v320q0 45 -14 78.5t-43.5 52.5t-74.5 19q-55 0 -93 -22t-63 -45zM65 680q0 -34 17.5 -66.5t53 -53t87.5 -20.5q53 0 88 20.5t52.5 53t17.5 66.5h-10q0 -33 -18 -62.5t-51 -48.5
t-79 -19t-79 19t-51 48.5t-18 62.5h-10z" />
    <glyph glyph-name="Aogonek" unicode="&#x104;" horiz-adv-x="600" 
d="M129 272h343v10h-343v-10zM300 688l165 -412l1 -3l107 -273h12l-285 715l-285 -715h12l108 273l1 4zM619 -173q-11 -13 -36 -25t-55 -12q-37 0 -65 18t-28 52q0 29 23.5 54.5t58 47.5t68.5 38l-7 10q-35 -18 -70.5 -39.5t-59 -48.5t-23.5 -62q0 -24 12.5 -42t35.5 -28
t55 -10t59.5 12.5t38.5 27.5z" />
    <glyph glyph-name="aogonek" unicode="&#x105;" horiz-adv-x="435" 
d="M50 135q0 46 25.5 76t65 45t80.5 15q51 0 85 -14.5t52 -31.5v10q-10 9 -27.5 20t-44 18.5t-65.5 7.5q-45 0 -86.5 -16.5t-68 -48.5t-26.5 -81q0 -52 22.5 -84t58 -46.5t72.5 -14.5q51 0 88.5 24t58 63t20.5 83h-5q0 -43 -21.5 -79.5t-58.5 -58.5t-82 -22q-35 0 -68 13.5
t-54 43t-21 78.5zM84 395q19 18 40.5 32.5t48.5 23.5t60 9q62 0 92 -37.5t30 -102.5v-320h10v320q0 45 -14 78.5t-43.5 52.5t-74.5 19q-55 0 -93 -22t-63 -45zM399 -173q-11 -13 -36 -25t-55 -12q-37 0 -65 18t-28 52q0 29 23.5 54.5t58 47.5t68.5 38l-7 10
q-35 -18 -70.5 -39.5t-59 -48.5t-23.5 -62q0 -24 12.5 -42t35.5 -28t55 -10t59.5 12.5t38.5 27.5z" />
    <glyph glyph-name="Cacute" unicode="&#x106;" horiz-adv-x="685" 
d="M62 350q0 102 41 180t112.5 122t164.5 44q47 0 87.5 -9t75 -27.5t62.5 -46.5v15q-44 39 -96 59.5t-129 20.5q-73 0 -133.5 -26.5t-104.5 -74.5t-68 -113.5t-24 -143.5t24 -143.5t68 -113.5t104.5 -74.5t133.5 -26.5q77 0 129 20.5t96 59.5v16q-29 -28 -62 -47t-73 -28
t-90 -9q-93 0 -165 45t-112.5 123t-40.5 178zM516 925l-8 8l-170 -160l4 -5z" />
    <glyph glyph-name="cacute" unicode="&#x107;" horiz-adv-x="488" 
d="M50 230q0 67 29.5 119t80.5 81.5t113 29.5q37 0 68.5 -10.5t54 -24.5t32.5 -26v13q-16 18 -58 38t-97 20q-66 0 -118.5 -31t-83.5 -85t-31 -124q0 -69 31 -123.5t83.5 -85.5t118.5 -31q55 0 97 19.5t58 38.5v13q-10 -12 -32.5 -26t-54 -24.5t-68.5 -10.5q-62 0 -113 29.5
t-80.5 81.5t-29.5 119zM418 697l-8 8l-170 -160l6 -5z" />
    <glyph glyph-name="Ccircumflex" unicode="&#x108;" horiz-adv-x="685" 
d="M62 350q0 102 41 180t112.5 122t164.5 44q47 0 87.5 -9t75 -27.5t62.5 -46.5v15q-44 39 -96 59.5t-129 20.5q-73 0 -133.5 -26.5t-104.5 -74.5t-68 -113.5t-24 -143.5t24 -143.5t68 -113.5t104.5 -74.5t133.5 -26.5q77 0 129 20.5t96 59.5v16q-29 -28 -62 -47t-73 -28
t-90 -9q-93 0 -165 45t-112.5 123t-40.5 178zM380 903l153 -135l7 7l-160 140l-160 -140l7 -7z" />
    <glyph glyph-name="ccircumflex" unicode="&#x109;" horiz-adv-x="488" 
d="M50 230q0 67 29.5 119t80.5 81.5t113 29.5q37 0 68.5 -10.5t54 -24.5t32.5 -26v13q-16 18 -58 38t-97 20q-66 0 -118.5 -31t-83.5 -85t-31 -124q0 -69 31 -123.5t83.5 -85.5t118.5 -31q55 0 97 19.5t58 38.5v13q-10 -12 -32.5 -26t-54 -24.5t-68.5 -10.5q-62 0 -113 29.5
t-80.5 81.5t-29.5 119zM273 665l153 -135l7 7l-160 140l-160 -140l7 -7z" />
    <glyph glyph-name="Cdotaccent" unicode="&#x10a;" horiz-adv-x="685" 
d="M62 350q0 102 41 180t112.5 122t164.5 44q47 0 87.5 -9t75 -27.5t62.5 -46.5v15q-44 39 -96 59.5t-129 20.5q-73 0 -133.5 -26.5t-104.5 -74.5t-68 -113.5t-24 -143.5t24 -143.5t68 -113.5t104.5 -74.5t133.5 -26.5q77 0 129 20.5t96 59.5v16q-29 -28 -62 -47t-73 -28
t-90 -9q-93 0 -165 45t-112.5 123t-40.5 178zM369 789q0 -5 3.5 -8t7.5 -3q5 0 8 3t3 8t-3 8t-8 3q-4 0 -7.5 -3t-3.5 -8z" />
    <glyph glyph-name="cdotaccent" unicode="&#x10b;" horiz-adv-x="488" 
d="M50 230q0 67 29.5 119t80.5 81.5t113 29.5q37 0 68.5 -10.5t54 -24.5t32.5 -26v13q-16 18 -58 38t-97 20q-66 0 -118.5 -31t-83.5 -85t-31 -124q0 -69 31 -123.5t83.5 -85.5t118.5 -31q55 0 97 19.5t58 38.5v13q-10 -12 -32.5 -26t-54 -24.5t-68.5 -10.5q-62 0 -113 29.5
t-80.5 81.5t-29.5 119zM262 551q0 -5 3.5 -8t7.5 -3q5 0 8 3t3 8t-3 8t-8 3q-4 0 -7.5 -3t-3.5 -8z" />
    <glyph glyph-name="Ccaron" unicode="&#x10c;" horiz-adv-x="685" 
d="M62 350q0 102 41 180t112.5 122t164.5 44q47 0 87.5 -9t75 -27.5t62.5 -46.5v15q-44 39 -96 59.5t-129 20.5q-73 0 -133.5 -26.5t-104.5 -74.5t-68 -113.5t-24 -143.5t24 -143.5t68 -113.5t104.5 -74.5t133.5 -26.5q77 0 129 20.5t96 59.5v16q-29 -28 -62 -47t-73 -28
t-90 -9q-93 0 -165 45t-112.5 123t-40.5 178zM380 790l-152 136l-8 -8l160 -140l160 140l-8 8z" />
    <glyph glyph-name="ccaron" unicode="&#x10d;" horiz-adv-x="488" 
d="M50 230q0 67 29.5 119t80.5 81.5t113 29.5q37 0 68.5 -10.5t54 -24.5t32.5 -26v13q-16 18 -58 38t-97 20q-66 0 -118.5 -31t-83.5 -85t-31 -124q0 -69 31 -123.5t83.5 -85.5t118.5 -31q55 0 97 19.5t58 38.5v13q-10 -12 -32.5 -26t-54 -24.5t-68.5 -10.5q-62 0 -113 29.5
t-80.5 81.5t-29.5 119zM273 562l-152 136l-8 -8l160 -140l160 140l-8 8z" />
    <glyph glyph-name="Dcaron" unicode="&#x10e;" horiz-adv-x="635" 
d="M90 700v-700h11v700h-11zM250 0q102 0 177.5 44t116.5 122.5t41 183.5t-41 183.5t-116.5 122.5t-177.5 44h-155v-11h155q75 0 135 -24t102 -69t64.5 -107.5t22.5 -138.5t-22.5 -138.5t-64.5 -107.5t-102 -69t-135 -24h-155v-11h155zM318 810l-152 136l-8 -8l160 -140
l160 140l-8 8z" />
    <glyph glyph-name="dcaron" unicode="&#x10f;" horiz-adv-x="570" 
d="M451 780v-780h10v780h-10zM45 230q0 -73 28 -127t76.5 -83.5t108.5 -29.5q62 0 106 35t68 90.5t24 114.5q0 60 -24 115t-68 90t-106 35q-60 0 -108.5 -29.5t-76.5 -83t-28 -127.5zM55 230q0 71 27.5 122.5t74 79.5t104.5 28q55 0 97.5 -33.5t67.5 -86t25 -110.5
t-25 -110.5t-67.5 -86t-97.5 -33.5q-58 0 -104.5 28t-74 80t-27.5 122zM655 764l-105 -253l6 -2l110 250z" />
    <glyph glyph-name="Dcroat" unicode="&#x110;" horiz-adv-x="680" 
d="M5 345h300v10h-300v-10zM90 700v-700h11v700h-11zM250 0q102 0 177.5 44t116.5 122.5t41 183.5t-41 183.5t-116.5 122.5t-177.5 44h-155v-11h155q74 0 134 -24t102.5 -69t65 -107.5t22.5 -138.5t-22.5 -138.5t-65 -107.5t-102.5 -69t-134 -24h-155v-11h155z" />
    <glyph glyph-name="dcroat" unicode="&#x111;" horiz-adv-x="541" 
d="M295 655h300v10h-300v-10zM451 780v-780h10v780h-10zM45 230q0 -74 28 -128t76.5 -83t108.5 -29q58 0 102.5 33t70 88t25.5 119q0 65 -25.5 119.5t-70 87.5t-102.5 33q-60 0 -108.5 -29t-76.5 -82.5t-28 -128.5zM55 230q0 71 27.5 122.5t74.5 79.5t104 28q43 0 78 -20.5
t60 -54.5t38.5 -74.5t13.5 -80.5t-13.5 -80.5t-38.5 -74.5t-60 -54.5t-78 -20.5q-57 0 -104 28t-74.5 80t-27.5 122z" />
    <glyph glyph-name="Emacron" unicode="&#x112;" horiz-adv-x="510" 
d="M92 0h338v10h-338v-10zM92 690h338v10h-338v-10zM92 384h318v10h-318v-10zM90 700v-700h11v700h-11zM105 835h350v10h-350v-10z" />
    <glyph glyph-name="emacron" unicode="&#x113;" horiz-adv-x="502" 
d="M52 228h403q1 6 1.5 13t0.5 13q0 63 -28.5 111.5t-74.5 76.5t-99 28q-49 0 -89.5 -20.5t-68.5 -57t-42 -84.5q-5 -18 -7.5 -37t-2.5 -39q0 -69 27.5 -124t74 -86.5t103.5 -31.5q63 0 101 19.5t60.5 46.5t37.5 51l-8 6q-15 -24 -37 -50.5t-58.5 -44.5t-95.5 -18
q-54 0 -98.5 30.5t-70.5 83t-26 118.5v0q0 72 29 123t74.5 78t96.5 27q52 0 97.5 -29t72 -79t21.5 -114h-394v-10zM80 530h350v10h-350v-10z" />
    <glyph glyph-name="Ebreve" unicode="&#x114;" horiz-adv-x="510" 
d="M92 0h338v10h-338v-10zM92 690h338v10h-338v-10zM92 384h318v10h-318v-10zM90 700v-700h11v700h-11zM112 908q0 -34 17.5 -66.5t53 -53t87.5 -20.5q53 0 88 20.5t52.5 53t17.5 66.5h-10q0 -33 -18 -62.5t-51 -48.5t-79 -19t-79 19t-51 48.5t-18 62.5h-10z" />
    <glyph glyph-name="ebreve" unicode="&#x115;" horiz-adv-x="502" 
d="M52 228h403q1 6 1.5 13t0.5 13q0 63 -28.5 111.5t-74.5 76.5t-99 28q-49 0 -89.5 -20.5t-68.5 -57t-42 -84.5q-5 -18 -7.5 -37t-2.5 -39q0 -69 27.5 -124t74 -86.5t103.5 -31.5q63 0 101 19.5t60.5 46.5t37.5 51l-8 6q-15 -24 -37 -50.5t-58.5 -44.5t-95.5 -18
q-54 0 -98.5 30.5t-70.5 83t-26 118.5v0q0 72 29 123t74.5 78t96.5 27q52 0 97.5 -29t72 -79t21.5 -114h-394v-10zM97 670q0 -34 17.5 -66.5t53 -53t87.5 -20.5q53 0 88 20.5t52.5 53t17.5 66.5h-10q0 -33 -18 -62.5t-51 -48.5t-79 -19t-79 19t-51 48.5t-18 62.5h-10z" />
    <glyph glyph-name="Edotaccent" unicode="&#x116;" horiz-adv-x="510" 
d="M92 0h338v10h-338v-10zM92 690h338v10h-338v-10zM92 384h318v10h-318v-10zM90 700v-700h11v700h-11zM249 779q0 -5 3.5 -8t7.5 -3q5 0 8 3t3 8t-3 8t-8 3q-4 0 -7.5 -3t-3.5 -8z" />
    <glyph glyph-name="edotaccent" unicode="&#x117;" horiz-adv-x="502" 
d="M52 228h403q1 6 1.5 13t0.5 13q0 63 -28.5 111.5t-74.5 76.5t-99 28q-49 0 -89.5 -20.5t-68.5 -57t-42 -84.5q-5 -18 -7.5 -37t-2.5 -39q0 -69 27.5 -124t74 -86.5t103.5 -31.5q63 0 101 19.5t60.5 46.5t37.5 51l-8 6q-15 -24 -37 -50.5t-58.5 -44.5t-95.5 -18
q-54 0 -98.5 30.5t-70.5 83t-26 118.5v0q0 72 29 123t74.5 78t96.5 27q52 0 97.5 -29t72 -79t21.5 -114h-394v-10zM244 541q0 -5 3.5 -8t7.5 -3q5 0 8 3t3 8t-3 8t-8 3q-4 0 -7.5 -3t-3.5 -8z" />
    <glyph glyph-name="Eogonek" unicode="&#x118;" horiz-adv-x="510" 
d="M92 0h338v10h-338v-10zM92 690h338v10h-338v-10zM92 384h318v10h-318v-10zM90 700v-700h11v700h-11zM464 -173q-11 -13 -36 -25t-55 -12q-37 0 -65 18t-28 52q0 29 23.5 54.5t58 47.5t68.5 38l-7 10q-35 -18 -70.5 -39.5t-59 -48.5t-23.5 -62q0 -24 12.5 -42t35.5 -28
t55 -10t59.5 12.5t38.5 27.5z" />
    <glyph glyph-name="eogonek" unicode="&#x119;" horiz-adv-x="502" 
d="M52 228h403q1 6 1.5 13t0.5 13q0 63 -28.5 111.5t-74.5 76.5t-99 28q-49 0 -89.5 -20.5t-68.5 -57t-42 -84.5q-5 -18 -7.5 -37t-2.5 -39q0 -69 27.5 -124t74 -86.5t103.5 -31.5q47 0 80 11.5t55.5 29t37.5 38t26 38.5l-8 6q-15 -24 -37 -50.5t-58.5 -44.5t-95.5 -18
q-54 0 -98.5 30.5t-70.5 83t-26 118.5v0q0 72 29 123t74.5 78t96.5 27q52 0 97.5 -29t72 -79t21.5 -114h-394v-10zM503 -127q-11 -13 -36.5 -25t-55.5 -12q-37 0 -64.5 18t-27.5 52q0 30 22.5 61t53 65t54.5 75l-4 3q-19 -32 -42 -58.5t-44.5 -50t-35.5 -46.5t-14 -49
q0 -24 12 -42t35 -28t55 -10t59.5 12.5t38.5 27.5z" />
    <glyph glyph-name="Ecaron" unicode="&#x11a;" horiz-adv-x="510" 
d="M92 0h338v10h-338v-10zM92 690h338v10h-338v-10zM92 384h318v10h-318v-10zM90 700v-700h11v700h-11zM260 780l-152 136l-8 -8l160 -140l160 140l-8 8z" />
    <glyph glyph-name="ecaron" unicode="&#x11b;" horiz-adv-x="502" 
d="M52 228h403q1 6 1.5 13t0.5 13q0 63 -28.5 111.5t-74.5 76.5t-99 28q-49 0 -89.5 -20.5t-68.5 -57t-42 -84.5q-5 -18 -7.5 -37t-2.5 -39q0 -69 27.5 -124t74 -86.5t103.5 -31.5q63 0 101 19.5t60.5 46.5t37.5 51l-8 6q-15 -24 -37 -50.5t-58.5 -44.5t-95.5 -18
q-54 0 -98.5 30.5t-70.5 83t-26 118.5v0q0 72 29 123t74.5 78t96.5 27q52 0 97.5 -29t72 -79t21.5 -114h-394v-10zM255 542l-152 136l-8 -8l160 -140l160 140l-8 8z" />
    <glyph glyph-name="Gcircumflex" unicode="&#x11c;" horiz-adv-x="765" 
d="M420 330h279q-1 -66 -23.5 -125t-63.5 -104.5t-97 -71.5t-125 -26q-96 0 -170.5 45t-116.5 123.5t-42 178.5q0 102 42.5 180t117 122.5t169.5 44.5q92 0 161.5 -42.5t106.5 -104.5l10 6q-30 44 -70 78t-91.5 54t-116.5 20q-73 0 -135 -26.5t-108 -74.5t-71.5 -113.5
t-25.5 -143.5t25.5 -143.5t71.5 -113.5t108 -74.5t135 -26.5t132 28t101 77t64.5 111.5t22.5 131.5h-290v-10zM390 903l153 -135l7 7l-160 140l-160 -140l7 -7z" />
    <glyph glyph-name="gcircumflex" unicode="&#x11d;" horiz-adv-x="541" 
d="M60 -30q0 -59 24 -104.5t67.5 -70.5t100.5 -25q58 0 105 27t75.5 80.5t28.5 132.5v450h-10v-450q0 -77 -27.5 -128.5t-72.5 -76.5t-99 -25q-53 0 -94.5 23.5t-64.5 66t-23 100.5h-10zM45 230q0 -73 28 -127t76.5 -83.5t108.5 -29.5q62 0 106 35t68 90.5t24 114.5
q0 60 -24 115t-68 90t-106 35q-60 0 -108.5 -29.5t-76.5 -83t-28 -127.5zM55 230q0 71 27.5 122.5t74 79.5t104.5 28q41 0 76 -20t60.5 -53t39.5 -72.5t14 -79.5q0 -60 -24.5 -114t-67.5 -87.5t-98 -33.5q-58 0 -104.5 28t-74 80t-27.5 122zM258 665l153 -135l7 7l-160 140
l-160 -140l7 -7z" />
    <glyph glyph-name="Gbreve" unicode="&#x11e;" horiz-adv-x="765" 
d="M420 330h279q-1 -66 -23.5 -125t-63.5 -104.5t-97 -71.5t-125 -26q-96 0 -170.5 45t-116.5 123.5t-42 178.5q0 102 42.5 180t117 122.5t169.5 44.5q92 0 161.5 -42.5t106.5 -104.5l10 6q-30 44 -70 78t-91.5 54t-116.5 20q-73 0 -135 -26.5t-108 -74.5t-71.5 -113.5
t-25.5 -143.5t25.5 -143.5t71.5 -113.5t108 -74.5t135 -26.5t132 28t101 77t64.5 111.5t22.5 131.5h-290v-10zM232 908q0 -34 17.5 -66.5t53 -53t87.5 -20.5q53 0 88 20.5t52.5 53t17.5 66.5h-10q0 -33 -18 -62.5t-51 -48.5t-79 -19t-79 19t-51 48.5t-18 62.5h-10z" />
    <glyph glyph-name="gbreve" unicode="&#x11f;" horiz-adv-x="541" 
d="M60 -30q0 -59 24 -104.5t67.5 -70.5t100.5 -25q58 0 105 27t75.5 80.5t28.5 132.5v450h-10v-450q0 -77 -27.5 -128.5t-72.5 -76.5t-99 -25q-53 0 -94.5 23.5t-64.5 66t-23 100.5h-10zM45 230q0 -73 28 -127t76.5 -83.5t108.5 -29.5q62 0 106 35t68 90.5t24 114.5
q0 60 -24 115t-68 90t-106 35q-60 0 -108.5 -29.5t-76.5 -83t-28 -127.5zM55 230q0 71 27.5 122.5t74 79.5t104.5 28q41 0 76 -20t60.5 -53t39.5 -72.5t14 -79.5q0 -60 -24.5 -114t-67.5 -87.5t-98 -33.5q-58 0 -104.5 28t-74 80t-27.5 122zM100 670q0 -34 17.5 -66.5
t53 -53t87.5 -20.5q53 0 88 20.5t52.5 53t17.5 66.5h-10q0 -33 -18 -62.5t-51 -48.5t-79 -19t-79 19t-51 48.5t-18 62.5h-10z" />
    <glyph glyph-name="Gdotaccent" unicode="&#x120;" horiz-adv-x="765" 
d="M420 330h279q-1 -66 -23.5 -125t-63.5 -104.5t-97 -71.5t-125 -26q-96 0 -170.5 45t-116.5 123.5t-42 178.5q0 102 42.5 180t117 122.5t169.5 44.5q92 0 161.5 -42.5t106.5 -104.5l10 6q-30 44 -70 78t-91.5 54t-116.5 20q-73 0 -135 -26.5t-108 -74.5t-71.5 -113.5
t-25.5 -143.5t25.5 -143.5t71.5 -113.5t108 -74.5t135 -26.5t132 28t101 77t64.5 111.5t22.5 131.5h-290v-10zM379 779q0 -5 3.5 -8t7.5 -3q5 0 8 3t3 8t-3 8t-8 3q-4 0 -7.5 -3t-3.5 -8z" />
    <glyph glyph-name="gdotaccent" unicode="&#x121;" horiz-adv-x="541" 
d="M60 -30q0 -59 24 -104.5t67.5 -70.5t100.5 -25q58 0 105 27t75.5 80.5t28.5 132.5v450h-10v-450q0 -77 -27.5 -128.5t-72.5 -76.5t-99 -25q-53 0 -94.5 23.5t-64.5 66t-23 100.5h-10zM45 230q0 -73 28 -127t76.5 -83.5t108.5 -29.5q62 0 106 35t68 90.5t24 114.5
q0 60 -24 115t-68 90t-106 35q-60 0 -108.5 -29.5t-76.5 -83t-28 -127.5zM55 230q0 71 27.5 122.5t74 79.5t104.5 28q41 0 76 -20t60.5 -53t39.5 -72.5t14 -79.5q0 -60 -24.5 -114t-67.5 -87.5t-98 -33.5q-58 0 -104.5 28t-74 80t-27.5 122zM247 541q0 -5 3.5 -8t7.5 -3
q5 0 8 3t3 8t-3 8t-8 3q-4 0 -7.5 -3t-3.5 -8z" />
    <glyph glyph-name="uni0122" unicode="&#x122;" horiz-adv-x="765" 
d="M420 330h279q-1 -66 -23.5 -125t-63.5 -104.5t-97 -71.5t-125 -26q-96 0 -170.5 45t-116.5 123.5t-42 178.5q0 102 42.5 180t117 122.5t169.5 44.5q92 0 161.5 -42.5t106.5 -104.5l10 6q-30 44 -70 78t-91.5 54t-116.5 20q-73 0 -135 -26.5t-108 -74.5t-71.5 -113.5
t-25.5 -143.5t25.5 -143.5t71.5 -113.5t108 -74.5t135 -26.5t132 28t101 77t64.5 111.5t22.5 131.5h-290v-10zM437 -68l-105 -253l6 -2l110 250z" />
    <glyph glyph-name="uni0123" unicode="&#x123;" horiz-adv-x="570" 
d="M60 -30q0 -59 24 -104.5t67.5 -70.5t100.5 -25q58 0 105 27t75.5 80.5t28.5 132.5v450h-10v-450q0 -77 -27.5 -128.5t-72.5 -76.5t-99 -25q-53 0 -94.5 23.5t-64.5 66t-23 100.5h-10zM45 230q0 -73 28 -127t76.5 -83.5t108.5 -29.5q62 0 106 35t68 90.5t24 114.5
q0 60 -24 115t-68 90t-106 35q-60 0 -108.5 -29.5t-76.5 -83t-28 -127.5zM55 230q0 71 27.5 122.5t74 79.5t104.5 28q41 0 76 -20t60.5 -53t39.5 -72.5t14 -79.5q0 -60 -24.5 -114t-67.5 -87.5t-98 -33.5q-58 0 -104.5 28t-74 80t-27.5 122zM258 566l143 234l-6 3l-147 -230
z" />
    <glyph glyph-name="Hcircumflex" unicode="&#x124;" horiz-adv-x="647" 
d="M93 377h460v10h-460v-10zM546 700v-700h11v700h-11zM90 700v-700h11v700h-11zM324 903l152 -135l8 7l-160 140l-160 -140l6 -7z" />
    <glyph glyph-name="hcircumflex" unicode="&#x125;" 
d="M95 780h-10v-780h10v780zM380 320v-320h10v320q0 45 -13.5 78.5t-42.5 52.5t-77 19q-47 0 -85 -25t-60 -67.5t-22 -97.5h5q0 48 21.5 89t58.5 66t82 25q68 0 95.5 -39.5t27.5 -100.5zM98 975l152 -135l8 7l-160 140l-160 -140l6 -7z" />
    <glyph glyph-name="Hbar" unicode="&#x126;" horiz-adv-x="647" 
d="M93 377h460v10h-460v-10zM546 700v-700h11v700h-11zM90 700v-700h11v700h-11zM5 605h637v10h-637v-10z" />
    <glyph glyph-name="hbar" unicode="&#x127;" horiz-adv-x="525" 
d="M95 780h-10v-780h10v780zM380 320v-320h10v320q0 45 -13.5 78.5t-42.5 52.5t-77 19q-47 0 -85 -25t-60 -67.5t-22 -97.5h5q0 48 21.5 89t58.5 66t82 25q68 0 95.5 -39.5t27.5 -100.5zM5 690h312v10h-312v-10z" />
    <glyph glyph-name="Itilde" unicode="&#x128;" horiz-adv-x="180" 
d="M85 700v-700h10v700h-10zM-25 831l9 -1q0 13 5 24.5t17.5 19t32.5 7.5q23 0 39.5 -11.5t35.5 -23.5t46 -12q15 0 27 5.5t21.5 17.5t17.5 30l-9 3q-11 -24 -22.5 -36t-33.5 -12q-20 0 -34.5 7t-27 16.5t-27 16.5t-35.5 7q-22 0 -36 -8.5t-20 -21.5t-6 -28z" />
    <glyph glyph-name="itilde" unicode="&#x129;" horiz-adv-x="190" 
d="M90 460v-460h10v460h-10zM-18 591l9 -1q0 13 5 24.5t17.5 19t32.5 7.5q23 0 39.5 -11.5t35.5 -23.5t46 -12q15 0 27 5.5t21.5 17.5t17.5 30l-9 3q-11 -24 -22.5 -36t-33.5 -12q-20 0 -34.5 7t-27 16.5t-27 16.5t-35.5 7q-22 0 -36 -8.5t-20 -21.5t-6 -28z" />
    <glyph glyph-name="Imacron" unicode="&#x12a;" horiz-adv-x="180" 
d="M85 700v-700h10v700h-10zM-52 835h350v10h-350v-10z" />
    <glyph glyph-name="imacron" unicode="&#x12b;" horiz-adv-x="190" 
d="M90 460v-460h10v460h-10zM-45 595h350v10h-350v-10z" />
    <glyph glyph-name="Ibreve" unicode="&#x12c;" horiz-adv-x="180" 
d="M85 700v-700h10v700h-10zM-70 910q0 -34 17.5 -66.5t53 -53t87.5 -20.5q53 0 88 20.5t52.5 53t17.5 66.5h-10q0 -33 -18 -62.5t-51 -48.5t-79 -19t-79 19t-51 48.5t-18 62.5h-10z" />
    <glyph glyph-name="ibreve" unicode="&#x12d;" horiz-adv-x="190" 
d="M90 460v-460h10v460h-10zM-63 670q0 -34 17.5 -66.5t53 -53t87.5 -20.5q53 0 88 20.5t52.5 53t17.5 66.5h-10q0 -33 -18 -62.5t-51 -48.5t-79 -19t-79 19t-51 48.5t-18 62.5h-10z" />
    <glyph glyph-name="Iogonek" unicode="&#x12e;" horiz-adv-x="180" 
d="M85 700v-700h10v700h-10zM129 -173q-11 -13 -36 -25t-55 -12q-37 0 -65 18t-28 52q0 29 23.5 54.5t58 47.5t68.5 38l-7 10q-35 -18 -70.5 -39.5t-59 -48.5t-23.5 -62q0 -24 12.5 -42t35.5 -28t55 -10t59.5 12.5t38.5 27.5z" />
    <glyph glyph-name="iogonek" unicode="&#x12f;" horiz-adv-x="190" 
d="M85 695q0 -4 2.5 -7t7.5 -3t7.5 3t2.5 7q0 5 -2.5 7.5t-7.5 2.5t-7.5 -2.5t-2.5 -7.5zM90 460v-460h10v460h-10zM134 -173q-11 -13 -36 -25t-55 -12q-37 0 -65 18t-28 52q0 29 23.5 54.5t58 47.5t68.5 38l-7 10q-35 -18 -70.5 -39.5t-59 -48.5t-23.5 -62q0 -24 12.5 -42
t35.5 -28t55 -10t59.5 12.5t38.5 27.5z" />
    <glyph glyph-name="Idotaccent" unicode="&#x130;" horiz-adv-x="180" 
d="M85 700v-700h10v700h-10zM79 786q0 -5 3.5 -8t7.5 -3q5 0 8 3t3 8t-3 8t-8 3q-4 0 -7.5 -3t-3.5 -8z" />
    <glyph glyph-name="dotlessi" unicode="&#x131;" horiz-adv-x="190" 
d="M90 460v-460h10v460h-10z" />
    <glyph glyph-name="IJ" unicode="&#x132;" horiz-adv-x="490" 
d="M123 -158l-7 -7q8 -10 25.5 -23t42 -22.5t50.5 -9.5q35 0 59 9.5t38 29.5t20 50t6 71v760h-11v-750q0 -87 -23 -123t-90 -36q-34 0 -63 16.5t-47 34.5zM85 700v-700h10v700h-10z" />
    <glyph glyph-name="ij" unicode="&#x133;" horiz-adv-x="510" 
d="M335 695q0 -4 2.5 -7t7.5 -3t7.5 3t2.5 7q0 5 -2.5 7.5t-7.5 2.5t-7.5 -2.5t-2.5 -7.5zM164 -165l-7 -7q8 -10 19.5 -21t28 -19t37.5 -8q42 0 65.5 20t33 52t9.5 66v542h-10v-542q0 -28 -8 -57.5t-29 -50t-61 -20.5q-28 0 -47 15t-31 30zM85 695q0 -4 2.5 -7t7.5 -3
t7.5 3t2.5 7q0 5 -2.5 7.5t-7.5 2.5t-7.5 -2.5t-2.5 -7.5zM90 460v-460h10v460h-10z" />
    <glyph glyph-name="Jcircumflex" unicode="&#x134;" horiz-adv-x="197" 
d="M-127 -158l-7 -7q8 -10 25.5 -23t42 -22.5t50.5 -9.5q35 0 59 9.5t38 29.5t20 50t6 71v760h-11v-750q0 -87 -23 -123t-90 -36q-34 0 -63 16.5t-47 34.5zM102 903l152 -135l8 7l-160 140l-160 -140l6 -7z" />
    <glyph glyph-name="jcircumflex" unicode="&#x135;" horiz-adv-x="180" 
d="M-96 -165l-7 -7q8 -10 19.5 -21t28 -19t37.5 -8q42 0 65.5 20t33 52t9.5 66v542h-10v-542q0 -28 -8 -57.5t-29 -50t-61 -20.5q-28 0 -47 15t-31 30zM85 665l153 -135l7 7l-160 140l-160 -140l7 -7z" />
    <glyph glyph-name="uni0136" unicode="&#x136;" horiz-adv-x="454" 
d="M85 700v-700h11v700h-11zM408 700l-314 -328l328 -372h17l-330 372l315 328h-16zM309 -60l-105 -253l6 -2l110 250z" />
    <glyph glyph-name="uni0137" unicode="&#x137;" horiz-adv-x="372" 
d="M80 780v-780h10v780h-10zM328 460l-240 -190l260 -270h14l-260 270l242 190h-16zM268 -60l-105 -253l6 -2l110 250z" />
    <glyph glyph-name="kgreenlandic" unicode="&#x138;" horiz-adv-x="372" 
d="M80 460v-460h10v460h-10zM328 460l-240 -190l260 -270h14l-260 270l242 190h-16z" />
    <glyph glyph-name="Lacute" unicode="&#x139;" horiz-adv-x="430" 
d="M90 700v-700h320v10h-310v690h-10zM426 925l-8 8l-170 -160l4 -5z" />
    <glyph glyph-name="lacute" unicode="&#x13a;" horiz-adv-x="180" 
d="M85 780v-780h10v780h-10zM266 997l-8 8l-170 -160l4 -5z" />
    <glyph glyph-name="uni013B" unicode="&#x13b;" horiz-adv-x="430" 
d="M90 700v-700h320v10h-310v690h-10zM257 -60l-105 -253l6 -2l110 250z" />
    <glyph glyph-name="uni013C" unicode="&#x13c;" horiz-adv-x="180" 
d="M85 780v-780h10v780h-10zM117 -60l-105 -253l6 -2l110 250z" />
    <glyph glyph-name="Lcaron" unicode="&#x13d;" horiz-adv-x="430" 
d="M90 700v-700h320v10h-310v690h-10zM345 708l-105 -253l6 -2l110 250z" />
    <glyph glyph-name="lcaron" unicode="&#x13e;" horiz-adv-x="230" 
d="M85 780v-780h10v780h-10zM320 764l-105 -253l6 -2l110 250z" />
    <glyph glyph-name="Ldot" unicode="&#x13f;" horiz-adv-x="430" 
d="M90 700v-700h320v10h-310v690h-10zM269 414q0 -5 3.5 -8t7.5 -3q5 0 8 3t3 8t-3 8t-8 3q-4 0 -7.5 -3t-3.5 -8z" />
    <glyph glyph-name="ldot" unicode="&#x140;" horiz-adv-x="370" 
d="M85 780v-780h10v780h-10zM230 396q0 -5 3.5 -8t7.5 -3q5 0 8 3t3 8t-3 8t-8 3q-4 0 -7.5 -3t-3.5 -8z" />
    <glyph glyph-name="Lslash" unicode="&#x141;" horiz-adv-x="375" 
d="M-9 387l270 170l-6 8l-270 -170zM80 700v-700h285v10h-274v690h-11z" />
    <glyph glyph-name="lslash" unicode="&#x142;" horiz-adv-x="160" 
d="M-8 387l180 150l-7 8l-180 -150zM75 780v-780h10v780h-10z" />
    <glyph glyph-name="Nacute" unicode="&#x143;" horiz-adv-x="665" 
d="M584 700v-683l-534 698v-715h11v678l534 -693v715h-11zM476 912l-8 8l-170 -160l4 -5z" />
    <glyph glyph-name="nacute" unicode="&#x144;" 
d="M95 460h-10v-460h10v460zM380 320v-320h10v320q0 67 -31 108.5t-102 41.5q-47 0 -85 -25t-60 -67.5t-22 -97.5h5q0 48 21.5 89t58.5 66t82 25q68 0 95.5 -39.5t27.5 -100.5zM383 697l-8 8l-170 -160l5 -5z" />
    <glyph glyph-name="uni0145" unicode="&#x145;" horiz-adv-x="665" 
d="M342 -45l-105 -253l6 -2l110 250zM584 700v-683l-534 698v-715h11v678l534 -693v715h-11z" />
    <glyph glyph-name="uni0146" unicode="&#x146;" 
d="M95 460h-10v-460h10v460zM380 320v-320h10v320q0 67 -31 108.5t-102 41.5q-47 0 -85 -25t-60 -67.5t-22 -97.5h5q0 48 21.5 89t58.5 66t82 25q68 0 95.5 -39.5t27.5 -100.5zM254 -40l-104 -253l6 -2l110 250z" />
    <glyph glyph-name="Ncaron" unicode="&#x147;" horiz-adv-x="665" 
d="M340 777l-152 136l-8 -8l160 -140l160 140l-8 8zM584 700v-683l-534 698v-715h11v678l534 -693v715h-11z" />
    <glyph glyph-name="ncaron" unicode="&#x148;" 
d="M95 460h-10v-460h10v460zM380 320v-320h10v320q0 67 -31 108.5t-102 41.5q-47 0 -85 -25t-60 -67.5t-22 -97.5h5q0 48 21.5 89t58.5 66t82 25q68 0 95.5 -39.5t27.5 -100.5zM238 542l-152 136l-8 -8l160 -140l160 140l-8 8z" />
    <glyph glyph-name="napostrophe" unicode="&#x149;" horiz-adv-x="615" 
d="M185 460h-10v-460h10v460zM470 320v-320h10v320q0 67 -31 108.5t-102 41.5q-47 0 -85 -25t-60 -67.5t-22 -97.5h5q0 48 21.5 89t58.5 66t82 25q68 0 95.5 -39.5t27.5 -100.5zM173 700l-93 -230h10l95 230h-12z" />
    <glyph glyph-name="Eng" unicode="&#x14a;" horiz-adv-x="725" 
d="M527 -220q42 0 65.5 20t33 52t9.5 66v782h-11v-683l-534 698v-715h11v678l524 -680v-80q0 -28 -8 -57.5t-29 -50t-61 -20.5q-28 0 -47 15t-31 30l-7 -7q11 -15 32 -31.5t53 -16.5z" />
    <glyph glyph-name="eng" unicode="&#x14b;" 
d="M282 -220q52 0 80 36t28 102v402q0 74 -34 112t-99 38q-59 0 -103.5 -39t-58.5 -103v132h-10v-460h10v280q0 49 22 90t59 65.5t81 24.5q61 0 92 -35.5t31 -104.5v-402q0 -60 -25.5 -94t-72.5 -34q-42 0 -78 45l-7 -7q18 -23 39.5 -35.5t45.5 -12.5z" />
    <glyph glyph-name="Omacron" unicode="&#x14c;" horiz-adv-x="774" 
d="M61 350q0 101 41.5 179t115.5 123t169 45q96 0 169.5 -45t115 -123t41.5 -179q0 -100 -41.5 -178.5t-115 -123.5t-169.5 -45q-95 0 -169 45t-115.5 123.5t-41.5 178.5zM50 350q0 -78 25 -143.5t70.5 -113.5t107 -74.5t134.5 -26.5t134.5 26.5t107 74.5t70.5 113.5
t25 143.5t-25 143.5t-70.5 113.5t-107 74.5t-134.5 26.5t-134.5 -26.5t-107 -74.5t-70.5 -113.5t-25 -143.5zM212 788h350v10h-350v-10z" />
    <glyph glyph-name="omacron" unicode="&#x14d;" horiz-adv-x="556" 
d="M45 230q0 -69 31 -123.5t83.5 -85.5t118.5 -31t119 31t83.5 85.5t30.5 123.5q0 70 -30.5 124t-83.5 85t-119 31t-118.5 -31t-83.5 -85t-31 -124zM55 230q0 67 29.5 119t80.5 81.5t114 29.5q62 0 112.5 -29.5t80 -81.5t29.5 -119t-29.5 -119t-80 -81.5t-112.5 -29.5
q-63 0 -114 29.5t-80.5 81.5t-29.5 119zM103 550h350v10h-350v-10z" />
    <glyph glyph-name="Obreve" unicode="&#x14e;" horiz-adv-x="774" 
d="M61 350q0 101 41.5 179t115.5 123t169 45q96 0 169.5 -45t115 -123t41.5 -179q0 -100 -41.5 -178.5t-115 -123.5t-169.5 -45q-95 0 -169 45t-115.5 123.5t-41.5 178.5zM50 350q0 -78 25 -143.5t70.5 -113.5t107 -74.5t134.5 -26.5t134.5 26.5t107 74.5t70.5 113.5
t25 143.5t-25 143.5t-70.5 113.5t-107 74.5t-134.5 26.5t-134.5 -26.5t-107 -74.5t-70.5 -113.5t-25 -143.5zM229 908q0 -34 17.5 -66.5t53 -53t87.5 -20.5q53 0 88 20.5t52.5 53t17.5 66.5h-10q0 -33 -18 -62.5t-51 -48.5t-79 -19t-79 19t-51 48.5t-18 62.5h-10z" />
    <glyph glyph-name="obreve" unicode="&#x14f;" horiz-adv-x="556" 
d="M45 230q0 -69 31 -123.5t83.5 -85.5t118.5 -31t119 31t83.5 85.5t30.5 123.5q0 70 -30.5 124t-83.5 85t-119 31t-118.5 -31t-83.5 -85t-31 -124zM55 230q0 67 29.5 119t80.5 81.5t114 29.5q62 0 112.5 -29.5t80 -81.5t29.5 -119t-29.5 -119t-80 -81.5t-112.5 -29.5
q-63 0 -114 29.5t-80.5 81.5t-29.5 119zM120 670q0 -34 17.5 -66.5t53 -53t87.5 -20.5q53 0 88 20.5t52.5 53t17.5 66.5h-10q0 -33 -18 -62.5t-51 -48.5t-79 -19t-79 19t-51 48.5t-18 62.5h-10z" />
    <glyph glyph-name="Ohungarumlaut" unicode="&#x150;" horiz-adv-x="774" 
d="M340 768l109 206l-10 5l-105 -208zM440 768l109 206l-10 5l-105 -208zM61 350q0 101 41.5 179t115.5 123t169 45q96 0 169.5 -45t115 -123t41.5 -179q0 -100 -41.5 -178.5t-115 -123.5t-169.5 -45q-95 0 -169 45t-115.5 123.5t-41.5 178.5zM50 350q0 -78 25 -143.5
t70.5 -113.5t107 -74.5t134.5 -26.5t134.5 26.5t107 74.5t70.5 113.5t25 143.5t-25 143.5t-70.5 113.5t-107 74.5t-134.5 26.5t-134.5 -26.5t-107 -74.5t-70.5 -113.5t-25 -143.5z" />
    <glyph glyph-name="ohungarumlaut" unicode="&#x151;" horiz-adv-x="556" 
d="M231 530l109 206l-10 5l-105 -208zM331 530l109 206l-10 5l-105 -208zM45 230q0 -69 31 -123.5t83.5 -85.5t118.5 -31t119 31t83.5 85.5t30.5 123.5q0 70 -30.5 124t-83.5 85t-119 31t-118.5 -31t-83.5 -85t-31 -124zM55 230q0 67 29.5 119t80.5 81.5t114 29.5
q62 0 112.5 -29.5t80 -81.5t29.5 -119t-29.5 -119t-80 -81.5t-112.5 -29.5q-63 0 -114 29.5t-80.5 81.5t-29.5 119z" />
    <glyph glyph-name="OE" unicode="&#x152;" horiz-adv-x="951" 
d="M517 385h333v10h-333v-10zM515 695v-690h11v690h-11zM871 10h-344h-24h-113q-72 0 -134 25t-108 70.5t-72 108t-26 136.5t25.5 136.5t72 108t108.5 70.5t134 25h116h17h347v10h-480q-76 0 -140.5 -25t-111 -71.5t-72.5 -111t-26 -142.5t26 -142.5t73 -111t111 -71.5
t140 -25h481v10z" />
    <glyph glyph-name="oe" unicode="&#x153;" horiz-adv-x="926" 
d="M870 250l-1 -21l10 -1q1 6 1.5 12.5t0.5 12.5q0 63 -30.5 112t-79 77t-103.5 28q-54 0 -98.5 -24t-74 -67t-39.5 -100q-2 -12 -3 -24t-1 -25q0 -64 26 -119t74.5 -88t115.5 -33q50 0 87.5 14.5t66 40.5t51.5 61l-8 7q-29 -49 -77.5 -81t-119.5 -32q-60 0 -107.5 29.5
t-75 82t-27.5 120.5v0q0 58 25.5 110t72.5 85t112 33q60 0 105.5 -30.5t71 -78.5t25.5 -101zM455 228h424v10h-424v-10zM45 230q0 -74 28 -128t75.5 -83t104.5 -29q53 0 99.5 29t76 83t29.5 128q0 75 -29.5 128.5t-76 82.5t-99.5 29q-57 0 -104.5 -29t-75.5 -82.5
t-28 -128.5zM55 230q0 71 26.5 122.5t72 79.5t102.5 28q50 0 94.5 -29t72.5 -81t28 -120t-28 -120t-72.5 -81t-94.5 -29q-57 0 -102.5 28t-72 80t-26.5 122z" />
    <glyph glyph-name="Racute" unicode="&#x154;" horiz-adv-x="468" 
d="M199 317l220 -317h14l-222 317h-12zM90 700v-700h11v700h-11zM92 689h113q66 0 116.5 -20t79.5 -60t29 -102q0 -61 -28.5 -102t-79.5 -61t-117 -20h-113v-10h113q68 0 121 21.5t84 64.5t31 107q0 65 -31 107.5t-84 64t-121 21.5h-113v-11zM363 925l-8 8l-170 -160l5 -5z
" />
    <glyph glyph-name="racute" unicode="&#x155;" horiz-adv-x="290" 
d="M95 460h-10v-460h10v460zM269 440l6 8q-13 9 -29.5 15.5t-33.5 6.5q-42 0 -69 -25t-40 -67.5t-13 -97.5h5q0 48 12.5 89t38.5 66t66 25q15 0 29.5 -5.5t27.5 -14.5zM316 687l-8 8l-170 -160l4 -5z" />
    <glyph glyph-name="uni0156" unicode="&#x156;" horiz-adv-x="468" 
d="M199 317l220 -317h14l-222 317h-12zM90 700v-700h11v700h-11zM92 689h113q66 0 116.5 -20t79.5 -60t29 -102q0 -61 -28.5 -102t-79.5 -61t-117 -20h-113v-10h113q68 0 121 21.5t84 64.5t31 107q0 65 -31 107.5t-84 64t-121 21.5h-113v-11zM258 -60l-104 -253l6 -2
l110 250z" />
    <glyph glyph-name="uni0157" unicode="&#x157;" horiz-adv-x="290" 
d="M95 460h-10v-460h10v460zM269 440l6 8q-13 9 -29.5 15.5t-33.5 6.5q-42 0 -69 -25t-40 -67.5t-13 -97.5h5q0 48 12.5 89t38.5 66t66 25q15 0 29.5 -5.5t27.5 -14.5zM97 -60l-105 -253l6 -2l110 250z" />
    <glyph glyph-name="Rcaron" unicode="&#x158;" horiz-adv-x="468" 
d="M199 317l220 -317h14l-222 317h-12zM90 700v-700h11v700h-11zM92 689h113q66 0 116.5 -20t79.5 -60t29 -102q0 -61 -28.5 -102t-79.5 -61t-117 -20h-113v-10h113q68 0 121 21.5t84 64.5t31 107q0 65 -31 107.5t-84 64t-121 21.5h-113v-11zM228 780l-152 136l-8 -8
l160 -140l160 140l-8 8z" />
    <glyph glyph-name="rcaron" unicode="&#x159;" horiz-adv-x="290" 
d="M95 460h-10v-460h10v460zM269 440l6 8q-13 9 -29.5 15.5t-33.5 6.5q-42 0 -69 -25t-40 -67.5t-13 -97.5h5q0 48 12.5 89t38.5 66t66 25q15 0 29.5 -5.5t27.5 -14.5zM180 542l-152 136l-8 -8l160 -140l160 140l-8 8z" />
    <glyph glyph-name="Sacute" unicode="&#x15a;" horiz-adv-x="488" 
d="M50 197l-10 -4q15 -48 41.5 -94.5t69 -76.5t104.5 -30q70 0 111 25t59 67t18 91q0 41 -14.5 72t-39 54t-55 39.5t-61.5 27.5q-42 16 -84 39t-70 58t-28 85q0 43 22 76t58.5 52t81.5 19q53 0 88.5 -23.5t57 -57.5t30.5 -68l10 2q-9 36 -31 72.5t-60 61t-95 24.5
q-47 0 -86.5 -19.5t-63 -55t-23.5 -83.5q0 -40 17.5 -71t46 -54t61 -39t62.5 -27q38 -14 76 -37.5t63.5 -59t25.5 -87.5q0 -49 -17 -88t-56 -61.5t-104 -22.5q-45 0 -79 17.5t-58.5 46.5t-41 63t-26.5 67zM408 925l-8 8l-170 -160l6 -5z" />
    <glyph glyph-name="sacute" unicode="&#x15b;" horiz-adv-x="403" 
d="M50 147l-10 -3q7 -37 24 -72.5t49.5 -58.5t84.5 -23q59 0 96.5 34t37.5 93q0 36 -18.5 60t-48 39t-62.5 24q-35 10 -63.5 22t-45.5 34.5t-17 62.5q0 49 35.5 74t84.5 25q36 0 60.5 -13t40 -34.5t23.5 -45.5l10 3q-9 26 -25 48.5t-42.5 37t-66.5 14.5q-36 0 -65.5 -12.5
t-47 -36.5t-17.5 -60q0 -43 17.5 -67t47 -37t65.5 -24q34 -10 62.5 -24t45.5 -35.5t17 -54.5q0 -54 -35 -85.5t-89 -31.5q-48 0 -78.5 22t-46.5 56t-23 69zM352 687l-8 8l-170 -160l6 -5z" />
    <glyph glyph-name="Scircumflex" unicode="&#x15c;" horiz-adv-x="488" 
d="M50 197l-10 -4q15 -48 41.5 -94.5t69 -76.5t104.5 -30q70 0 111 25t59 67t18 91q0 41 -14.5 72t-39 54t-55 39.5t-61.5 27.5q-42 16 -84 39t-70 58t-28 85q0 43 22 76t58.5 52t81.5 19q53 0 88.5 -23.5t57 -57.5t30.5 -68l10 2q-9 36 -31 72.5t-60 61t-95 24.5
q-47 0 -86.5 -19.5t-63 -55t-23.5 -83.5q0 -40 17.5 -71t46 -54t61 -39t62.5 -27q38 -14 76 -37.5t63.5 -59t25.5 -87.5q0 -49 -17 -88t-56 -61.5t-104 -22.5q-45 0 -79 17.5t-58.5 46.5t-41 63t-26.5 67zM253 903l153 -135l7 7l-160 140l-160 -140l7 -7z" />
    <glyph glyph-name="scircumflex" unicode="&#x15d;" horiz-adv-x="403" 
d="M50 147l-10 -3q7 -37 24 -72.5t49.5 -58.5t84.5 -23q59 0 96.5 34t37.5 93q0 36 -18.5 60t-48 39t-62.5 24q-35 10 -63.5 22t-45.5 34.5t-17 62.5q0 49 35.5 74t84.5 25q36 0 60.5 -13t40 -34.5t23.5 -45.5l10 3q-9 26 -25 48.5t-42.5 37t-66.5 14.5q-36 0 -65.5 -12.5
t-47 -36.5t-17.5 -60q0 -43 17.5 -67t47 -37t65.5 -24q34 -10 62.5 -24t45.5 -35.5t17 -54.5q0 -54 -35 -85.5t-89 -31.5q-48 0 -78.5 22t-46.5 56t-23 69zM197 665l153 -135l7 7l-160 140l-160 -140l7 -7z" />
    <glyph glyph-name="Scedilla" unicode="&#x15e;" horiz-adv-x="488" 
d="M50 197l-10 -4q15 -48 41.5 -94.5t69 -76.5t104.5 -30q70 0 111 25t59 67t18 91q0 41 -14.5 72t-39 54t-55 39.5t-61.5 27.5q-42 16 -84 39t-70 58t-28 85q0 43 22 76t58.5 52t81.5 19q53 0 88.5 -23.5t57 -57.5t30.5 -68l10 2q-9 36 -31 72.5t-60 61t-95 24.5
q-47 0 -86.5 -19.5t-63 -55t-23.5 -83.5q0 -40 17.5 -71t46 -54t61 -39t62.5 -27q38 -14 76 -37.5t63.5 -59t25.5 -87.5q0 -49 -17 -88t-56 -61.5t-104 -22.5q-45 0 -79 17.5t-58.5 46.5t-41 63t-26.5 67zM249 -1l-55 -88q17 12 38 19t43 7t42.5 -15.5t20.5 -48.5
q0 -42 -31 -63t-66 -21q-25 0 -43 8t-39 26l-7 -6q21 -21 41 -29.5t48 -8.5t52 11t39.5 32t15.5 51q0 25 -11.5 41t-28 24.5t-33.5 8.5q-25 0 -37.5 -6t-32.5 -18l56 76h-12z" />
    <glyph glyph-name="scedilla" unicode="&#x15f;" horiz-adv-x="403" 
d="M50 147l-10 -3q7 -37 24 -72.5t49.5 -58.5t84.5 -23q59 0 96.5 34t37.5 93q0 36 -18.5 60t-48 39t-62.5 24q-35 10 -63.5 22t-45.5 34.5t-17 62.5q0 49 35.5 74t84.5 25q54 0 82.5 -28.5t41.5 -64.5l10 3q-13 38 -43.5 69t-90.5 31q-36 0 -65.5 -12.5t-47 -36.5
t-17.5 -60q0 -43 17.5 -67t47 -37t65.5 -24q34 -10 62.5 -24t45.5 -35.5t17 -54.5q0 -54 -35 -85.5t-89 -31.5q-48 0 -78.5 22t-46.5 56t-23 69zM192 -3l-55 -88q17 12 38 19t43 7t42.5 -15.5t20.5 -48.5q0 -42 -31 -63t-66 -21q-25 0 -43 8t-39 26l-7 -6q21 -21 41 -29.5
t48 -8.5t52 11t39.5 32t15.5 51q0 25 -11.5 41t-28 24.5t-33.5 8.5q-25 0 -37.5 -6t-32.5 -18l56 76h-12z" />
    <glyph glyph-name="Scaron" unicode="&#x160;" horiz-adv-x="488" 
d="M50 197l-10 -4q15 -48 41.5 -94.5t69 -76.5t104.5 -30q70 0 111 25t59 67t18 91q0 41 -14.5 72t-39 54t-55 39.5t-61.5 27.5q-42 16 -84 39t-70 58t-28 85q0 43 22 76t58.5 52t81.5 19q53 0 88.5 -23.5t57 -57.5t30.5 -68l10 2q-9 36 -31 72.5t-60 61t-95 24.5
q-47 0 -86.5 -19.5t-63 -55t-23.5 -83.5q0 -40 17.5 -71t46 -54t61 -39t62.5 -27q38 -14 76 -37.5t63.5 -59t25.5 -87.5q0 -49 -17 -88t-56 -61.5t-104 -22.5q-45 0 -79 17.5t-58.5 46.5t-41 63t-26.5 67zM253 790l-152 136l-8 -8l160 -140l160 140l-8 8z" />
    <glyph glyph-name="scaron" unicode="&#x161;" horiz-adv-x="403" 
d="M50 147l-10 -3q7 -37 24 -72.5t49.5 -58.5t84.5 -23q59 0 96.5 34t37.5 93q0 36 -18.5 60t-48 39t-62.5 24q-35 10 -63.5 22t-45.5 34.5t-17 62.5q0 49 35.5 74t84.5 25q36 0 60.5 -13t40 -34.5t23.5 -45.5l10 3q-9 26 -25 48.5t-42.5 37t-66.5 14.5q-36 0 -65.5 -12.5
t-47 -36.5t-17.5 -60q0 -43 17.5 -67t47 -37t65.5 -24q34 -10 62.5 -24t45.5 -35.5t17 -54.5q0 -54 -35 -85.5t-89 -31.5q-48 0 -78.5 22t-46.5 56t-23 69zM197 542l-152 136l-8 -8l160 -140l160 140l-8 8z" />
    <glyph glyph-name="uni0162" unicode="&#x162;" horiz-adv-x="431" 
d="M210 0l-55 -88q17 12 38 19t43 7t42.5 -15.5t20.5 -48.5q0 -42 -31 -63t-66 -21q-25 0 -43 8t-39 26l-7 -6q21 -21 41 -29.5t48 -8.5t52 11t39.5 32t15.5 51q0 25 -11.5 41t-28 24.5t-33.5 8.5q-25 0 -37.5 -6t-32.5 -18l56 76h-12zM20 689h190v-689h11v689h190v11h-391
v-11z" />
    <glyph glyph-name="uni0163" unicode="&#x163;" horiz-adv-x="190" 
d="M89 7l-55 -88q17 12 38 19t43 7t42.5 -15.5t20.5 -48.5q0 -42 -31 -63t-66 -21q-25 0 -43 8t-39 26l-7 -6q21 -21 41 -29.5t48 -8.5t52 11t39.5 32t15.5 51q0 25 -11.5 41t-28 24.5t-33.5 8.5q-25 0 -37.5 -6t-32.5 -18l56 76h-12zM15 460v-10h160v10h-160zM90 620v-620
h10v620h-10z" />
    <glyph glyph-name="Tcaron" unicode="&#x164;" horiz-adv-x="431" 
d="M20 689h190v-689h11v689h190v11h-391v-11zM216 780l-152 136l-8 -8l160 -140l160 140l-8 8z" />
    <glyph glyph-name="tcaron" unicode="&#x165;" horiz-adv-x="280" 
d="M15 460v-10h160v10h-160zM90 620v-620h10v620h-10zM274 775l-105 -253l6 -2l110 250z" />
    <glyph glyph-name="Tbar" unicode="&#x166;" horiz-adv-x="431" 
d="M55 445h315v10h-315v-10zM20 689h190v-689h11v689h190v11h-391v-11z" />
    <glyph glyph-name="tbar" unicode="&#x167;" horiz-adv-x="240" 
d="M20 270h200v10h-200v-10zM15 460v-10h160v10h-160zM90 620v-620h10v620h-10z" />
    <glyph glyph-name="Utilde" unicode="&#x168;" horiz-adv-x="576" 
d="M85 700v-480q0 -52 12.5 -94.5t38 -72.5t63.5 -46.5t89 -16.5t89 16.5t63.5 46.5t38 72.5t12.5 94.5v480h-11v-480q0 -102 -51 -160.5t-141 -58.5t-141 58.5t-51 160.5v480h-11zM163 769l9 -1q0 13 5 24.5t17.5 19t32.5 7.5q23 0 39.5 -11.5t35.5 -23.5t46 -12
q15 0 27 5.5t21.5 17.5t17.5 30l-9 3q-11 -24 -22.5 -36t-33.5 -12q-20 0 -34.5 7t-27 16.5t-27 16.5t-35.5 7q-22 0 -36 -8.5t-20 -21.5t-6 -28z" />
    <glyph glyph-name="utilde" unicode="&#x169;" 
d="M380 0h10v460h-10v-460zM95 150v310h-10v-310q0 -74 31 -117t102 -43q48 0 85.5 25t59.5 67.5t22 97.5h-5q0 -47 -21.5 -88.5t-58 -66.5t-82.5 -25q-67 0 -95 41t-28 109zM112 531l9 -1q0 13 5 24.5t17.5 19t32.5 7.5q23 0 39.5 -11.5t35.5 -23.5t46 -12q15 0 27 5.5
t21.5 17.5t17.5 30l-9 3q-11 -24 -22.5 -36t-33.5 -12q-20 0 -34.5 7t-27 16.5t-27 16.5t-35.5 7q-22 0 -36 -8.5t-20 -21.5t-6 -28z" />
    <glyph glyph-name="Umacron" unicode="&#x16a;" horiz-adv-x="576" 
d="M85 700v-480q0 -52 12.5 -94.5t38 -72.5t63.5 -46.5t89 -16.5t89 16.5t63.5 46.5t38 72.5t12.5 94.5v480h-11v-480q0 -102 -51 -160.5t-141 -58.5t-141 58.5t-51 160.5v480h-11zM113 768h350v10h-350v-10z" />
    <glyph glyph-name="umacron" unicode="&#x16b;" 
d="M380 0h10v460h-10v-460zM95 150v310h-10v-310q0 -74 31 -117t102 -43q48 0 85.5 25t59.5 67.5t22 97.5h-5q0 -47 -21.5 -88.5t-58 -66.5t-82.5 -25q-67 0 -95 41t-28 109zM63 530h350v10h-350v-10z" />
    <glyph glyph-name="Ubreve" unicode="&#x16c;" horiz-adv-x="576" 
d="M85 700v-480q0 -52 12.5 -94.5t38 -72.5t63.5 -46.5t89 -16.5t89 16.5t63.5 46.5t38 72.5t12.5 94.5v480h-11v-480q0 -102 -51 -160.5t-141 -58.5t-141 58.5t-51 160.5v480h-11zM130 908q0 -34 17.5 -66.5t53 -53t87.5 -20.5q53 0 88 20.5t52.5 53t17.5 66.5h-10
q0 -33 -18 -62.5t-51 -48.5t-79 -19t-79 19t-51 48.5t-18 62.5h-10z" />
    <glyph glyph-name="ubreve" unicode="&#x16d;" 
d="M380 0h10v460h-10v-460zM95 150v310h-10v-310q0 -74 31 -117t102 -43q48 0 85.5 25t59.5 67.5t22 97.5h-5q0 -47 -21.5 -88.5t-58 -66.5t-82.5 -25q-67 0 -95 41t-28 109zM80 670q0 -34 17.5 -66.5t53 -53t87.5 -20.5q53 0 88 20.5t52.5 53t17.5 66.5h-10
q0 -33 -18 -62.5t-51 -48.5t-79 -19t-79 19t-51 48.5t-18 62.5h-10z" />
    <glyph glyph-name="Uring" unicode="&#x16e;" horiz-adv-x="576" 
d="M85 700v-480q0 -52 12.5 -94.5t38 -72.5t63.5 -46.5t89 -16.5t89 16.5t63.5 46.5t38 72.5t12.5 94.5v480h-11v-480q0 -102 -51 -160.5t-141 -58.5t-141 58.5t-51 160.5v480h-11zM186 868q0 -45 31.5 -72.5t70.5 -27.5t70.5 27.5t31.5 72.5t-31.5 72.5t-70.5 27.5
t-70.5 -27.5t-31.5 -72.5zM196 868q0 40 28 65t64 25t64 -25t28 -65t-28 -65t-64 -25t-64 25t-28 65z" />
    <glyph glyph-name="uring" unicode="&#x16f;" 
d="M380 0h10v460h-10v-460zM95 150v310h-10v-310q0 -74 31 -117t102 -43q48 0 85.5 25t59.5 67.5t22 97.5h-5q0 -47 -21.5 -88.5t-58 -66.5t-82.5 -25q-67 0 -95 41t-28 109zM136 630q0 -45 31.5 -72.5t70.5 -27.5t70.5 27.5t31.5 72.5t-31.5 72.5t-70.5 27.5t-70.5 -27.5
t-31.5 -72.5zM146 630q0 40 28 65t64 25t64 -25t28 -65t-28 -65t-64 -25t-64 25t-28 65z" />
    <glyph glyph-name="Uhungarumlaut" unicode="&#x170;" horiz-adv-x="576" 
d="M241 768l109 206l-10 5l-105 -208zM341 768l109 206l-10 5l-105 -208zM85 700v-480q0 -52 12.5 -94.5t38 -72.5t63.5 -46.5t89 -16.5t89 16.5t63.5 46.5t38 72.5t12.5 94.5v480h-11v-480q0 -102 -51 -160.5t-141 -58.5t-141 58.5t-51 160.5v480h-11z" />
    <glyph glyph-name="uhungarumlaut" unicode="&#x171;" 
d="M191 530l109 206l-10 5l-105 -208zM291 530l109 206l-10 5l-105 -208zM95 150v310h-10v-310q0 -74 31 -117t102 -43q60 0 104.5 39.5t57.5 102.5v-132h10v460h-10v-280q0 -47 -21.5 -88t-58 -66t-82.5 -25q-67 0 -95 40.5t-28 108.5z" />
    <glyph glyph-name="Uogonek" unicode="&#x172;" horiz-adv-x="576" 
d="M338 -182q-11 -13 -36 -25t-55 -12q-37 0 -65 18t-28 52q0 29 23.5 54.5t58 47.5t68.5 38l-7 10q-35 -18 -70.5 -39.5t-59 -48.5t-23.5 -62q0 -24 12.5 -42t35.5 -28t55 -10t59.5 12.5t38.5 27.5zM85 700v-480q0 -52 12.5 -94.5t38 -72.5t63.5 -46.5t89 -16.5t89 16.5
t63.5 46.5t38 72.5t12.5 94.5v480h-11v-480q0 -102 -51 -160.5t-141 -58.5t-141 58.5t-51 160.5v480h-11z" />
    <glyph glyph-name="uogonek" unicode="&#x173;" 
d="M424 -173q-11 -13 -36 -25t-55 -12q-37 0 -65 18t-28 52q0 29 23.5 54.5t58 47.5t68.5 38l-7 10q-35 -18 -70.5 -39.5t-59 -48.5t-23.5 -62q0 -24 12.5 -42t35.5 -28t55 -10t59.5 12.5t38.5 27.5zM95 150v310h-10v-310q0 -74 31 -117t102 -43q60 0 104.5 39.5t57.5 102.5
v-132h10v460h-10v-280q0 -47 -21.5 -88t-58 -66t-82.5 -25q-67 0 -95 40.5t-28 108.5z" />
    <glyph glyph-name="Wcircumflex" unicode="&#x174;" horiz-adv-x="950" 
d="M695 26l-220 689l-220 -689l-224 674h-11l235 -715l220 692l220 -692l235 715h-11zM475 910l153 -135l7 7l-160 140l-160 -140l7 -7z" />
    <glyph glyph-name="wcircumflex" unicode="&#x175;" horiz-adv-x="620" 
d="M15 460l147 -475l143 456l153 -456l147 475h-10l-137 -442l-153 457l-143 -457l-137 442h-10zM305 670l153 -135l7 7l-160 140l-160 -140l7 -7z" />
    <glyph glyph-name="Ycircumflex" unicode="&#x176;" horiz-adv-x="507" 
d="M479 700l-231 -419l-220 419h-13l228 -434v-266h11v267l238 433h-13zM254 903l153 -135l7 7l-160 140l-160 -140l7 -7z" />
    <glyph glyph-name="ycircumflex" unicode="&#x177;" horiz-adv-x="425" 
d="M415 460h-11l-194 -440h11l-199 440h-12l200 -440l-106 -240h11zM213 665l153 -135l7 7l-160 140l-160 -140l7 -7z" />
    <glyph glyph-name="Ydieresis" unicode="&#x178;" horiz-adv-x="507" 
d="M152 779q0 -5 4 -8t8 -3q5 0 8 3t3 8t-3 8t-8 3q-4 0 -8 -3t-4 -8zM332 779q0 -5 4 -8t8 -3q5 0 8 3t3 8t-3 8t-8 3q-4 0 -8 -3t-4 -8zM479 700l-231 -419l-220 419h-13l228 -434v-266h11v267l238 433h-13z" />
    <glyph glyph-name="Zacute" unicode="&#x179;" horiz-adv-x="535" 
d="M40 689h458l-478 -689h490v11h-468l478 689h-480v-11zM426 925l-8 8l-170 -160l4 -5z" />
    <glyph glyph-name="zacute" unicode="&#x17a;" horiz-adv-x="430" 
d="M379 450l-359 -450h390v10h-369l359 450h-360v-10h339zM366 687l-8 8l-170 -160l4 -5z" />
    <glyph glyph-name="Zdotaccent" unicode="&#x17b;" horiz-adv-x="535" 
d="M40 689h458l-478 -689h490v11h-468l478 689h-480v-11zM269 779q0 -5 3.5 -8t7.5 -3q5 0 8 3t3 8t-3 8t-8 3q-4 0 -7.5 -3t-3.5 -8z" />
    <glyph glyph-name="zdotaccent" unicode="&#x17c;" horiz-adv-x="430" 
d="M379 450l-359 -450h390v10h-369l359 450h-360v-10h339zM209 571q0 -5 3.5 -8t7.5 -3q5 0 8 3t3 8t-3 8t-8 3q-4 0 -7.5 -3t-3.5 -8z" />
    <glyph glyph-name="Zcaron" unicode="&#x17d;" horiz-adv-x="535" 
d="M40 689h458l-478 -689h490v11h-468l478 689h-480v-11zM280 780l-152 136l-8 -8l160 -140l160 140l-8 8z" />
    <glyph glyph-name="zcaron" unicode="&#x17e;" horiz-adv-x="430" 
d="M220 542l-152 136l-8 -8l160 -140l160 140l-8 8zM380 450l-360 -450h390v10h-370l360 450h-360v-10h340z" />
    <glyph glyph-name="florin" unicode="&#x192;" horiz-adv-x="600" 
d="M172 -200q29 0 51.5 17t36 48t15.5 72l29 513h81l1 10h-82l11 190q3 59 29 93t66 34q20 0 37 -10t39 -34l6 7q-22 25 -42 36t-43 11q-43 0 -71.5 -37.5t-31.5 -99.5l-10 -190h-92l-1 -10h91l-28 -513q-3 -58 -28.5 -92.5t-66.5 -34.5q-19 0 -36 10t-40 34l-6 -7
q23 -25 43 -36t42 -11z" />
    <glyph glyph-name="uni0212" unicode="&#x212;" horiz-adv-x="468" 
d="M199 317l220 -317h14l-222 317h-12zM90 700v-700h11v700h-11zM92 689h113q66 0 116.5 -20t79.5 -60t29 -101q0 -62 -28.5 -103t-79.5 -61t-117 -20h-113v-10h113q68 0 121 21.5t84 64.5t31 107q0 65 -31 107.5t-84 64t-121 21.5h-113v-11zM100 768q0 35 17.5 67t53 52.5
t87.5 20.5q53 0 88 -20.5t52.5 -52.5t17.5 -67h-10q0 33 -18 62.5t-51 48.5t-79 19t-79 -19t-51 -48.5t-18 -62.5h-10z" />
    <glyph glyph-name="uni0213" unicode="&#x213;" horiz-adv-x="290" 
d="M95 460h-10v-460h10v460zM269 440l6 8q-13 9 -29.5 15.5t-33.5 6.5q-42 0 -69 -25t-40 -67.5t-13 -97.5h5q0 48 12.5 89t38.5 66t66 25q15 0 29.5 -5.5t27.5 -14.5zM22 550q0 35 17.5 67t53 52.5t87.5 20.5q53 0 88 -20.5t52.5 -52.5t17.5 -67h-10q0 33 -18 62.5
t-51 48.5t-79 19t-79 -19t-51 -48.5t-18 -62.5h-10z" />
    <glyph glyph-name="uni0218" unicode="&#x218;" horiz-adv-x="488" 
d="M50 197l-10 -4q15 -48 41.5 -94.5t69 -76.5t104.5 -30q70 0 111 25t59 67t18 91q0 41 -14.5 72t-39 54t-55 39.5t-61.5 27.5q-42 16 -84 39t-70 58t-28 85q0 43 22 76t58.5 52t81.5 19q53 0 88.5 -23.5t57 -57.5t30.5 -68l10 2q-9 36 -31 72.5t-60 61t-95 24.5
q-47 0 -86.5 -19.5t-63 -55t-23.5 -83.5q0 -40 17.5 -71t46 -54t61 -39t62.5 -27q38 -14 76 -37.5t63.5 -59t25.5 -87.5q0 -49 -17 -88t-56 -61.5t-104 -22.5q-45 0 -79 17.5t-58.5 46.5t-41 63t-26.5 67zM302 -68l-105 -253l6 -2l110 250z" />
    <glyph glyph-name="uni0219" unicode="&#x219;" horiz-adv-x="403" 
d="M50 147l-10 -3q7 -37 24 -72.5t49.5 -58.5t84.5 -23q59 0 96.5 34t37.5 93q0 36 -18.5 60t-48 39t-62.5 24q-35 10 -63.5 22t-45.5 34.5t-17 62.5q0 49 35.5 74t84.5 25q36 0 60.5 -13t40 -34.5t23.5 -45.5l10 3q-9 26 -25 48.5t-42.5 37t-66.5 14.5q-36 0 -65.5 -12.5
t-47 -36.5t-17.5 -60q0 -43 17.5 -67t47 -37t65.5 -24q34 -10 62.5 -24t45.5 -35.5t17 -54.5q0 -54 -35 -85.5t-89 -31.5q-48 0 -78.5 22t-46.5 56t-23 69zM245 -70l-105 -253l6 -2l110 250z" />
    <glyph glyph-name="uni021A" unicode="&#x21a;" horiz-adv-x="431" 
d="M20 689h190v-689h11v689h190v11h-391v-11zM263 -60l-105 -253l6 -2l110 250z" />
    <glyph glyph-name="uni021B" unicode="&#x21b;" horiz-adv-x="190" 
d="M15 460v-10h160v10h-160zM90 620v-620h10v620h-10zM142 -60l-105 -253l6 -2l110 250z" />
    <glyph glyph-name="uni0237" unicode="&#x237;" horiz-adv-x="180" 
d="M-96 -165l-7 -7q8 -10 19.5 -21t28 -19t37.5 -8q42 0 65.5 20t33 52t9.5 66v542h-10v-542q0 -28 -8 -57.5t-29 -50t-61 -20.5q-28 0 -47 15t-31 30z" />
    <glyph glyph-name="circumflex" unicode="&#x2c6;" horiz-adv-x="480" 
d="M240 718l153 -135l7 7l-160 140l-160 -140l7 -7z" />
    <glyph glyph-name="caron" unicode="&#x2c7;" horiz-adv-x="480" 
d="M240 582l-152 136l-8 -8l160 -140l160 140l-8 8z" />
    <glyph glyph-name="breve" unicode="&#x2d8;" horiz-adv-x="546" 
d="M115 850q0 -34 17.5 -66.5t53 -53t87.5 -20.5q53 0 88 20.5t52.5 53t17.5 66.5h-10q0 -33 -18 -62.5t-51 -48.5t-79 -19t-79 19t-51 48.5t-18 62.5h-10z" />
    <glyph glyph-name="dotaccent" unicode="&#x2d9;" horiz-adv-x="242" 
d="M110 751q0 -5 3.5 -8t7.5 -3q5 0 8 3t3 8t-3 8t-8 3q-4 0 -7.5 -3t-3.5 -8z" />
    <glyph glyph-name="ring" unicode="&#x2da;" horiz-adv-x="278" 
d="M37 785q0 -45 31.5 -72.5t70.5 -27.5t70.5 27.5t31.5 72.5t-31.5 72.5t-70.5 27.5t-70.5 -27.5t-31.5 -72.5zM47 785q0 40 28 65t64 25t64 -25t28 -65t-28 -65t-64 -25t-64 25t-28 65z" />
    <glyph glyph-name="ogonek" unicode="&#x2db;" horiz-adv-x="250" 
d="M210 -173q-11 -13 -36 -25t-55 -12q-37 0 -65 18t-28 52q0 29 23.5 54.5t58 47.5t68.5 38l-7 10q-35 -18 -70.5 -39.5t-59 -48.5t-23.5 -62q0 -24 12.5 -42t35.5 -28t55 -10t59.5 12.5t38.5 27.5z" />
    <glyph glyph-name="tilde" unicode="&#x2dc;" horiz-adv-x="530" 
d="M142 649l9 -1q0 13 5 24.5t17.5 19t32.5 7.5q23 0 39.5 -11.5t35.5 -23.5t46 -12q15 0 27 5.5t21.5 17.5t17.5 30l-9 3q-11 -24 -22.5 -36t-33.5 -12q-20 0 -34.5 7t-27 16.5t-27 16.5t-35.5 7q-22 0 -36 -8.5t-20 -21.5t-6 -28z" />
    <glyph glyph-name="hungarumlaut" unicode="&#x2dd;" horiz-adv-x="0" 
d="M6 529l109 206l-10 5l-105 -208zM106 529l109 206l-10 5l-105 -208z" />
    <glyph glyph-name="gravecomb" unicode="&#x300;" horiz-adv-x="0" 
d="M173 535l5 5l-170 160l-8 -8z" />
    <glyph glyph-name="acutecomb" unicode="&#x301;" horiz-adv-x="0" 
d="M20 535l173 157l-8 8l-170 -160z" />
    <glyph glyph-name="uni0302" unicode="&#x302;" horiz-adv-x="0" 
d="M7 583l155 137h-4l155 -137l7 7l-160 140l-160 -140z" />
    <glyph glyph-name="tildecomb" unicode="&#x303;" horiz-adv-x="0" 
d="M9 648q0 15 7 26.5t19.5 18t28.5 6.5q24 0 41 -11.5t35 -23.5t45 -12q16 0 28 5.5t21 17.5t17 30l-9 3q-11 -24 -22 -36t-34 -12q-19 0 -33.5 7t-27 16.5t-27.5 16.5t-36 7q-22 0 -35.5 -8.5t-20 -21.5t-6.5 -28z" />
    <glyph glyph-name="uni0304" unicode="&#x304;" horiz-adv-x="0" 
d="M0 665h350v10h-350v-10z" />
    <glyph glyph-name="uni0306" unicode="&#x306;" horiz-adv-x="0" 
d="M158 585q46 0 81.5 15.5t56 42.5t20.5 62h-10q0 -31 -19.5 -55.5t-53 -39t-75.5 -14.5t-75.5 14.5t-53 39t-19.5 55.5h-10q0 -35 20.5 -62t56 -42.5t81.5 -15.5z" />
    <glyph glyph-name="uni0307" unicode="&#x307;" horiz-adv-x="0" 
d="M11 654q5 0 8 3.5t3 7.5q0 5 -3 8t-8 3q-4 0 -7.5 -3t-3.5 -8q0 -4 3.5 -7.5t7.5 -3.5z" />
    <glyph glyph-name="uni0308" unicode="&#x308;" horiz-adv-x="0" 
d="M11 618q5 0 8 3.5t3 7.5q0 5 -3 8t-8 3q-4 0 -7.5 -3t-3.5 -8q0 -4 3.5 -7.5t7.5 -3.5zM211 618q5 0 8 3.5t3 7.5q0 5 -3 8t-8 3q-4 0 -7.5 -3t-3.5 -8q0 -4 3.5 -7.5t7.5 -3.5z" />
    <glyph glyph-name="uni030A" unicode="&#x30a;" horiz-adv-x="0" 
d="M102 530q28 0 51 13.5t37 36t14 50.5t-14 50.5t-37 36t-51 13.5q-42 0 -72 -29t-30 -71t30 -71t72 -29zM102 540q-38 0 -65 26.5t-27 63.5q0 38 27 64t65 26t65 -26t27 -63q0 -38 -27 -64.5t-65 -26.5z" />
    <glyph glyph-name="uni030B" unicode="&#x30b;" horiz-adv-x="0" 
d="M6 529l109 206l-10 5l-105 -208zM106 529l109 206l-10 5l-105 -208z" />
    <glyph glyph-name="uni030C" unicode="&#x30c;" horiz-adv-x="0" 
d="M160 583l160 140l-7 7l-155 -137h4l-155 137l-7 -7z" />
    <glyph glyph-name="uni0312" unicode="&#x312;" horiz-adv-x="0" 
d="M11 519l105 253l-6 2l-110 -250z" />
    <glyph glyph-name="uni0326" unicode="&#x326;" horiz-adv-x="0" 
d="M4 -210l83 187l-8 4l-79 -190z" />
    <glyph glyph-name="uni0327" unicode="&#x327;" horiz-adv-x="0" 
d="M89 -220q47 0 78 27t31 67q0 32 -21 53t-54 21q-19 0 -40 -7t-31 -18l10 3l45 74h-10l-55 -88q17 12 39.5 19t41.5 7q29 0 46 -17t17 -47q0 -37 -27 -60.5t-70 -23.5q-25 0 -44.5 9t-36.5 27l-8 -8q20 -19 42 -28.5t47 -9.5z" />
    <glyph glyph-name="uni0328" unicode="&#x328;" horiz-adv-x="0" 
d="M103 -220q32 0 59.5 12.5t38.5 27.5l-7 7q-11 -13 -36 -25t-55 -12q-37 0 -65 18t-28 52q0 29 23.5 54.5t58 47.5t68.5 38l-7 10q-35 -18 -70.5 -39.5t-59 -48.5t-23.5 -62q0 -24 12.5 -42t35.5 -28t55 -10z" />
    <glyph glyph-name="uni0394" unicode="&#x394;" horiz-adv-x="600" 
d="M36 0l262 726l262 -726h-524zM52 9h494l-248 685z" />
    <glyph glyph-name="uni03A9" unicode="&#x3a9;" horiz-adv-x="600" 
d="M66 0v8h167q-47 32 -84 82t-58.5 108t-21.5 114q0 71 30.5 126.5t82.5 87.5t118 32t118 -32t82 -87.5t30 -126.5q0 -56 -21.5 -114t-58.5 -108t-84 -82h168v-8h-196v2q52 26 93 76.5t65.5 112t24.5 121.5q0 68 -29 122t-79 85t-113 31t-113.5 -31t-79.5 -85t-29 -122
q0 -60 24.5 -121.5t66.5 -111.5t93 -77v-2h-196z" />
    <glyph glyph-name="uni03BC" unicode="&#x3bc;" 
d="M95 460h-10v-780h10v394q13 -40 42.5 -62t80.5 -22q60 0 104.5 39.5t57.5 102.5v-132h10v460h-10v-280q0 -47 -21.5 -88.5t-58 -66.5t-82.5 -25q-67 0 -95 41t-28 109v310z" />
    <glyph glyph-name="pi" unicode="&#x3c0;" horiz-adv-x="470" 
d="M90 450v-450h10v450h-10zM30 460v-10h400v10h-400zM340 450v-329q0 -54 4.5 -82t18 -38t40.5 -10v10q-25 0 -36 10t-14 36t-3 74v329h-10z" />
    <glyph glyph-name="uni0400" unicode="&#x400;" horiz-adv-x="550" 
d="M92 0h338v10h-338v-10zM92 690h338v10h-338v-10zM92 384h318v10h-318v-10zM90 700v-700h11v700h-11zM125 952l173 -157l5 5l-170 160z" />
    <glyph glyph-name="uni0401" unicode="&#x401;" horiz-adv-x="550" 
d="M92 0h338v10h-338v-10zM92 690h338v10h-338v-10zM92 384h318v10h-318v-10zM90 700v-700h11v700h-11zM345 854q0 -5 3.5 -8t7.5 -3q5 0 8 3t3 8t-3 8t-8 3q-4 0 -7.5 -3t-3.5 -8zM145 854q0 -5 3.5 -8t7.5 -3q5 0 8 3t3 8t-3 8t-8 3q-4 0 -7.5 -3t-3.5 -8z" />
    <glyph glyph-name="uni0403" unicode="&#x403;" horiz-adv-x="435" 
d="M80 700v-700h10v690h335v10h-345zM386 952l-8 8l-170 -160l5 -5z" />
    <glyph glyph-name="uni040C" unicode="&#x40c;" horiz-adv-x="565" 
d="M85 700v-700h11v700h-11zM408 700l-314 -328l328 -372h17l-330 372l315 328h-16zM446 952l-8 8l-170 -160l5 -5z" />
    <glyph glyph-name="uni040D" unicode="&#x40d;" horiz-adv-x="725" 
d="M635 717v18l-545 -752v-18zM100 700h-10v-735l10 22v713zM635 735l-10 -20v-715h10v735zM190 927l173 -157l5 5l-170 160z" />
    <glyph glyph-name="uni040E" unicode="&#x40e;" horiz-adv-x="480" 
d="M480 700h-10l-221 -470h4l-243 470h-10l246 -476l-105 -224h10zM82 908q0 -34 17.5 -66.5t53 -53t87.5 -20.5q53 0 88 20.5t52.5 53t17.5 66.5h-10q0 -33 -18 -62.5t-51 -48.5t-79 -19t-79 19t-51 48.5t-18 62.5h-10z" />
    <glyph glyph-name="uni0410" unicode="&#x410;" horiz-adv-x="660" 
d="M129 272h343v10h-343v-10zM300 688l165 -412l1 -3l107 -273h12l-285 715l-285 -715h12l108 273l1 4z" />
    <glyph glyph-name="uni0411" unicode="&#x411;" horiz-adv-x="508" 
d="M87 410h143q65 0 116.5 -25t81.5 -69.5t30 -104.5q0 -61 -30 -106t-81.5 -70t-116.5 -25h-143v-10h143q68 0 121.5 25.5t85 73t31.5 111.5q0 65 -31.5 112t-85 72.5t-121.5 25.5h-143v-10zM80 700v-700h10v690h325v10h-335z" />
    <glyph glyph-name="uni0412" unicode="&#x412;" horiz-adv-x="558" 
d="M97 386h113q53 0 95.5 16t67.5 50t25 88q0 50 -23.5 85.5t-67.5 55t-107 19.5h-110v-700h120q68 0 118.5 21t78.5 65.5t28 113.5q0 48 -21 84t-54.5 60t-70.5 36t-69 12h-123v-8h113q38 0 75.5 -12.5t69 -36t50.5 -57.5t19 -78q0 -65 -26.5 -107t-74.5 -62t-113 -20h-110
v678h100q90 0 138.5 -39t48.5 -110q0 -53 -26 -85t-68.5 -46.5t-92.5 -14.5h-103v-8z" />
    <glyph glyph-name="uni0413" unicode="&#x413;" horiz-adv-x="435" 
d="M80 700v-700h10v690h335v10h-345z" />
    <glyph glyph-name="uni0414" unicode="&#x414;" horiz-adv-x="795" 
d="M395 705l273 -695h12l-285 725l-285 -725h12zM740 0v-110h10v120h-710v-120h10v110h690z" />
    <glyph glyph-name="uni0415" unicode="&#x415;" horiz-adv-x="550" 
d="M92 0h338v10h-338v-10zM92 690h338v10h-338v-10zM92 384h318v10h-318v-10zM90 700v-700h11v700h-11z" />
    <glyph glyph-name="uni0416" unicode="&#x416;" horiz-adv-x="640" 
d="M35 700h-15l289 -330l-304 -370h15l302 370zM320 700v-700h10v700h-10zM605 700l-277 -330l292 -370h15l-294 370l279 330h-15z" />
    <glyph glyph-name="uni0417" unicode="&#x417;" horiz-adv-x="606" 
d="M283 360q58 0 105.5 11.5t81.5 33.5t52.5 52t18.5 67q0 50 -27 92t-77 68t-120 26q-67 0 -118.5 -23.5t-80 -64.5t-28.5 -96h10q0 51 27 90t75.5 61.5t114.5 22.5q65 0 113 -24t74.5 -64t26.5 -88t-32.5 -83t-88.5 -54.5t-127 -19.5v-7zM313 -10q78 0 133.5 24t85 68
t29.5 103q0 70 -37 109t-100 55t-141 16v-8q71 0 132 -15t98.5 -52t37.5 -105q0 -82 -62.5 -133.5t-175.5 -51.5q-78 0 -132 24t-82.5 66t-28.5 95h-10q0 -41 16.5 -76.5t48.5 -62t79 -41.5t109 -15z" />
    <glyph glyph-name="uni0418" unicode="&#x418;" horiz-adv-x="725" 
d="M635 717v18l-545 -752v-18zM100 700h-10v-735l10 22v713zM635 735l-10 -20v-715h10v735z" />
    <glyph glyph-name="uni0419" unicode="&#x419;" horiz-adv-x="725" 
d="M635 717v18l-545 -752v-18zM100 700h-10v-735l10 22v713zM635 735l-10 -20v-715h10v735zM215 900q0 -34 17.5 -66.5t53 -53t87.5 -20.5q53 0 88 20.5t52.5 53t17.5 66.5h-10q0 -33 -18 -62.5t-51 -48.5t-79 -19t-79 19t-51 48.5t-18 62.5h-10z" />
    <glyph glyph-name="uni041A" unicode="&#x41a;" horiz-adv-x="565" 
d="M85 700v-700h11v700h-11zM408 700l-314 -328l328 -372h17l-330 372l315 328h-16z" />
    <glyph glyph-name="uni041B" unicode="&#x41b;" horiz-adv-x="613" 
d="M533 700h-430v-460q0 -40 -6 -80.5t-18 -74.5t-29 -54.5t-40 -20.5v-10q32 0 55 33t35.5 88t12.5 119v450h410v-690h10v700z" />
    <glyph glyph-name="uni041C" unicode="&#x41c;" horiz-adv-x="810" 
d="M142 675l273 -570l273 570l71 -675h11l-75 715l-280 -584l-280 584l-75 -715h11z" />
    <glyph glyph-name="uni041D" unicode="&#x41d;" horiz-adv-x="715" 
d="M93 377h460v10h-460v-10zM546 700v-700h11v700h-11zM90 700v-700h11v700h-11z" />
    <glyph glyph-name="uni041E" unicode="&#x41e;" horiz-adv-x="790" 
d="M61 350q0 101 41.5 179t115.5 123t169 45q96 0 169.5 -45t115 -123t41.5 -179q0 -100 -41.5 -178.5t-115 -123.5t-169.5 -45q-95 0 -169 45t-115.5 123.5t-41.5 178.5zM50 350q0 -78 25 -143.5t70.5 -113.5t107 -74.5t134.5 -26.5t134.5 26.5t107 74.5t70.5 113.5
t25 143.5t-25 143.5t-70.5 113.5t-107 74.5t-134.5 26.5t-134.5 -26.5t-107 -74.5t-70.5 -113.5t-25 -143.5z" />
    <glyph glyph-name="uni041F" unicode="&#x41f;" horiz-adv-x="640" 
d="M550 690v-690h10v700h-480v-700h10v690h460z" />
    <glyph glyph-name="uni0420" unicode="&#x420;" horiz-adv-x="548" 
d="M90 700v-700h11v700h-11zM97 690h118q90 0 147 -50.5t57 -142.5t-57 -142.5t-147 -50.5h-118v-10h118q63 0 111.5 24t76 69.5t27.5 109.5q0 65 -27.5 110t-76 69t-111.5 24h-118v-10z" />
    <glyph glyph-name="uni0421" unicode="&#x421;" horiz-adv-x="685" 
d="M62 350q0 102 41 180t112.5 122t164.5 44q47 0 87.5 -9t75 -27.5t62.5 -46.5v15q-44 39 -96 59.5t-129 20.5q-73 0 -133.5 -26.5t-104.5 -74.5t-68 -113.5t-24 -143.5t24 -143.5t68 -113.5t104.5 -74.5t133.5 -26.5q77 0 129 20.5t96 59.5v16q-29 -28 -62 -47t-73 -28
t-90 -9q-93 0 -165 45t-112.5 123t-40.5 178z" />
    <glyph glyph-name="uni0422" unicode="&#x422;" horiz-adv-x="465" 
d="M20 689h190v-689h11v689h190v11h-391v-11z" />
    <glyph glyph-name="uni0423" unicode="&#x423;" horiz-adv-x="480" 
d="M480 700h-10l-221 -470h4l-243 470h-10l246 -476l-105 -224h10z" />
    <glyph glyph-name="uni0424" unicode="&#x424;" horiz-adv-x="730" 
d="M360 700v-700h10v700h-10zM680 350q0 -81 -40.5 -139.5t-110.5 -90t-159 -31.5h-10q-89 0 -159 31.5t-110.5 90t-40.5 139.5q0 82 40.5 139.5t110.5 88.5t159 31h10q89 0 159 -31t110.5 -88.5t40.5 -139.5zM690 350q0 85 -41.5 145t-114 92.5t-164.5 32.5h-10
q-92 0 -164.5 -32.5t-114 -92.5t-41.5 -145q0 -84 41.5 -144.5t114 -93t164.5 -32.5h10q92 0 164.5 32.5t114 93t41.5 144.5z" />
    <glyph glyph-name="uni0425" unicode="&#x425;" horiz-adv-x="555" 
d="M451 700l-198 -323l-194 323h-14l201 -333l-226 -367h14l218 356l214 -356h14l-221 367l206 333h-14z" />
    <glyph glyph-name="uni0426" unicode="&#x426;" horiz-adv-x="685" 
d="M90 10v690h-10v-700h555v-110h10v120h-85v690h-10v-690h-460z" />
    <glyph glyph-name="uni0427" unicode="&#x427;" horiz-adv-x="540" 
d="M290 280h167v10h-167v-10zM450 700v-700h10v700h-10zM90 700h-10v-182q0 -67 23.5 -121t70.5 -85.5t116 -31.5v10q-65 0 -109.5 30t-67.5 81.5t-23 116.5v182z" />
    <glyph glyph-name="uni0428" unicode="&#x428;" horiz-adv-x="909" 
d="M820 10h-360v690h-10v-690h-360v690h-10v-700h750v700h-10v-690z" />
    <glyph glyph-name="uni0429" unicode="&#x429;" horiz-adv-x="955" 
d="M820 10h-360v690h-10v-690h-360v690h-10v-700h825v-110h10v120h-85v690h-10v-690z" />
    <glyph glyph-name="uni042A" unicode="&#x42a;" horiz-adv-x="616" 
d="M195 410h143q65 0 116.5 -25t81.5 -69.5t30 -104.5q0 -61 -30 -106t-81.5 -70t-116.5 -25h-143v-10h143q68 0 121.5 25.5t85 73t31.5 111.5q0 65 -31.5 112t-85 72.5t-121.5 25.5h-143v-10zM190 690v-690h10v700h-190v-10h180z" />
    <glyph glyph-name="uni042B" unicode="&#x42b;" horiz-adv-x="685" 
d="M590 700v-700h10v700h-10zM75 700v-700h10v700h-10zM80 410h143q65 0 116.5 -25t81.5 -69.5t30 -104.5q0 -61 -30 -106t-81.5 -70t-116.5 -25h-143v-10h143q68 0 121.5 25.5t85 73t31.5 111.5q0 65 -31.5 112t-85 72.5t-121.5 25.5h-143v-10z" />
    <glyph glyph-name="uni042C" unicode="&#x42c;" horiz-adv-x="501" 
d="M75 700v-700h10v700h-10zM80 410h143q65 0 116.5 -25t81.5 -69.5t30 -104.5q0 -61 -30 -106t-81.5 -70t-116.5 -25h-143v-10h143q68 0 121.5 25.5t85 73t31.5 111.5q0 65 -31.5 112t-85 72.5t-121.5 25.5h-143v-10z" />
    <glyph glyph-name="uni042D" unicode="&#x42d;" horiz-adv-x="685" 
d="M162 345h461v10h-461v-10zM623 350q0 -100 -40.5 -178t-112 -123t-165.5 -45q-49 0 -89.5 9t-73.5 28t-62 47v-16q44 -39 96.5 -59.5t128.5 -20.5q73 0 133.5 26.5t104.5 74.5t68 113.5t24 143.5t-24 143.5t-68 113.5t-104.5 74.5t-133.5 26.5q-76 0 -128.5 -20.5
t-96.5 -59.5v-15q28 28 62.5 46.5t75 27.5t87.5 9q93 0 165 -44t112.5 -122t40.5 -180z" />
    <glyph glyph-name="uni042E" unicode="&#x42e;" horiz-adv-x="1024" 
d="M87 375h220v10h-220v-10zM80 700v-700h10v700h-10zM311 352q0 101 41.5 179t115.5 123t169 45q96 0 169.5 -45t115 -123t41.5 -179q0 -100 -41.5 -179t-115 -124.5t-169.5 -45.5q-95 0 -169 45.5t-115.5 124.5t-41.5 179zM300 352q0 -78 25 -144t70.5 -114.5t107 -75.5
t134.5 -27t134.5 27t107 75.5t70.5 114.5t25 144t-25 143.5t-70.5 113.5t-107 74.5t-134.5 26.5t-134.5 -26.5t-107 -74.5t-70.5 -113.5t-25 -143.5z" />
    <glyph glyph-name="uni042F" unicode="&#x42f;" horiz-adv-x="468" 
d="M269 317h-12l-222 -317h14zM378 700h-11v-700h11v700zM376 689v11h-113q-67 0 -120.5 -21.5t-84.5 -64t-31 -107.5q0 -64 31 -107t84.5 -64.5t120.5 -21.5h113v10h-113q-66 0 -116.5 20t-79.5 61t-29 102q0 62 29 102t80 60t116 20h113z" />
    <glyph glyph-name="uni0430" unicode="&#x430;" horiz-adv-x="485" 
d="M50 135q0 46 25.5 76t65 45t80.5 15q51 0 85 -14.5t52 -31.5v10q-10 9 -27.5 20t-44 18.5t-65.5 7.5q-45 0 -86.5 -16.5t-68 -48.5t-26.5 -81q0 -52 22.5 -84t58 -46.5t72.5 -14.5q51 0 88.5 24t58 63t20.5 83h-5q0 -43 -21.5 -79.5t-58.5 -58.5t-82 -22q-35 0 -68 13.5
t-54 43t-21 78.5zM84 395q19 18 40.5 32.5t48.5 23.5t60 9q62 0 92 -37.5t30 -102.5v-320h10v320q0 45 -14 78.5t-43.5 52.5t-74.5 19q-55 0 -93 -22t-63 -45z" />
    <glyph glyph-name="uni0431" unicode="&#x431;" horiz-adv-x="546" 
d="M273 460q64 0 115.5 -29t82 -81t30.5 -120t-32 -120t-84 -81t-112 -29t-109.5 29t-79.5 81t-30 120l-19 60q0 -99 31.5 -166t85.5 -100.5t121 -33.5q68 0 121.5 31t85 85.5t31.5 123.5q0 70 -31.5 124t-85 85t-121.5 31v-10zM43 230h11q0 55 20 97.5t52 72t71 45t76 15.5
v10q-41 0 -81.5 -16.5t-74 -47.5t-54 -75.5t-20.5 -100.5zM35 290l10 -60v50q0 103 19 174.5t63.5 118.5t119.5 73q48 17 78.5 38t47.5 45.5t21 50.5h-10q-7 -36 -39.5 -68.5t-100.5 -55.5q-80 -27 -126 -77.5t-64.5 -122.5t-18.5 -166z" />
    <glyph glyph-name="uni0432" unicode="&#x432;" horiz-adv-x="411" 
d="M80 231v-6h133q23 0 50 -2.5t51.5 -11.5t40.5 -29.5t16 -56.5q0 -46 -31.5 -80.5t-106.5 -34.5h-153v-10h153q79 0 113.5 36.5t34.5 88.5q0 45 -22 67.5t-60 30.5t-86 8h-133zM80 229h123q43 0 78.5 10t57.5 33.5t22 62.5q0 45 -22 72.5t-57.5 40t-78.5 12.5h-123v-10
h123q62 0 105 -28t43 -87q0 -32 -16 -52t-40 -30.5t-49 -14t-43 -3.5h-123v-6zM75 460v-460h10v460h-10z" />
    <glyph glyph-name="uni0433" unicode="&#x433;" horiz-adv-x="300" 
d="M80 460v-460h10v450h205v10h-215z" />
    <glyph glyph-name="uni0434" unicode="&#x434;" horiz-adv-x="655" 
d="M325 470l214 -460h11l-225 485l-225 -485h11zM600 0v-90h10v100h-570v-100h10v90h550z" />
    <glyph glyph-name="uni0435" unicode="&#x435;" horiz-adv-x="515" 
d="M52 228h403q1 6 1.5 13t0.5 13q0 63 -28.5 111.5t-74.5 76.5t-99 28q-49 0 -89.5 -20.5t-68.5 -57t-42 -84.5q-5 -18 -7.5 -37t-2.5 -39q0 -69 27.5 -124t74 -86.5t103.5 -31.5q63 0 101 19.5t60.5 46.5t37.5 51l-8 6q-15 -24 -37 -50.5t-58.5 -44.5t-95.5 -18
q-54 0 -98.5 30.5t-70.5 83t-26 118.5v0q0 72 29 123t74.5 78t96.5 27q52 0 97.5 -29t72 -79t21.5 -114h-394v-10z" />
    <glyph glyph-name="uni0436" unicode="&#x436;" horiz-adv-x="454" 
d="M411 460l-181 -190l201 -270h13l-201 269l181 191h-13zM232 460h-10v-460h10v460zM43 460h-13l181 -191l-201 -269h13l201 270z" />
    <glyph glyph-name="uni0437" unicode="&#x437;" horiz-adv-x="476" 
d="M253 243q80 0 119 30.5t39 79.5q0 37 -20 63t-54 40t-77 14q-46 0 -84.5 -18t-62 -48.5t-23.5 -67.5h10q0 32 20.5 60t56.5 46t82 18q59 0 100.5 -28.5t41.5 -78.5q0 -48 -40 -75.5t-108 -27.5v-7zM256 -10q45 0 85 15.5t65 46t25 75.5q0 58 -45 89t-133 31v-7
q44 0 82.5 -11t62 -36t23.5 -67q0 -43 -25 -71t-62.5 -41.5t-77.5 -13.5q-79 0 -127 42t-56 103h-10q8 -67 59.5 -111t133.5 -44z" />
    <glyph glyph-name="uni0438" unicode="&#x438;" 
d="M390 467l5 28l-310 -502l-5 -28zM90 460h-10v-495l10 20v475zM395 495l-10 -20v-475h10v495z" />
    <glyph glyph-name="uni0439" unicode="&#x439;" 
d="M390 467l5 28l-310 -502l-5 -28zM90 460h-10v-495l10 20v475zM395 495l-10 -20v-475h10v495zM77 695q0 -34 17.5 -66.5t53 -53t87.5 -20.5q53 0 88 20.5t52.5 53t17.5 66.5h-10q0 -33 -18 -62.5t-51 -48.5t-79 -19t-79 19t-51 48.5t-18 62.5h-10z" />
    <glyph glyph-name="uni043A" unicode="&#x43a;" horiz-adv-x="440" 
d="M80 460v-460h10v460h-10zM328 460l-240 -190l260 -270h14l-260 270l242 190h-16z" />
    <glyph glyph-name="uni043B" unicode="&#x43b;" horiz-adv-x="488" 
d="M408 460h-325v-300q0 -72 -21.5 -111t-51.5 -39v-10q22 0 41 17.5t30.5 53t11.5 89.5v290h305v-450h10v460z" />
    <glyph glyph-name="uni043C" unicode="&#x43c;" horiz-adv-x="607" 
d="M590 0h12l-120 495l-2 -41zM302 9v-40l178 485l2 41zM302 -31v40l-177 486l2 -41zM5 0h14l108 454l-2 41z" />
    <glyph glyph-name="uni043D" unicode="&#x43d;" horiz-adv-x="495" 
d="M82 240h330v10h-330v-10zM410 460v-460h10v460h-10zM75 460v-460h10v460h-10z" />
    <glyph glyph-name="uni043E" unicode="&#x43e;" horiz-adv-x="546" 
d="M45 230q0 -69 31 -123.5t83.5 -85.5t118.5 -31t119 31t83.5 85.5t30.5 123.5q0 70 -30.5 124t-83.5 85t-119 31t-118.5 -31t-83.5 -85t-31 -124zM55 230q0 67 29.5 119t80.5 81.5t114 29.5q62 0 112.5 -29.5t80 -81.5t29.5 -119t-29.5 -119t-80 -81.5t-112.5 -29.5
q-63 0 -114 29.5t-80.5 81.5t-29.5 119z" />
    <glyph glyph-name="uni043F" unicode="&#x43f;" horiz-adv-x="455" 
d="M380 460h-305v-460h10v450h285v-450h10v460z" />
    <glyph glyph-name="uni0440" unicode="&#x440;" horiz-adv-x="570" 
d="M90 -220v680h-10v-680h10zM496 230q0 74 -28 127.5t-76.5 83t-108.5 29.5q-61 0 -105.5 -35t-68.5 -90t-24 -115q0 -59 24 -114.5t68.5 -90.5t105.5 -35q60 0 108.5 29.5t76.5 83.5t28 127zM486 230q0 -70 -27.5 -122t-74 -80t-104.5 -28q-54 0 -97 33.5t-68 86
t-25 110.5t25 110.5t68 86t97 33.5q58 0 104.5 -28t74 -79.5t27.5 -122.5z" />
    <glyph glyph-name="uni0441" unicode="&#x441;" horiz-adv-x="478" 
d="M50 230q0 67 29.5 119t80.5 81.5t113 29.5q37 0 68.5 -10.5t54 -24.5t32.5 -26v13q-16 18 -58 38t-97 20q-66 0 -118.5 -31t-83.5 -85t-31 -124q0 -69 31 -123.5t83.5 -85.5t118.5 -31q55 0 97 19.5t58 38.5v13q-10 -12 -32.5 -26t-54 -24.5t-68.5 -10.5q-62 0 -113 29.5
t-80.5 81.5t-29.5 119z" />
    <glyph glyph-name="uni0442" unicode="&#x442;" horiz-adv-x="280" 
d="M5 460v-10h270v10h-270zM135 455v-455h10v455h-10z" />
    <glyph glyph-name="uni0443" unicode="&#x443;" horiz-adv-x="440" 
d="M415 460h-11l-194 -440h11l-199 440h-12l200 -440l-106 -240h11z" />
    <glyph glyph-name="uni0444" unicode="&#x444;" horiz-adv-x="586" 
d="M288 560v-660h10v660h-10zM35 230q0 -69 32 -123.5t90.5 -85.5t135.5 -31q78 0 136 31t90 85.5t32 123.5q0 70 -32 124t-90 85t-136 31q-77 0 -135.5 -31t-90.5 -85t-32 -124zM45 230q0 63 29.5 115.5t85.5 83.5t133 31q78 0 133.5 -31t85 -83.5t29.5 -115.5t-29.5 -115
t-85 -83.5t-133.5 -31.5q-77 0 -133 31.5t-85.5 83.5t-29.5 115z" />
    <glyph glyph-name="uni0445" unicode="&#x445;" horiz-adv-x="420" 
d="M345 460l-155 -215l-155 215h-15l163 -223l-173 -237h15l165 229l165 -229h15l-173 237l162 223h-14z" />
    <glyph glyph-name="uni0446" unicode="&#x446;" horiz-adv-x="495" 
d="M380 10v450h-10v-450h-285v450h-10v-460h375v-90h10v100h-80z" />
    <glyph glyph-name="uni0447" unicode="&#x447;" horiz-adv-x="415" 
d="M230 140h107v10h-107v-10zM330 460v-460h10v460h-10zM60 460h-10v-132q0 -67 16 -108.5t55.5 -60.5t108.5 -19v10q-63 0 -100 16.5t-53.5 55.5t-16.5 106v132z" />
    <glyph glyph-name="uni0448" unicode="&#x448;" horiz-adv-x="710" 
d="M360 10v450h-10v-450h-265v450h-10v-460h560v460h-10v-450h-265z" />
    <glyph glyph-name="uni0449" unicode="&#x449;" horiz-adv-x="750" 
d="M360 10v450h-10v-450h-265v450h-10v-460h630v-90h10v100h-80v450h-10v-450h-265z" />
    <glyph glyph-name="uni044A" unicode="&#x44a;" horiz-adv-x="513" 
d="M177 276h118q66 0 112 -32.5t46 -100.5q0 -48 -21 -77t-57 -42.5t-80 -13.5h-118v-10h118q48 0 86 15t60 47t22 81q0 74 -48.5 108.5t-119.5 34.5h-118v-10zM170 450v-450h10v460h-175v-10h165z" />
    <glyph glyph-name="uni044B" unicode="&#x44b;" horiz-adv-x="550" 
d="M465 460v-460h10v460h-10zM75 460v-460h10v460h-10zM77 276h118q66 0 112 -32.5t46 -100.5q0 -48 -21 -77t-57 -42.5t-80 -13.5h-118v-10h118q48 0 86 15t60 47t22 81q0 74 -48.5 108.5t-119.5 34.5h-118v-10z" />
    <glyph glyph-name="uni044C" unicode="&#x44c;" horiz-adv-x="413" 
d="M75 460v-460h10v460h-10zM77 276h118q66 0 112 -32.5t46 -100.5q0 -48 -21 -77t-57 -42.5t-80 -13.5h-118v-10h118q48 0 86 15t60 47t22 81q0 74 -48.5 108.5t-119.5 34.5h-118v-10z" />
    <glyph glyph-name="uni044D" unicode="&#x44d;" horiz-adv-x="488" 
d="M137 235v-10h304v10h-304zM438 230q0 -67 -29.5 -119t-80 -81.5t-113.5 -29.5q-37 0 -68.5 10.5t-53.5 24.5t-33 26v-13q17 -19 58.5 -38.5t96.5 -19.5q66 0 119 31t83.5 85.5t30.5 123.5q0 70 -30.5 124t-83.5 85t-119 31q-55 0 -96.5 -20t-58.5 -38v-13q11 12 33 26
t53.5 24.5t68.5 10.5q63 0 113.5 -29.5t80 -81.5t29.5 -119z" />
    <glyph glyph-name="uni044E" unicode="&#x44e;" horiz-adv-x="756" 
d="M82 235h170v10h-170v-10zM75 460v-460h10v460h-10zM245 230q0 -69 31 -123.5t83.5 -85.5t118.5 -31t118.5 31t83.5 85.5t31 123.5q0 70 -31 124t-83.5 85t-118.5 31t-118.5 -31t-83.5 -85t-31 -124zM255 230q0 67 29.5 119t80.5 81.5t114 29.5q62 0 112.5 -29.5t80 -81.5
t29.5 -119t-29.5 -119t-80 -81.5t-112.5 -29.5q-63 0 -114 29.5t-80.5 81.5t-29.5 119z" />
    <glyph glyph-name="uni044F" unicode="&#x44f;" horiz-adv-x="413" 
d="M66 0l146 193h-13l-146 -193h13zM363 0v460h-10v-460h10zM356 194h-113q-44 0 -80 12.5t-57 41t-21 74.5q0 47 21 75t57 40.5t80 12.5h113v10h-113q-47 0 -85.5 -14t-60.5 -44t-22 -80q0 -49 22 -79.5t60.5 -44.5t85.5 -14h113v10z" />
    <glyph glyph-name="uni0450" unicode="&#x450;" horiz-adv-x="515" 
d="M52 228h403q1 6 1.5 13t0.5 13q0 63 -28.5 111.5t-74.5 76.5t-99 28q-49 0 -89.5 -20.5t-68.5 -57t-42 -84.5q-5 -18 -7.5 -37t-2.5 -39q0 -69 27.5 -124t74 -86.5t103.5 -31.5q63 0 101 19.5t60.5 46.5t37.5 51l-8 6q-15 -24 -37 -50.5t-58.5 -44.5t-95.5 -18
q-54 0 -98.5 30.5t-70.5 83t-26 118.5v0q0 72 29 123t74.5 78t96.5 27q52 0 97.5 -29t72 -79t21.5 -114h-394v-10zM138 712l173 -157l5 5l-170 160z" />
    <glyph glyph-name="uni0451" unicode="&#x451;" horiz-adv-x="515" 
d="M52 228h403q1 6 1.5 13t0.5 13q0 63 -28.5 111.5t-74.5 76.5t-99 28q-49 0 -89.5 -20.5t-68.5 -57t-42 -84.5q-5 -18 -7.5 -37t-2.5 -39q0 -69 27.5 -124t74 -86.5t103.5 -31.5q63 0 101 19.5t60.5 46.5t37.5 51l-8 6q-15 -24 -37 -50.5t-58.5 -44.5t-95.5 -18
q-54 0 -98.5 30.5t-70.5 83t-26 118.5v0q0 72 29 123t74.5 78t96.5 27q52 0 97.5 -29t72 -79t21.5 -114h-394v-10zM328 614q0 -5 3.5 -8t7.5 -3q5 0 8 3t3 8t-3 8t-8 3q-4 0 -7.5 -3t-3.5 -8zM128 614q0 -5 3.5 -8t7.5 -3q5 0 8 3t3 8t-3 8t-8 3q-4 0 -7.5 -3t-3.5 -8z" />
    <glyph glyph-name="uni0453" unicode="&#x453;" horiz-adv-x="300" 
d="M80 460v-460h10v450h205v10h-215zM303 687l-8 8l-170 -160l5 -5z" />
    <glyph glyph-name="uni045C" unicode="&#x45c;" horiz-adv-x="440" 
d="M80 460v-460h10v460h-10zM328 460l-240 -190l260 -270h14l-260 270l242 190h-16zM378 712l-8 8l-170 -160l5 -5z" />
    <glyph glyph-name="uni045D" unicode="&#x45d;" 
d="M390 467l5 28l-310 -502l-5 -28zM90 460h-10v-495l10 20v475zM395 495l-10 -20v-475h10v495zM80 712l173 -157l5 5l-170 160z" />
    <glyph glyph-name="uni045E" unicode="&#x45e;" horiz-adv-x="440" 
d="M415 460h-11l-194 -440h11l-199 440h-12l200 -440l-106 -240h11zM62 670q0 -34 17.5 -66.5t53 -53t87.5 -20.5q53 0 88 20.5t52.5 53t17.5 66.5h-10q0 -33 -18 -62.5t-51 -48.5t-79 -19t-79 19t-51 48.5t-18 62.5h-10z" />
    <glyph glyph-name="Wgrave" unicode="&#x1e80;" horiz-adv-x="950" 
d="M473 775l5 5l-170 160l-8 -8zM695 26l-220 689l-220 -689l-224 674h-11l235 -715l220 692l220 -692l235 715h-11z" />
    <glyph glyph-name="wgrave" unicode="&#x1e81;" horiz-adv-x="620" 
d="M303 535l5 5l-170 160l-8 -8zM15 460l147 -475l143 456l153 -456l147 475h-10l-137 -442l-153 457l-143 -457l-137 442h-10z" />
    <glyph glyph-name="Wacute" unicode="&#x1e82;" horiz-adv-x="950" 
d="M478 775l173 157l-8 8l-170 -160zM695 26l-220 689l-220 -689l-224 674h-11l235 -715l220 692l220 -692l235 715h-11z" />
    <glyph glyph-name="wacute" unicode="&#x1e83;" horiz-adv-x="620" 
d="M308 535l173 157l-8 8l-170 -160zM15 460l147 -475l143 456l153 -456l147 475h-10l-137 -442l-153 457l-143 -457l-137 442h-10z" />
    <glyph glyph-name="Wdieresis" unicode="&#x1e84;" horiz-adv-x="950" 
d="M564 786q0 -5 3.5 -8t7.5 -3q5 0 8 3t3 8t-3 8t-8 3q-4 0 -7.5 -3t-3.5 -8zM364 786q0 -5 3.5 -8t7.5 -3q5 0 8 3t3 8t-3 8t-8 3q-4 0 -7.5 -3t-3.5 -8zM695 26l-220 689l-220 -689l-224 674h-11l235 -715l220 692l220 -692l235 715h-11z" />
    <glyph glyph-name="wdieresis" unicode="&#x1e85;" horiz-adv-x="620" 
d="M394 546q0 -5 3.5 -8t7.5 -3q5 0 8 3t3 8t-3 8t-8 3q-4 0 -7.5 -3t-3.5 -8zM194 546q0 -5 3.5 -8t7.5 -3q5 0 8 3t3 8t-3 8t-8 3q-4 0 -7.5 -3t-3.5 -8zM15 460l147 -475l143 456l153 -456l147 475h-10l-137 -442l-153 457l-143 -457l-137 442h-10z" />
    <glyph glyph-name="uni1E86" unicode="&#x1e86;" horiz-adv-x="950" 
d="M464 786q0 -5 3.5 -8t7.5 -3q5 0 8 3t3 8t-3 8t-8 3q-4 0 -7.5 -3t-3.5 -8zM695 26l-220 689l-220 -689l-224 674h-11l235 -715l220 692l220 -692l235 715h-11z" />
    <glyph glyph-name="uni1E87" unicode="&#x1e87;" horiz-adv-x="620" 
d="M294 546q0 -5 3.5 -8t7.5 -3q5 0 8 3t3 8t-3 8t-8 3q-4 0 -7.5 -3t-3.5 -8zM15 460l147 -475l143 456l153 -456l147 475h-10l-137 -442l-153 457l-143 -457l-137 442h-10z" />
    <glyph glyph-name="uni1E88" unicode="&#x1e88;" horiz-adv-x="950" 
d="M464 -86q0 -5 3.5 -8t7.5 -3q5 0 8 3t3 8t-3 8t-8 3q-4 0 -7.5 -3t-3.5 -8zM695 26l-220 689l-220 -689l-224 674h-11l235 -715l220 692l220 -692l235 715h-11z" />
    <glyph glyph-name="uni1E89" unicode="&#x1e89;" horiz-adv-x="620" 
d="M299 -86q0 -5 3.5 -8t7.5 -3q5 0 8 3t3 8t-3 8t-8 3q-4 0 -7.5 -3t-3.5 -8zM15 460l147 -475l143 456l153 -456l147 475h-10l-137 -442l-153 457l-143 -457l-137 442h-10z" />
    <glyph glyph-name="uni1E9E" unicode="&#x1e9e;" horiz-adv-x="666" 
d="M422 -10q-57 0 -106.5 17.5t-87.5 47.5l8 7q44 -34 92.5 -48t93.5 -14q63 0 108 22t68.5 60t23.5 84t-21 73.5t-52.5 43.5t-63 27t-52.5 23t-21 32q0 17 14.5 29t36 24.5t43 28t36 38.5t14.5 58q0 40 -22.5 75.5t-68.5 57.5t-117 22q-72 0 -130 -27t-92 -82.5t-34 -140.5
v-448h-12v454q0 67 21.5 115t59 79t85.5 45.5t102 14.5q71 0 120 -22.5t74.5 -60t25.5 -82.5q0 -37 -14.5 -61.5t-36 -41t-43 -28t-36 -22.5t-14.5 -25q0 -17 21 -27.5t52.5 -21.5t63 -28t52.5 -46t21 -76q0 -52 -26.5 -91.5t-74.5 -62t-111 -22.5z" />
    <glyph glyph-name="Ygrave" unicode="&#x1ef2;" horiz-adv-x="507" 
d="M251 768l5 5l-170 160l-8 -8zM479 700l-231 -419l-220 419h-13l228 -434v-266h11v267l238 433h-13z" />
    <glyph glyph-name="ygrave" unicode="&#x1ef3;" horiz-adv-x="425" 
d="M210 530l5 5l-170 160l-8 -8zM415 460h-11l-194 -440h11l-199 440h-12l200 -440l-106 -240h11z" />
    <glyph glyph-name="uni2010" unicode="&#x2010;" horiz-adv-x="210" 
d="M5 265h200v10h-200v-10z" />
    <glyph glyph-name="figuredash" unicode="&#x2012;" horiz-adv-x="590" 
d="M70 265h450v10h-450v-10z" />
    <glyph glyph-name="endash" unicode="&#x2013;" horiz-adv-x="740" 
d="M70 265h600v10h-600v-10z" />
    <glyph glyph-name="emdash" unicode="&#x2014;" horiz-adv-x="890" 
d="M70 265h750v10h-750v-10z" />
    <glyph glyph-name="quoteleft" unicode="&#x2018;" horiz-adv-x="225" 
d="M72 470l93 230h-10l-95 -230h12z" />
    <glyph glyph-name="quoteright" unicode="&#x2019;" horiz-adv-x="245" 
d="M173 700l-93 -230h10l95 230h-12z" />
    <glyph glyph-name="quotesinglbase" unicode="&#x201a;" horiz-adv-x="245" 
d="M153 80l-93 -230h10l95 230h-12z" />
    <glyph glyph-name="quotedblleft" unicode="&#x201c;" horiz-adv-x="385" 
d="M92 470l93 230h-10l-95 -230h12zM232 470l93 230h-10l-95 -230h12z" />
    <glyph glyph-name="quotedblright" unicode="&#x201d;" horiz-adv-x="385" 
d="M153 700l-93 -230h10l95 230h-12zM293 700l-93 -230h10l95 230h-12z" />
    <glyph glyph-name="quotedblbase" unicode="&#x201e;" horiz-adv-x="385" 
d="M153 80l-93 -230h10l95 230h-12zM293 80l-93 -230h10l95 230h-12z" />
    <glyph glyph-name="dagger" unicode="&#x2020;" horiz-adv-x="500" 
d="M90 540v-10h320v10h-320zM245 700v-850h10v850h-10z" />
    <glyph glyph-name="daggerdbl" unicode="&#x2021;" horiz-adv-x="500" 
d="M90 120v-10h320v10h-320zM90 540v-10h320v10h-320zM245 700v-850h10v850h-10z" />
    <glyph glyph-name="bullet" unicode="&#x2022;" horiz-adv-x="300" 
d="M119 376q0 -5 3.5 -8t7.5 -3q5 0 8 3t3 8t-3 8t-8 3q-4 0 -7.5 -3t-3.5 -8z" />
    <glyph glyph-name="ellipsis" unicode="&#x2026;" horiz-adv-x="812" 
d="M120 1q0 -5 3.5 -8t7.5 -3q5 0 8 3t3 8t-3 8t-8 3q-4 0 -7.5 -3t-3.5 -8zM395 1q0 -5 3.5 -8t7.5 -3q5 0 8 3t3 8t-3 8t-8 3q-4 0 -7.5 -3t-3.5 -8zM670 1q0 -5 3.5 -8t7.5 -3q5 0 8 3t3 8t-3 8t-8 3q-4 0 -7.5 -3t-3.5 -8z" />
    <glyph glyph-name="perthousand" unicode="&#x2030;" horiz-adv-x="1071" 
d="M740 140q0 -42 18.5 -76t51.5 -54t78 -20t78.5 20t51.5 54t18 76t-18 76t-51.5 54t-78.5 20t-78 -20t-51.5 -54t-18.5 -76zM750 140q0 38 17 70t48 51t73 19q43 0 73.5 -19t47.5 -51t17 -70t-17 -70t-47.5 -51.5t-73.5 -19.5q-42 0 -73 19.5t-48 51.5t-17 70zM35 560
q0 -42 18.5 -76t51.5 -54t78 -20t78.5 20t51.5 54t18 76t-18 76t-51.5 54t-78.5 20t-78 -20t-51.5 -54t-18.5 -76zM45 560q0 38 17 70t48 51t73 19q43 0 73.5 -19t47.5 -51t17 -70t-17 -70t-47.5 -51.5t-73.5 -19.5q-42 0 -73 19.5t-48 51.5t-17 70zM370 140q0 -42 18.5 -76
t51.5 -54t78 -20t78.5 20t51.5 54t18 76t-18 76t-51.5 54t-78.5 20t-78 -20t-51.5 -54t-18.5 -76zM380 140q0 38 17 70t48 51t73 19q43 0 73.5 -19t47.5 -51t17 -70t-17 -70t-47.5 -51.5t-73.5 -19.5q-42 0 -73 19.5t-48 51.5t-17 70zM573 700l-457 -700h12l457 700h-12z
" />
    <glyph glyph-name="uni2031" unicode="&#x2031;" horiz-adv-x="1441" 
d="M1110 140q0 -42 18.5 -76t51.5 -54t78 -20t78.5 20t51.5 54t18 76t-18 76t-51.5 54t-78.5 20t-78 -20t-51.5 -54t-18.5 -76zM1120 140q0 38 17 70t48 51t73 19q43 0 73.5 -19t47.5 -51t17 -70t-17 -70t-47.5 -51.5t-73.5 -19.5q-42 0 -73 19.5t-48 51.5t-17 70zM740 140
q0 -42 18.5 -76t51.5 -54t78 -20t78.5 20t51.5 54t18 76t-18 76t-51.5 54t-78.5 20t-78 -20t-51.5 -54t-18.5 -76zM750 140q0 38 17 70t48 51t73 19q43 0 73.5 -19t47.5 -51t17 -70t-17 -70t-47.5 -51.5t-73.5 -19.5q-42 0 -73 19.5t-48 51.5t-17 70zM35 560q0 -42 18.5 -76
t51.5 -54t78 -20t78.5 20t51.5 54t18 76t-18 76t-51.5 54t-78.5 20t-78 -20t-51.5 -54t-18.5 -76zM45 560q0 38 17 70t48 51t73 19q43 0 73.5 -19t47.5 -51t17 -70t-17 -70t-47.5 -51.5t-73.5 -19.5q-42 0 -73 19.5t-48 51.5t-17 70zM370 140q0 -42 18.5 -76t51.5 -54
t78 -20t78.5 20t51.5 54t18 76t-18 76t-51.5 54t-78.5 20t-78 -20t-51.5 -54t-18.5 -76zM380 140q0 38 17 70t48 51t73 19q43 0 73.5 -19t47.5 -51t17 -70t-17 -70t-47.5 -51.5t-73.5 -19.5q-42 0 -73 19.5t-48 51.5t-17 70zM573 700l-457 -700h12l457 700h-12z" />
    <glyph glyph-name="guilsinglleft" unicode="&#x2039;" horiz-adv-x="325" 
d="M50 255l205 228l-7 7l-208 -235l208 -235l7 7z" />
    <glyph glyph-name="guilsinglright" unicode="&#x203a;" horiz-adv-x="350" 
d="M300 255l-205 -228l7 -7l208 235l-208 235l-7 -7z" />
    <glyph glyph-name="uni203D" unicode="&#x203d;" horiz-adv-x="557" 
d="M452 520q0 -48 -27 -88t-72.5 -63.5t-100.5 -23.5l8 -8q33 0 63 9.5t55.5 26.5t44 40t29 50t10.5 57q0 41 -13.5 75.5t-39 60.5t-62 40t-83.5 14q-49 0 -85.5 -14.5t-63.5 -41t-50 -61.5l9 -6q22 35 48.5 60t61 39t80.5 14q60 0 102 -24t64 -64.5t22 -91.5zM249 510
l3 -340h6l3 340h-12zM244 1q0 -5 3.5 -8t7.5 -3q5 0 8 3t3 8t-3 8t-8 3q-4 0 -7.5 -3t-3.5 -8z" />
    <glyph glyph-name="fraction" unicode="&#x2044;" horiz-adv-x="705" 
d="M633 700l-573 -700h12l573 700h-12z" />
    <glyph glyph-name="uni2070" unicode="&#x2070;" horiz-adv-x="324" 
d="M42 490q0 56 15 104t42.5 77t67.5 29t67.5 -29t42.5 -77t15 -104t-15 -104t-42.5 -77t-67.5 -29t-67.5 29t-42.5 77t-15 104zM35 490q0 -59 15.5 -108.5t45.5 -78.5t71 -29q42 0 71.5 29t45 78.5t15.5 108.5q0 60 -15.5 109t-45 78t-71.5 29q-41 0 -71 -29t-45.5 -78
t-15.5 -109z" />
    <glyph glyph-name="uni2074" unicode="&#x2074;" horiz-adv-x="371" 
d="M35 364h296v6h-68h-2h-220zM42 364l217 316v-312v-3v-85h7v420h-1l-230 -336h7z" />
    <glyph glyph-name="uni2075" unicode="&#x2075;" horiz-adv-x="341" 
d="M295 416q0 39 -16 68t-43 45.5t-60 16.5q-40 0 -69.5 -16.5t-43.5 -36.5l-10 -19q23 32 53.5 49t69.5 17q47 0 80 -34.5t33 -89.5q0 -68 -37.5 -103t-91.5 -35q-47 0 -75 22.5t-45 62.5l-5 -3q17 -40 46.5 -64t78.5 -24q38 0 68.5 16t48.5 48.5t18 79.5zM112 692h194v6
h-198l-55 -224l10 19z" />
    <glyph glyph-name="uni2076" unicode="&#x2076;" horiz-adv-x="332" 
d="M46 410q0 32 15.5 60.5t45 46t71.5 17.5q32 0 58.5 -16.5t43 -44.5t16.5 -63q0 -57 -34.5 -94.5t-90.5 -37.5t-90.5 37.5t-34.5 94.5zM208 698l-134 -193q-12 -16 -23 -42.5t-11 -52.5q0 -40 16 -71t45.5 -49t69.5 -18q41 0 70 18t45 49t16 71q0 36 -17 65.5t-45 47
t-62 17.5t-61.5 -13t-46.5 -36v0l146 207h-8z" />
    <glyph glyph-name="uni2077" unicode="&#x2077;" horiz-adv-x="352" 
d="M35 694h272l-219 -414h7l222 420h-282v-6z" />
    <glyph glyph-name="uni2078" unicode="&#x2078;" horiz-adv-x="302" 
d="M47 605q0 -29 15.5 -53t39.5 -37.5t49 -13.5q26 0 49.5 13.5t39 37.5t15.5 53q0 27 -13.5 50t-37 37t-53.5 14t-53.5 -14t-37 -37t-13.5 -50zM53 605q0 39 27.5 67t70.5 28t70.5 -28t27.5 -67q0 -29 -15.5 -51.5t-38.5 -35.5t-44 -13t-43.5 13t-38.5 35.5t-16 51.5z
M35 391q0 -32 13.5 -59t39.5 -42.5t63 -15.5q38 0 63.5 15.5t39 42.5t13.5 59q0 24 -9.5 44.5t-26 35.5t-37 23.5t-43.5 8.5q-22 0 -43 -8.5t-37.5 -23.5t-26 -35.5t-9.5 -44.5zM41 391q0 32 16.5 56.5t41.5 38t52 13.5t52.5 -13.5t41.5 -38t16 -56.5q0 -48 -29 -79.5
t-81 -31.5t-81 31.5t-29 79.5z" />
    <glyph glyph-name="uni2079" unicode="&#x2079;" horiz-adv-x="332" 
d="M286 570q0 -32 -15 -60.5t-44.5 -46t-71.5 -17.5q-31 0 -58.5 16.5t-44 44.5t-16.5 63q0 57 34.5 94.5t90.5 37.5t90.5 -37.5t34.5 -94.5zM124 282l134 193q12 17 23 43.5t11 51.5q0 40 -16 71t-45 49t-70 18q-40 0 -69.5 -18t-45.5 -49t-16 -71q0 -35 17 -65t45.5 -47.5
t62.5 -17.5t61 13t46 36v0l-145 -207h7z" />
    <glyph glyph-name="uni2080" unicode="&#x2080;" horiz-adv-x="334" 
d="M42 210q0 56 15 104t42.5 77t67.5 29t67.5 -29t42.5 -77t15 -104t-15 -104t-42.5 -77t-67.5 -29t-67.5 29t-42.5 77t-15 104zM35 210q0 -59 15.5 -108.5t45.5 -78.5t71 -29q42 0 71.5 29t45 78.5t15.5 108.5q0 60 -15.5 109t-45 78t-71.5 29q-41 0 -71 -29t-45.5 -78
t-15.5 -109z" />
    <glyph glyph-name="uni2081" unicode="&#x2081;" horiz-adv-x="288" 
d="M95 393l102 23v-415h6v423l-108 -24v-7z" />
    <glyph glyph-name="uni2082" unicode="&#x2082;" horiz-adv-x="332" 
d="M30 2h272v6h-257l182 191q23 23 40.5 50.5t17.5 64.5q0 25 -11.5 51.5t-36.5 45t-65 18.5q-37 0 -65 -19t-43.5 -53t-15.5 -79h6q0 64 32 104.5t86 40.5q39 0 62.5 -17.5t34 -42.5t10.5 -49q0 -37 -17.5 -62.5t-39.5 -48.5z" />
    <glyph glyph-name="uni2083" unicode="&#x2083;" horiz-adv-x="318" 
d="M140 217q32 0 62 12t49.5 35.5t19.5 55.5q0 40 -28 73t-82 33q-52 0 -82.5 -30.5t-30.5 -79.5h6q0 46 29 75t78 29q50 0 77 -31t27 -69q0 -31 -20 -53t-49 -33.5t-56 -11.5v-5zM158 -6q56 0 90.5 31t34.5 80q0 39 -22.5 64.5t-55.5 38.5t-65 13v-5q27 0 59 -12t55 -36.5
t23 -62.5q0 -46 -32.5 -75.5t-86.5 -29.5q-58 0 -90 31.5t-32 79.5h-6q0 -32 15 -59t44 -42.5t69 -15.5z" />
    <glyph glyph-name="uni2084" unicode="&#x2084;" horiz-adv-x="371" 
d="M35 84h296v6h-68h-2h-220zM42 84l217 316v-312v-3v-85h7v420h-1l-230 -336h7z" />
    <glyph glyph-name="uni2085" unicode="&#x2085;" horiz-adv-x="341" 
d="M295 136q0 39 -16 68t-43 45.5t-60 16.5q-40 0 -69.5 -16.5t-43.5 -36.5l-10 -19q23 32 53.5 49t69.5 17q47 0 80 -34.5t33 -89.5q0 -68 -37.5 -103t-91.5 -35q-47 0 -75 22.5t-45 62.5l-5 -3q17 -40 46.5 -64t78.5 -24q38 0 68.5 16t48.5 48.5t18 79.5zM112 412h194v6
h-198l-55 -224l10 19z" />
    <glyph glyph-name="uni2086" unicode="&#x2086;" horiz-adv-x="332" 
d="M46 130q0 32 15.5 60.5t45 46t71.5 17.5q32 0 58.5 -16.5t43 -44.5t16.5 -63q0 -57 -34.5 -94.5t-90.5 -37.5t-90.5 37.5t-34.5 94.5zM208 418l-134 -193q-12 -16 -23 -42.5t-11 -52.5q0 -40 16 -71t45.5 -49t69.5 -18q41 0 70 18t45 49t16 71q0 36 -17 65.5t-45 47
t-62 17.5t-61.5 -13t-46.5 -36v0l146 207h-8z" />
    <glyph glyph-name="uni2087" unicode="&#x2087;" horiz-adv-x="352" 
d="M35 414h272l-219 -414h7l222 420h-282v-6z" />
    <glyph glyph-name="uni2088" unicode="&#x2088;" horiz-adv-x="302" 
d="M47 325q0 -29 15.5 -53t39.5 -37.5t49 -13.5q26 0 49.5 13.5t39 37.5t15.5 53q0 27 -13.5 50t-37 37t-53.5 14t-53.5 -14t-37 -37t-13.5 -50zM53 325q0 39 27.5 67t70.5 28t70.5 -28t27.5 -67q0 -29 -15.5 -51.5t-38.5 -35.5t-44 -13t-43.5 13t-38.5 35.5t-16 51.5z
M35 111q0 -32 13.5 -59t39.5 -42.5t63 -15.5q38 0 63.5 15.5t39 42.5t13.5 59q0 24 -9.5 44.5t-26 35.5t-37 23.5t-43.5 8.5q-22 0 -43 -8.5t-37.5 -23.5t-26 -35.5t-9.5 -44.5zM41 111q0 32 16.5 56.5t41.5 38t52 13.5t52.5 -13.5t41.5 -38t16 -56.5q0 -48 -29 -79.5
t-81 -31.5t-81 31.5t-29 79.5z" />
    <glyph glyph-name="uni2089" unicode="&#x2089;" horiz-adv-x="332" 
d="M286 290q0 -32 -15 -60.5t-44.5 -46t-71.5 -17.5q-31 0 -58.5 16.5t-44 44.5t-16.5 63q0 57 34.5 94.5t90.5 37.5t90.5 -37.5t34.5 -94.5zM124 2l134 193q12 17 23 43.5t11 51.5q0 40 -16 71t-45 49t-70 18q-40 0 -69.5 -18t-45.5 -49t-16 -71q0 -36 17 -65.5t45.5 -47
t62.5 -17.5t61 13t46 36v0l-145 -207h7z" />
    <glyph glyph-name="Euro" unicode="&#x20ac;" horiz-adv-x="700" 
d="M75 445h501v10h-501v-10zM75 325h475v10h-475v-10zM160 350q0 103 32 181.5t92.5 123.5t145.5 45q87 0 150 -46v15q-34 20 -71.5 30.5t-78.5 10.5q-65 0 -117 -26.5t-88.5 -75t-55.5 -114.5t-19 -144q0 -105 34 -186t96.5 -127.5t149.5 -46.5q41 0 78.5 11t71.5 30v15
q-63 -46 -150 -46q-80 0 -141 45t-95 124t-34 181z" />
    <glyph glyph-name="ruble" unicode="&#x20bd;" horiz-adv-x="748" 
d="M150 700v-700h10v700h-10zM156 690h153q65 0 117.5 -19t83.5 -59.5t31 -106.5q0 -65 -31 -106t-83.5 -60t-117.5 -19h-153v-10h153q68 0 123 20t87.5 63t32.5 112q0 70 -32.5 112.5t-87.5 62.5t-123 20h-153v-10zM220 170h200v10h-200v-10zM30 310h200v10h-200v-10z
M30 170h200v10h-200v-10z" />
    <glyph glyph-name="trademark" unicode="&#x2122;" horiz-adv-x="665" 
d="M38 694h95v-344h5v344h96v6h-196v-6zM592 688l36 -338h5l-37 358zM316 708l-38 -358h6l35 338zM596 708l-140 -293l-140 293l3 -20l137 -286l136 286z" />
    <glyph glyph-name="uni2150" unicode="&#x2150;" horiz-adv-x="842" 
d="M621 700l-573 -700h12l573 700h-12zM21 666l102 23v-415h6v423l-108 -24v-7zM523 414h272l-219 -414h7l222 420h-282v-6z" />
    <glyph glyph-name="uni2151" unicode="&#x2151;" horiz-adv-x="784" 
d="M621 700l-573 -700h12l573 700h-12zM21 666l102 23v-415h6v423l-108 -24v-7zM724 290q0 -32 -15 -60.5t-44.5 -46t-71.5 -17.5q-31 0 -58.5 16.5t-44 44.5t-16.5 63q0 57 34.5 94.5t90.5 37.5t90.5 -37.5t34.5 -94.5zM562 2l134 193q12 17 23 43.5t11 51.5q0 40 -16 71
t-45 49t-70 18q-40 0 -69.5 -18t-45.5 -49t-16 -71q0 -36 17 -65.5t45.5 -47t62.5 -17.5t61 13t46 36v0l-145 -207h7z" />
    <glyph glyph-name="uni2152" unicode="&#x2152;" horiz-adv-x="1080" 
d="M621 700l-573 -700h12l573 700h-12zM21 666l102 23v-415h6v423l-108 -24v-7zM433 393l102 23v-415h6v423l-108 -24v-7zM750 210q0 56 15 104t43 77t67 29q40 0 67.5 -29t42.5 -77t15 -104t-15 -104t-42.5 -77t-67.5 -29q-39 0 -67 29t-43 77t-15 104zM743 210
q0 -59 15.5 -108.5t45.5 -78.5t71 -29q42 0 71.5 29t45 78.5t15.5 108.5q0 60 -15.5 109t-45 78t-71.5 29q-41 0 -71 -29t-45.5 -78t-15.5 -109z" />
    <glyph glyph-name="onethird" unicode="&#x2153;" horiz-adv-x="755" 
d="M621 700l-573 -700h12l573 700h-12zM21 666l102 23v-415h6v423l-108 -24v-7zM578 217q32 0 62 12t49.5 35.5t19.5 55.5q0 40 -28 73t-82 33q-52 0 -82.5 -30.5t-30.5 -79.5h6q0 46 29 75t78 29q50 0 77 -31t27 -69q0 -31 -20 -53t-49 -33.5t-56 -11.5v-5zM596 -6
q56 0 90.5 31t34.5 80q0 39 -22.5 64.5t-55.5 38.5t-65 13v-5q27 0 59 -12t55 -36.5t23 -62.5q0 -46 -32.5 -75.5t-86.5 -29.5q-58 0 -90 31.5t-32 79.5h-6q0 -32 15 -59t44 -42.5t69 -15.5z" />
    <glyph glyph-name="twothirds" unicode="&#x2154;" horiz-adv-x="882" 
d="M748 700l-573 -700h12l573 700h-12zM33 282h272v6h-257l182 191q23 23 40.5 50.5t17.5 64.5q0 25 -11.5 51.5t-36.5 45t-65 18.5q-37 0 -65 -19t-43.5 -53t-15.5 -79h6q0 64 32 104.5t86 40.5q39 0 62.5 -17.5t34 -42.5t10.5 -49q0 -37 -17.5 -62.5t-39.5 -48.5zM705 217
q32 0 62 12t49.5 35.5t19.5 55.5q0 40 -28 73t-82 33q-52 0 -82.5 -30.5t-30.5 -79.5h6q0 46 29 75t78 29q50 0 77 -31t27 -69q0 -31 -20 -53t-49 -33.5t-56 -11.5v-5zM723 -6q56 0 90.5 31t34.5 80q0 39 -22.5 64.5t-55.5 38.5t-65 13v-5q27 0 59 -12t55 -36.5t23 -62.5
q0 -46 -32.5 -75.5t-86.5 -29.5q-58 0 -90 31.5t-32 79.5h-6q0 -32 15 -59t44 -42.5t69 -15.5z" />
    <glyph glyph-name="uni2155" unicode="&#x2155;" horiz-adv-x="744" 
d="M621 700l-573 -700h12l573 700h-12zM21 666l102 23v-415h6v423l-108 -24v-7zM683 136q0 39 -16 68t-43 45.5t-60 16.5q-40 0 -69.5 -16.5t-43.5 -36.5l-10 -19q23 32 53.5 49t69.5 17q47 0 80 -34.5t33 -89.5q0 -68 -37.5 -103t-91.5 -35q-47 0 -75 22.5t-45 62.5l-5 -3
q17 -40 46.5 -64t78.5 -24q38 0 68.5 16t48.5 48.5t18 79.5zM500 412h194v6h-198l-55 -224l10 19z" />
    <glyph glyph-name="uni2156" unicode="&#x2156;" horiz-adv-x="871" 
d="M748 700l-573 -700h12l573 700h-12zM33 282h272v6h-257l182 191q23 23 40.5 50.5t17.5 64.5q0 25 -11.5 51.5t-36.5 45t-65 18.5q-37 0 -65 -19t-43.5 -53t-15.5 -79h6q0 64 32 104.5t86 40.5q39 0 62.5 -17.5t34 -42.5t10.5 -49q0 -37 -17.5 -62.5t-39.5 -48.5zM810 136
q0 39 -16 68t-43 45.5t-60 16.5q-40 0 -69.5 -16.5t-43.5 -36.5l-10 -19q23 32 53.5 49t69.5 17q47 0 80 -34.5t33 -89.5q0 -68 -37.5 -103t-91.5 -35q-47 0 -75 22.5t-45 62.5l-5 -3q17 -40 46.5 -64t78.5 -24q38 0 68.5 16t48.5 48.5t18 79.5zM627 412h194v6h-198
l-55 -224l10 19z" />
    <glyph glyph-name="uni2157" unicode="&#x2157;" horiz-adv-x="831" 
d="M708 700l-573 -700h12l573 700h-12zM145 497q32 0 62 12t49.5 35.5t19.5 55.5q0 40 -28 73t-82 33q-52 0 -82.5 -30.5t-30.5 -79.5h6q0 46 29 75t78 29q50 0 77 -31t27 -69q0 -31 -20 -53t-49 -33.5t-56 -11.5v-5zM163 274q56 0 90.5 31t34.5 80q0 39 -22.5 64.5
t-55.5 38.5t-65 13v-5q27 0 59 -12t55 -36.5t23 -62.5q0 -46 -32.5 -75.5t-86.5 -29.5q-58 0 -90 31.5t-32 79.5h-6q0 -32 15 -59t44 -42.5t69 -15.5zM770 136q0 39 -16 68t-43 45.5t-60 16.5q-40 0 -69.5 -16.5t-43.5 -36.5l-10 -19q23 32 53.5 49t69.5 17q47 0 80 -34.5
t33 -89.5q0 -68 -37.5 -103t-91.5 -35q-47 0 -75 22.5t-45 62.5l-5 -3q17 -40 46.5 -64t78.5 -24q38 0 68.5 16t48.5 48.5t18 79.5zM587 412h194v6h-198l-55 -224l10 19z" />
    <glyph glyph-name="uni2158" unicode="&#x2158;" horiz-adv-x="866" 
d="M743 700l-573 -700h12l573 700h-12zM35 364h296v6h-68h-2h-220zM42 364l217 316v-312v-3v-85h7v420h-1l-230 -336h7zM805 136q0 39 -16 68t-43 45.5t-60 16.5q-40 0 -69.5 -16.5t-43.5 -36.5l-10 -19q23 32 53.5 49t69.5 17q47 0 80 -34.5t33 -89.5q0 -68 -37.5 -103
t-91.5 -35q-47 0 -75 22.5t-45 62.5l-5 -3q17 -40 46.5 -64t78.5 -24q38 0 68.5 16t48.5 48.5t18 79.5zM622 412h194v6h-198l-55 -224l10 19z" />
    <glyph glyph-name="uni2159" unicode="&#x2159;" horiz-adv-x="734" 
d="M621 700l-573 -700h12l573 700h-12zM21 666l102 23v-415h6v423l-108 -24v-7zM434 130q0 32 15.5 60.5t45 46t71.5 17.5q32 0 58.5 -16.5t43 -44.5t16.5 -63q0 -57 -34.5 -94.5t-90.5 -37.5t-90.5 37.5t-34.5 94.5zM596 418l-134 -193q-12 -16 -23 -42.5t-11 -52.5
q0 -40 16 -71t45.5 -49t69.5 -18q41 0 70 18t45 49t16 71q0 36 -17 65.5t-45 47t-62 17.5t-61.5 -13t-46.5 -36v0l146 207h-8z" />
    <glyph glyph-name="uni215A" unicode="&#x215a;" horiz-adv-x="856" 
d="M743 700l-573 -700h12l573 700h-12zM295 416q0 39 -16 68t-43 45.5t-60 16.5q-40 0 -69.5 -16.5t-43.5 -36.5l-10 -19q23 32 53.5 49t69.5 17q47 0 80 -34.5t33 -89.5q0 -68 -37.5 -103t-91.5 -35q-47 0 -75 22.5t-45 62.5l-5 -3q17 -40 46.5 -64t78.5 -24q38 0 68.5 16
t48.5 48.5t18 79.5zM112 692h194v6h-198l-55 -224l10 19zM556 130q0 32 15.5 60.5t45 46t71.5 17.5q32 0 58.5 -16.5t43 -44.5t16.5 -63q0 -57 -34.5 -94.5t-90.5 -37.5t-90.5 37.5t-34.5 94.5zM718 418l-134 -193q-12 -16 -23 -42.5t-11 -52.5q0 -40 16 -71t45.5 -49
t69.5 -18q41 0 70 18t45 49t16 71q0 36 -17 65.5t-45 47t-62 17.5t-61.5 -13t-46.5 -36v0l146 207h-8z" />
    <glyph glyph-name="oneeighth" unicode="&#x215b;" horiz-adv-x="760" 
d="M621 700l-573 -700h12l573 700h-12zM21 666l102 23v-415h6v423l-108 -24v-7zM485 325q0 -29 15.5 -53t39.5 -37.5t49 -13.5q26 0 49.5 13.5t39 37.5t15.5 53q0 27 -13.5 50t-37 37t-53.5 14t-53.5 -14t-37 -37t-13.5 -50zM491 325q0 39 27.5 67t70.5 28t70.5 -28
t27.5 -67q0 -29 -16 -51.5t-38.5 -35.5t-43.5 -13t-43.5 13t-38.5 35.5t-16 51.5zM473 111q0 -32 13.5 -59t39.5 -42.5t63 -15.5q38 0 63.5 15.5t39 42.5t13.5 59q0 24 -9.5 44.5t-26 35.5t-37 23.5t-43.5 8.5q-22 0 -43 -8.5t-37.5 -23.5t-26 -35.5t-9.5 -44.5zM479 111
q0 32 16 56.5t41.5 38t52.5 13.5t52.5 -13.5t41.5 -38t16 -56.5q0 -48 -29 -79.5t-81 -31.5t-81 31.5t-29 79.5z" />
    <glyph glyph-name="threeeighths" unicode="&#x215c;" horiz-adv-x="847" 
d="M708 700l-573 -700h12l573 700h-12zM145 497q32 0 62 12t49.5 35.5t19.5 55.5q0 40 -28 73t-82 33q-52 0 -82.5 -30.5t-30.5 -79.5h6q0 46 29 75t78 29q50 0 77 -31t27 -69q0 -31 -20 -53t-49 -33.5t-56 -11.5v-5zM163 274q56 0 90.5 31t34.5 80q0 39 -22.5 64.5
t-55.5 38.5t-65 13v-5q27 0 59 -12t55 -36.5t23 -62.5q0 -46 -32.5 -75.5t-86.5 -29.5q-58 0 -90 31.5t-32 79.5h-6q0 -32 15 -59t44 -42.5t69 -15.5zM572 325q0 -29 15.5 -53t39.5 -37.5t49 -13.5q26 0 49.5 13.5t39 37.5t15.5 53q0 27 -13.5 50t-37 37t-53.5 14t-53.5 -14
t-37 -37t-13.5 -50zM578 325q0 39 27.5 67t70.5 28t70.5 -28t27.5 -67q0 -29 -16 -51.5t-38.5 -35.5t-43.5 -13t-43.5 13t-38.5 35.5t-16 51.5zM560 111q0 -32 13.5 -59t39.5 -42.5t63 -15.5q38 0 63.5 15.5t39 42.5t13.5 59q0 24 -9.5 44.5t-26 35.5t-37 23.5t-43.5 8.5
q-22 0 -43 -8.5t-37.5 -23.5t-26 -35.5t-9.5 -44.5zM566 111q0 32 16.5 56.5t41.5 38t52 13.5t52.5 -13.5t41.5 -38t16 -56.5q0 -48 -29 -79.5t-81 -31.5t-81 31.5t-29 79.5z" />
    <glyph glyph-name="fiveeighths" unicode="&#x215d;" horiz-adv-x="882" 
d="M743 700l-573 -700h12l573 700h-12zM295 416q0 39 -16 68t-43 45.5t-60 16.5q-40 0 -69.5 -16.5t-43.5 -36.5l-10 -19q23 32 53.5 49t69.5 17q47 0 80 -34.5t33 -89.5q0 -68 -37.5 -103t-91.5 -35q-47 0 -75 22.5t-45 62.5l-5 -3q17 -40 46.5 -64t78.5 -24q38 0 68.5 16
t48.5 48.5t18 79.5zM112 692h194v6h-198l-55 -224l10 19zM607 325q0 -29 15.5 -53t39.5 -37.5t49 -13.5q26 0 49.5 13.5t39 37.5t15.5 53q0 27 -13.5 50t-37 37t-53.5 14t-53.5 -14t-37 -37t-13.5 -50zM613 325q0 39 27.5 67t70.5 28t70.5 -28t27.5 -67q0 -29 -16 -51.5
t-38.5 -35.5t-43.5 -13t-43.5 13t-38.5 35.5t-16 51.5zM595 111q0 -32 13.5 -59t39.5 -42.5t63 -15.5q38 0 63.5 15.5t39 42.5t13.5 59q0 24 -9.5 44.5t-26 35.5t-37 23.5t-43.5 8.5q-22 0 -43 -8.5t-37.5 -23.5t-26 -35.5t-9.5 -44.5zM601 111q0 32 16.5 56.5t41.5 38
t52 13.5t52.5 -13.5t41.5 -38t16 -56.5q0 -48 -29 -79.5t-81 -31.5t-81 31.5t-29 79.5z" />
    <glyph glyph-name="seveneighths" unicode="&#x215e;" horiz-adv-x="772" 
d="M633 700l-573 -700h12l573 700h-12zM35 694h272l-219 -414h7l222 420h-282v-6zM497 325q0 -29 15.5 -53t39.5 -37.5t49 -13.5q26 0 49.5 13.5t39 37.5t15.5 53q0 27 -13.5 50t-37 37t-53.5 14t-53.5 -14t-37 -37t-13.5 -50zM503 325q0 39 27.5 67t70.5 28t70.5 -28
t27.5 -67q0 -29 -16 -51.5t-38.5 -35.5t-43.5 -13t-43.5 13t-38.5 35.5t-16 51.5zM485 111q0 -32 13.5 -59t39.5 -42.5t63 -15.5q38 0 63.5 15.5t39 42.5t13.5 59q0 24 -9.5 44.5t-26 35.5t-37 23.5t-43.5 8.5q-22 0 -43 -8.5t-37.5 -23.5t-26 -35.5t-9.5 -44.5zM491 111
q0 32 16.5 56.5t41.5 38t52 13.5t52.5 -13.5t41.5 -38t16 -56.5q0 -48 -29 -79.5t-81 -31.5t-81 31.5t-29 79.5z" />
    <glyph glyph-name="partialdiff" unicode="&#x2202;" horiz-adv-x="536" 
d="M268 -10q66 0 115 29t76 80.5t27 120.5q0 30 -6.5 57t-23.5 60t-48 80t-80.5 115.5t-121.5 167.5l-7 -6q51 -69 84.5 -115.5t58 -81t46 -67.5t48.5 -76v1q-65 82 -179 82q-57 0 -104 -29.5t-75 -78.5t-28 -109q0 -69 27 -120.5t76.5 -80.5t114.5 -29zM268 0
q-61 0 -108 28t-73.5 78t-26.5 114q0 56 27 103t72 75.5t98 28.5q63 0 112.5 -27t78 -73.5t28.5 -106.5q0 -64 -26.5 -113.5t-73.5 -78t-108 -28.5z" />
    <glyph glyph-name="emptyset" unicode="&#x2205;" horiz-adv-x="600" 
d="M300 28q59 0 107.5 29t77.5 77.5t29 107.5t-29 107.5t-77.5 77.5t-107.5 29t-107.5 -29t-77.5 -77.5t-29 -107.5t29 -107.5t77.5 -77.5t107.5 -29zM300 38q-56 0 -102.5 27.5t-74 74t-27.5 102.5t27.5 102.5t74 74t102.5 27.5t102.5 -27.5t74 -74t27.5 -102.5
t-27.5 -102.5t-74 -74t-102.5 -27.5zM109 44l389 388l-6 6l-390 -388z" />
    <glyph glyph-name="product" unicode="&#x220f;" horiz-adv-x="600" 
d="M160 0h80v630h120v-630h80v630h85v70h-450v-70h85v-630z" />
    <glyph glyph-name="summation" unicode="&#x2211;" horiz-adv-x="600" 
d="M100 0h400v8h-386l166 344l-166 340h386v8h-400l170 -348z" />
    <glyph glyph-name="minus" unicode="&#x2212;" horiz-adv-x="590" 
d="M70 265h450v10h-450v-10z" />
    <glyph glyph-name="uni2215" unicode="&#x2215;" 
d="M448 700l-433 -850h12l433 850h-12z" />
    <glyph glyph-name="uni2219" unicode="&#x2219;" horiz-adv-x="260" 
d="M119 449q0 -5 3.5 -8t7.5 -3q5 0 8 3t3 8t-3 8t-8 3q-4 0 -7.5 -3t-3.5 -8z" />
    <glyph glyph-name="radical" unicode="&#x221a;" horiz-adv-x="600" 
d="M232 -113l-102 343l8 -4l-93 -21l-3 8l96 21l96 -322l-9 -2l113 790h164v-9h-162l8 3z" />
    <glyph glyph-name="infinity" unicode="&#x221e;" horiz-adv-x="826" 
d="M191 74q109 0 222 173q57 -87 112 -130t110 -43q46 0 84 25t61.5 66t23.5 90q0 48 -23.5 89.5t-62 66.5t-83.5 25q-109 0 -222 -173q-113 173 -222 173q-45 0 -83.5 -25t-62 -66t-23.5 -90t23.5 -90t62 -66t83.5 -25zM189 84q-41 0 -77 24t-58 63t-22 84t22 84t58 63
t77 24q54 0 111.5 -45t107.5 -126q-50 -81 -107.5 -126t-111.5 -45zM637 84q-54 0 -111.5 45t-107.5 126q50 81 107.5 126t111.5 45q42 0 77.5 -23.5t57.5 -62.5t22 -85q0 -45 -22 -84t-58 -63t-77 -24z" />
    <glyph glyph-name="integral" unicode="&#x222b;" horiz-adv-x="600" 
d="M172 -200q29 0 51.5 17t36 48t15.5 72l40 713q3 59 29 93t66 34q20 0 37 -10t39 -34l6 7q-22 25 -42 36t-43 11q-43 0 -71.5 -37.5t-31.5 -99.5l-40 -713q-3 -58 -28.5 -92.5t-66.5 -34.5q-19 0 -36 10t-40 34l-6 -7q23 -25 43 -36t42 -11z" />
    <glyph glyph-name="approxequal" unicode="&#x2248;" horiz-adv-x="600" 
d="M414 322q-28 0 -57 17t-63 54q-37 42 -65 58t-60 16q-49 0 -72.5 -40t-8.5 -99l-10 3q-11 38 -1.5 71t34 54t58.5 21q32 0 65.5 -19.5t67.5 -57.5q35 -39 58.5 -53.5t53.5 -14.5q47 0 66.5 38t5.5 101l10 -3q10 -41 2 -74t-30 -52.5t-54 -19.5zM414 122q-28 0 -57 17
t-63 54q-37 42 -65 58t-60 16q-49 0 -72.5 -40t-8.5 -99l-10 3q-11 38 -1.5 71t34 54t58.5 21q32 0 65.5 -19.5t67.5 -57.5q35 -39 58.5 -53.5t53.5 -14.5q47 0 66.5 38t5.5 101l10 -3q10 -41 2 -74t-30 -52.5t-54 -19.5z" />
    <glyph glyph-name="notequal" unicode="&#x2260;" horiz-adv-x="600" 
d="M98 40l-6 6l410 410l6 -6zM65 185v10h485v-10h-485zM65 310v10h485v-10h-485z" />
    <glyph glyph-name="lessequal" unicode="&#x2264;" horiz-adv-x="600" 
d="M65 0v10h510v-10h-510zM575 75l-510 209v6l510 210v-10l-493 -203l493 -202v-10z" />
    <glyph glyph-name="greaterequal" unicode="&#x2265;" horiz-adv-x="600" 
d="M65 0v10h510v-10h-510zM65 75v10l493 203l-493 202v10l510 -209v-6z" />
    <glyph glyph-name="lozenge" unicode="&#x25ca;" horiz-adv-x="600" 
d="M306 15l-206 341l206 340l194 -340zM305 40l181 316l-181 315l-191 -315z" />
    <glyph glyph-name="uniFF10" unicode="&#xff10;" horiz-adv-x="550" 
d="M66 350q0 70 14 133t41 112t66 77t88 28q50 0 88.5 -28t65.5 -77t41 -112t14 -133t-14 -133t-41 -112t-65.5 -77t-88.5 -28q-49 0 -88 28t-66 77t-41 112t-14 133zM55 350q0 -99 26 -181t75.5 -130.5t118.5 -48.5q70 0 119 48.5t75 130.5t26 181q0 100 -26 181.5t-75 130
t-119 48.5q-69 0 -118.5 -48.5t-75.5 -130t-26 -181.5z" />
    <glyph glyph-name="uniFF11" unicode="&#xff11;" horiz-adv-x="550" 
d="M165 654l170 37v-691h10v705l-180 -40v-11z" />
    <glyph glyph-name="uniFF12" unicode="&#xff12;" horiz-adv-x="550" 
d="M43 0h454v10h-429l304 318q38 39 67.5 84.5t29.5 106.5q0 32 -10.5 65.5t-33.5 62t-59 46.5t-86 18q-62 0 -109 -31.5t-72.5 -88t-25.5 -131.5h10q0 71 24 125t68.5 85t104.5 31q49 0 83 -17t55 -44.5t30.5 -59t9.5 -61.5q0 -42 -13.5 -74t-35 -58.5t-46.5 -52.5z" />
    <glyph glyph-name="uniFF13" unicode="&#xff13;" horiz-adv-x="550" 
d="M248 362q53 0 103 20.5t82.5 59t32.5 92.5q0 45 -21 85t-62 65.5t-101 25.5q-57 0 -99.5 -23.5t-65.5 -64.5t-23 -96h10q0 76 48 125t130 49q56 0 95 -24.5t59 -62.5t20 -80q0 -39 -19.5 -69.5t-51 -51t-67.5 -31.5t-70 -11v-8zM278 -10q63 0 109.5 23.5t72.5 65t26 96.5
q0 48 -22 84.5t-57.5 60.5t-77.5 36t-81 12v-8q34 0 73 -11.5t74.5 -34.5t58 -57.5t22.5 -81.5q0 -50 -24.5 -90t-69 -62.5t-104.5 -22.5q-65 0 -110.5 24t-69.5 66t-24 95h-10q0 -41 14.5 -76.5t42 -62t67 -41.5t90.5 -15z" />
    <glyph glyph-name="uniFF14" unicode="&#xff14;" horiz-adv-x="550" 
d="M24 140h492v10h-112h-4h-366zM36 140l361 526v-519v-5v-142h11v700h-2l-382 -560h12z" />
    <glyph glyph-name="uniFF15" unicode="&#xff15;" horiz-adv-x="550" 
d="M486 230q0 65 -27 113.5t-72.5 75.5t-100.5 27q-67 0 -115 -26.5t-71 -60.5l-18 -32q26 35 56.5 59.5t67.5 37t80 12.5q53 0 96 -26.5t68.5 -72.5t25.5 -107q0 -75 -29 -126.5t-78 -77.5t-109 -26q-52 0 -90.5 17t-65 49t-44.5 76l-8 -5q18 -45 46 -78t68 -51t94 -18
q47 0 88 15t72 45t48.5 75t17.5 105zM180 690h324v10h-330l-92 -373l18 32z" />
    <glyph glyph-name="uniFF16" unicode="&#xff16;" horiz-adv-x="550" 
d="M67 220q0 53 25.5 100.5t74.5 77t119 29.5q53 0 97.5 -27.5t72 -74.5t27.5 -105q0 -63 -26 -112.5t-72.5 -78.5t-109.5 -29q-62 0 -109 29t-73 78.5t-26 112.5zM337 700l-224 -321q-20 -28 -38 -72t-18 -87q0 -67 26.5 -119t75.5 -81.5t116 -29.5q68 0 116.5 29.5
t75 81.5t26.5 119q0 45 -16 84t-44.5 69t-66 47t-80.5 17q-56 0 -101.5 -21.5t-77.5 -60.5v0l242 345h-12z" />
    <glyph glyph-name="uniFF17" unicode="&#xff17;" horiz-adv-x="550" 
d="M52 690h454l-364 -690h10l370 700h-470v-10z" />
    <glyph glyph-name="uniFF18" unicode="&#xff18;" horiz-adv-x="550" 
d="M102 541q0 -37 15 -68.5t40 -55t55.5 -36.5t62.5 -13t62.5 13t55.5 36.5t40 55t15 68.5q0 45 -22.5 83.5t-61.5 62t-89 23.5t-89 -23.5t-61.5 -62t-22.5 -83.5zM112 541q0 43 21 79t58 58t84 22q48 0 84.5 -22t57.5 -58t21 -79q0 -48 -26 -85.5t-64 -59t-73 -21.5
t-73 21.5t-64 59t-26 85.5zM82 185q0 -41 12.5 -76.5t37 -62t60.5 -41.5t83 -15t83 15t60.5 41.5t37 62t12.5 76.5t-16 75t-43 59t-61.5 39t-72.5 14q-37 0 -72 -14t-62 -39t-43 -59t-16 -75zM92 185q0 53 27 93.5t69 63.5t87 23t87 -23t69 -63.5t27 -93.5t-22 -95
t-62.5 -66t-98.5 -24q-57 0 -98 24t-63 66t-22 95z" />
    <glyph glyph-name="uniFF19" unicode="&#xff19;" horiz-adv-x="550" 
d="M483 480q0 -53 -25.5 -100.5t-74.5 -77t-119 -29.5q-52 0 -97 27.5t-72.5 74.5t-27.5 105q0 63 26 113t73 78.5t109 28.5q63 0 109.5 -28.5t72.5 -78.5t26 -113zM213 0l224 321q20 28 38 72t18 87q0 67 -26.5 119t-75 81.5t-116.5 29.5q-67 0 -116 -29.5t-75.5 -81.5
t-26.5 -119q0 -45 16 -84t44.5 -69t66 -47t80.5 -17q56 0 102 21.5t77 60.5v0l-242 -345h12z" />
    <glyph glyph-name="a.alt" horiz-adv-x="541" 
d="M451 460v-460h10v460h-10zM45 230q0 -73 28 -127t76.5 -83.5t108.5 -29.5q62 0 106 35t68 90.5t24 114.5q0 60 -24 115t-68 90t-106 35q-60 0 -108.5 -29.5t-76.5 -83t-28 -127.5zM55 230q0 71 27.5 122.5t74 79.5t104.5 28q55 0 97.5 -33.5t67.5 -86t25 -110.5
t-25 -110.5t-67.5 -86t-97.5 -33.5q-58 0 -104.5 28t-74 80t-27.5 122z" />
    <glyph glyph-name="agrave.alt" horiz-adv-x="541" 
d="M451 460v-460h10v460h-10zM45 230q0 -73 28 -127t76.5 -83.5t108.5 -29.5q62 0 106 35t68 90.5t24 114.5q0 60 -24 115t-68 90t-106 35q-60 0 -108.5 -29.5t-76.5 -83t-28 -127.5zM55 230q0 71 27.5 122.5t74 79.5t104.5 28q55 0 97.5 -33.5t67.5 -86t25 -110.5
t-25 -110.5t-67.5 -86t-97.5 -33.5q-58 0 -104.5 28t-74 80t-27.5 122zM162 697l174 -157l4 5l-170 160z" />
    <glyph glyph-name="aacute.alt" horiz-adv-x="541" 
d="M451 460v-460h10v460h-10zM45 230q0 -73 28 -127t76.5 -83.5t108.5 -29.5q62 0 106 35t68 90.5t24 114.5q0 60 -24 115t-68 90t-106 35q-60 0 -108.5 -29.5t-76.5 -83t-28 -127.5zM55 230q0 71 27.5 122.5t74 79.5t104.5 28q55 0 97.5 -33.5t67.5 -86t25 -110.5
t-25 -110.5t-67.5 -86t-97.5 -33.5q-58 0 -104.5 28t-74 80t-27.5 122zM354 697l-8 8l-170 -160l4 -5z" />
    <glyph glyph-name="acircumflex.alt" horiz-adv-x="541" 
d="M451 460v-460h10v460h-10zM45 230q0 -73 28 -127t76.5 -83.5t108.5 -29.5q62 0 106 35t68 90.5t24 114.5q0 60 -24 115t-68 90t-106 35q-60 0 -108.5 -29.5t-76.5 -83t-28 -127.5zM55 230q0 71 27.5 122.5t74 79.5t104.5 28q55 0 97.5 -33.5t67.5 -86t25 -110.5
t-25 -110.5t-67.5 -86t-97.5 -33.5q-58 0 -104.5 28t-74 80t-27.5 122zM258 685l153 -135l7 7l-160 140l-160 -140l7 -7z" />
    <glyph glyph-name="atilde.alt" horiz-adv-x="541" 
d="M451 460v-460h10v460h-10zM45 230q0 -73 28 -127t76.5 -83.5t108.5 -29.5q62 0 106 35t68 90.5t24 114.5q0 60 -24 115t-68 90t-106 35q-60 0 -108.5 -29.5t-76.5 -83t-28 -127.5zM55 230q0 71 27.5 122.5t74 79.5t104.5 28q55 0 97.5 -33.5t67.5 -86t25 -110.5
t-25 -110.5t-67.5 -86t-97.5 -33.5q-58 0 -104.5 28t-74 80t-27.5 122zM132 551l10 -1q0 13 5 24.5t17 19t32 7.5q23 0 40 -11.5t36 -23.5t46 -12q15 0 27 5.5t21.5 17.5t17.5 30l-10 3q-11 -24 -22.5 -36t-33.5 -12q-20 0 -34.5 7t-27 16.5t-27 16.5t-35.5 7
q-22 0 -36 -8.5t-20 -21.5t-6 -28z" />
    <glyph glyph-name="adieresis.alt" horiz-adv-x="541" 
d="M451 460v-460h10v460h-10zM45 230q0 -73 28 -127t76.5 -83.5t108.5 -29.5q62 0 106 35t68 90.5t24 114.5q0 60 -24 115t-68 90t-106 35q-60 0 -108.5 -29.5t-76.5 -83t-28 -127.5zM55 230q0 71 27.5 122.5t74 79.5t104.5 28q55 0 97.5 -33.5t67.5 -86t25 -110.5
t-25 -110.5t-67.5 -86t-97.5 -33.5q-58 0 -104.5 28t-74 80t-27.5 122zM357 591q0 -5 3.5 -8t7.5 -3q5 0 8 3t3 8t-3 8t-8 3q-4 0 -7.5 -3t-3.5 -8zM157 591q0 -5 3.5 -8t7.5 -3q5 0 8 3t3 8t-3 8t-8 3q-4 0 -7.5 -3t-3.5 -8z" />
    <glyph glyph-name="aring.alt" horiz-adv-x="541" 
d="M451 460v-460h10v460h-10zM45 230q0 -73 28 -127t76.5 -83.5t108.5 -29.5q62 0 106 35t68 90.5t24 114.5q0 60 -24 115t-68 90t-106 35q-60 0 -108.5 -29.5t-76.5 -83t-28 -127.5zM55 230q0 71 27.5 122.5t74 79.5t104.5 28q55 0 97.5 -33.5t67.5 -86t25 -110.5
t-25 -110.5t-67.5 -86t-97.5 -33.5q-58 0 -104.5 28t-74 80t-27.5 122zM156 630q0 -45 31.5 -72.5t70.5 -27.5t70.5 27.5t31.5 72.5t-31.5 72.5t-70.5 27.5t-70.5 -27.5t-31.5 -72.5zM166 630q0 40 28 65t64 25t64 -25t28 -65t-28 -65t-64 -25t-64 25t-28 65z" />
    <glyph glyph-name="amacron.alt" horiz-adv-x="541" 
d="M451 460v-460h10v460h-10zM45 230q0 -73 28 -127t76.5 -83.5t108.5 -29.5q62 0 106 35t68 90.5t24 114.5q0 60 -24 115t-68 90t-106 35q-60 0 -108.5 -29.5t-76.5 -83t-28 -127.5zM55 230q0 71 27.5 122.5t74 79.5t104.5 28q55 0 97.5 -33.5t67.5 -86t25 -110.5
t-25 -110.5t-67.5 -86t-97.5 -33.5q-58 0 -104.5 28t-74 80t-27.5 122zM83 550h350v10h-350v-10z" />
    <glyph glyph-name="abreve.alt" horiz-adv-x="541" 
d="M451 460v-460h10v460h-10zM45 230q0 -73 28 -127t76.5 -83.5t108.5 -29.5q62 0 106 35t68 90.5t24 114.5q0 60 -24 115t-68 90t-106 35q-60 0 -108.5 -29.5t-76.5 -83t-28 -127.5zM55 230q0 71 27.5 122.5t74 79.5t104.5 28q55 0 97.5 -33.5t67.5 -86t25 -110.5
t-25 -110.5t-67.5 -86t-97.5 -33.5q-58 0 -104.5 28t-74 80t-27.5 122zM100 690q0 -34 17.5 -66.5t53 -53t87.5 -20.5q53 0 88 20.5t52.5 53t17.5 66.5h-10q0 -33 -18 -62.5t-51 -48.5t-79 -19t-79 19t-51 48.5t-18 62.5h-10z" />
    <glyph glyph-name="aogonek.alt" horiz-adv-x="541" 
d="M451 460v-460h10v460h-10zM45 230q0 -73 28 -127t76.5 -83.5t108.5 -29.5q62 0 106 35t68 90.5t24 114.5q0 60 -24 115t-68 90t-106 35q-60 0 -108.5 -29.5t-76.5 -83t-28 -127.5zM55 230q0 71 27.5 122.5t74 79.5t104.5 28q55 0 97.5 -33.5t67.5 -86t25 -110.5
t-25 -110.5t-67.5 -86t-97.5 -33.5q-58 0 -104.5 28t-74 80t-27.5 122zM495 -173q-11 -13 -36 -25t-55 -12q-37 0 -65 18t-28 52q0 29 23.5 54.5t58 47.5t68.5 38l-7 10q-35 -18 -70.5 -39.5t-59 -48.5t-23.5 -62q0 -24 12.5 -42t35.5 -28t55 -10t59.5 12.5t38.5 27.5z" />
    </font>
</defs>
</svg>
