<?xml version="1.0" standalone="no"?>
<!DOCTYPE svg PUBLIC "-//W3C//DTD SVG 1.1//EN" "http://www.w3.org/Graphics/SVG/1.1/DTD/svg11.dtd" >
<svg xmlns="http://www.w3.org/2000/svg" xmlns:xlink="http://www.w3.org/1999/xlink" version="1.1">
<metadata>
Created by FontForge 20201107 at Fri Sep 10 18:37:55 2021
 By 
Copyright 2020 The Jost Project Authors (https://github.com/indestructible-type/Jost)
</metadata>
<defs>
<font id="Jost-ThinItalic" horiz-adv-x="461" >
  <font-face 
    font-family="Jost Thin"
    font-weight="250"
    font-style="italic"
    font-stretch="normal"
    units-per-em="1000"
    panose-1="0 0 0 0 0 0 0 0 0 0"
    ascent="800"
    descent="-200"
    x-height="460"
    cap-height="700"
    bbox="-185 -324 1364 1004"
    underline-thickness="50"
    underline-position="-125"
    slope="-5"
    unicode-range="U+000D-FF19"
  />
<missing-glyph horiz-adv-x="500" 
 />
    <glyph glyph-name=".notdef" horiz-adv-x="500" 
 />
    <glyph glyph-name="uni0000" horiz-adv-x="301" 
 />
    <glyph glyph-name="uni0000" horiz-adv-x="301" 
 />
    <glyph glyph-name="uni000D" unicode="&#xd;" horiz-adv-x="301" 
 />
    <glyph glyph-name="space" unicode=" " horiz-adv-x="301" 
 />
    <glyph glyph-name="exclam" unicode="!" horiz-adv-x="254" 
d="M213 700l-82 -499h6l90 499h-14zM89 1q0 -5 3.5 -8t7.5 -3q5 0 8 3t3 8t-3 8t-8 3q-4 0 -7.5 -3t-3.5 -8z" />
    <glyph glyph-name="quotedbl" unicode="&#x22;" horiz-adv-x="391" 
d="M227 700l-93 -279h7l99 279h-13zM402 700l-93 -279h7l99 279h-13z" />
    <glyph glyph-name="numbersign" unicode="#" horiz-adv-x="554" 
d="M123 454h127h3h202h4h112l2 11h-448zM48 240h448l1 11h-123h-6h-197h-5h-116zM549 700l-98 -238l-1 -4l-86 -212l-1 -2l-100 -244h11l286 700h-11zM345 700l-285 -700l11 1l99 242v1l87 214l2 4l97 238h-11z" />
    <glyph glyph-name="dollar" unicode="$" horiz-adv-x="563" 
d="M350 818l-19 -117h10l19 117h-10zM226 -2l-18 -110h10l18 110h-10zM484 548l10 2q-5 38 -22.5 74t-50 60t-84.5 24q-46 0 -87.5 -20.5t-69.5 -56t-35 -81.5q-7 -50 15.5 -86.5t60.5 -62t77 -42.5q37 -16 69.5 -41t50.5 -60t12 -83q-7 -49 -32 -87.5t-67 -61t-100 -22.5
q-57 1 -91.5 30t-52 73.5t-25.5 89.5l-10 -4q8 -47 27 -93t55.5 -76t95.5 -31q62 0 106.5 24.5t70.5 66t33 91.5t-11 87t-51 63t-74 43q-29 13 -57.5 29.5t-51 38.5t-34 50t-5.5 64q7 42 33 75.5t65 52.5t82 19q49 0 79.5 -22.5t47 -56.5t21.5 -70z" />
    <glyph glyph-name="percent" unicode="%" horiz-adv-x="680" 
d="M102 561q-6 -39 6 -73t41 -55.5t72 -21.5q44 0 80 20t59.5 54.5t29.5 74.5q6 39 -6 73t-40.5 55.5t-72.5 21.5q-43 0 -79 -20.5t-59.5 -54.5t-30.5 -74zM112 560q7 37 29 69t55.5 51.5t74.5 19.5t67 -20.5t37 -52t5 -67.5q-6 -37 -28 -69t-55.5 -51.5t-74.5 -19.5
t-67.5 20.5t-37 52.5t-5.5 67zM356 141q-6 -39 6 -73t41 -55.5t72 -21.5q44 0 79.5 20t59.5 54.5t30 74.5q6 39 -6 73t-40.5 55.5t-72.5 21.5t-80 -20.5t-59 -54.5t-30 -74zM366 140q6 37 28 69t55.5 51.5t74.5 19.5t67 -20.5t37.5 -52t5.5 -67.5q-6 -37 -28.5 -69
t-56 -51.5t-74.5 -19.5t-67.5 20.5t-37 52.5t-4.5 67zM649 699l-564 -699h12l564 699h-12z" />
    <glyph glyph-name="ampersand" unicode="&#x26;" horiz-adv-x="655" 
d="M226 427l299 -427h13l-304 435q-13 20 -23.5 41.5t-15 46t-0.5 53.5q6 34 27 62.5t54.5 46t75.5 16.5q40 -1 64.5 -20t34.5 -48t5 -59q-6 -35 -30.5 -64.5t-59 -54.5t-74.5 -48q-26 -14 -56.5 -29.5t-61.5 -34t-57.5 -42.5t-44.5 -55.5t-24 -72.5q-7 -55 13.5 -96
t62 -63.5t96.5 -22.5q69 0 125.5 31t104 80t90.5 104.5t85 103.5l-8 6q-41 -48 -83 -103t-89.5 -103.5t-102.5 -78.5t-122 -30q-52 0 -91.5 21t-58.5 60t-12 91q7 50 33 84.5t61.5 59.5t74 44.5t71.5 38.5q42 24 77.5 49.5t60 56t30.5 68.5q5 33 -6 64.5t-38 52t-70 20.5
q-45 1 -80.5 -17t-58 -48.5t-28.5 -68.5q-4 -31 0.5 -57t15.5 -48.5t25 -44.5z" />
    <glyph glyph-name="quotesingle" unicode="'" horiz-adv-x="216" 
d="M227 700l-93 -279h7l99 279h-13z" />
    <glyph glyph-name="parenleft" unicode="(" horiz-adv-x="233" 
d="M303 780q-74 -110 -121 -234.5t-67 -255.5q-19 -123 -11.5 -247t47.5 -243h5q-34 122 -42 244.5t11 245.5q20 131 66.5 253t116.5 237h-5z" />
    <glyph glyph-name="parenright" unicode=")" horiz-adv-x="233" 
d="M-14 -199q74 110 121 234.5t67 254.5q18 124 10.5 248t-47.5 242h-5q35 -122 42.5 -244t-11.5 -246q-20 -130 -66 -252t-116 -237h5z" />
    <glyph glyph-name="asterisk" unicode="*" horiz-adv-x="575" 
d="M520 585l-172 -56l2 -6l171 50zM431 387l-79 140l-5 -5l74 -142zM230 381l121 141l-3 5l-127 -139zM195 573l154 -50l4 5l-153 57zM375 700l-29 -174h6l35 174h-12z" />
    <glyph glyph-name="plus" unicode="+" horiz-adv-x="534" 
d="M79 250h398l2 10h-399zM313 480l-78 -449h10l78 449h-10z" />
    <glyph glyph-name="comma" unicode="," horiz-adv-x="268" 
d="M160 93l-147 -251l6 -2l151 248z" />
    <glyph glyph-name="hyphen" unicode="-" horiz-adv-x="204" 
d="M23 265h194l2 10h-194z" />
    <glyph glyph-name="period" unicode="." horiz-adv-x="252" 
d="M88 1q0 -4 3.5 -7.5t7.5 -3.5q5 0 8 3.5t3 7.5q0 5 -3 8t-8 3q-4 0 -7.5 -3t-3.5 -8z" />
    <glyph glyph-name="slash" unicode="/" 
d="M528 700l-567 -849h12l567 848z" />
    <glyph glyph-name="zero" unicode="0" horiz-adv-x="534" 
d="M97 350q9 60 30 121.5t54 113.5t78 83.5t101 31.5q45 0 74.5 -22.5t46 -60t22.5 -83.5t5 -93.5t-6 -90.5q-8 -60 -29 -121.5t-54.5 -113.5t-78.5 -83.5t-101 -31.5q-45 0 -74 22.5t-45.5 60t-22.5 83.5t-5.5 94t5.5 90zM86 350q-5 -45 -5.5 -94.5t6.5 -96.5t24.5 -85
t48.5 -60.5t79 -22.5q59 0 105.5 31.5t81.5 84t56.5 116.5t30.5 127q5 46 6 95.5t-6 96.5t-25 85t-49 60.5t-78 22.5q-59 0 -106 -31.5t-81.5 -84.5t-56.5 -117t-31 -127z" />
    <glyph glyph-name="one" unicode="1" horiz-adv-x="398" 
d="M177 655l171 36l-118 -691h9l122 705l-182 -39z" />
    <glyph glyph-name="two" unicode="2" horiz-adv-x="499" 
d="M7 0h441l2 10l-416 1l344 317q41 39 77.5 85t45.5 106q7 45 -7.5 89t-51 73.5t-96.5 29.5q-66 1 -115.5 -34.5t-81 -92.5t-43.5 -123h10q12 63 42 118t77.5 89t110.5 33q58 0 92 -28.5t46.5 -70t5.5 -83.5q-6 -40 -24.5 -72.5t-44 -59.5t-52.5 -53z" />
    <glyph glyph-name="three" unicode="3" horiz-adv-x="535" 
d="M279 363q40 2 79.5 13.5t73 32.5t56.5 52.5t30 72.5q7 45 -9 85t-52.5 65.5t-90.5 25.5q-57 0 -100.5 -24.5t-71.5 -66t-39 -92.5h10q11 48 37.5 87.5t67.5 63t95 22.5q51 0 85 -24.5t49.5 -62.5t8.5 -80q-8 -52 -44.5 -87t-86 -53.5t-97.5 -21.5zM252 -9
q59 0 108.5 23.5t82 65t39.5 95.5q7 47 -8.5 82t-46 59t-69.5 37t-78 15l-1 -8q35 -2 71.5 -14.5t66.5 -35.5t45.5 -56.5t9.5 -78.5q-7 -50 -38.5 -89.5t-78.5 -62t-103 -22.5q-61 0 -99.5 24.5t-55.5 66t-12 93.5h-10q-5 -53 13 -97.5t59.5 -70.5t104.5 -26z" />
    <glyph glyph-name="four" unicode="4" horiz-adv-x="537" 
d="M21 141l479 -1l1 10h-110h-3l-346 1l431 514l-89 -518v-5l-25 -142h10l121 700h-1z" />
    <glyph glyph-name="five" unicode="5" horiz-adv-x="541" 
d="M493 230q8 57 -9 106t-55.5 79t-95.5 31q-62 1 -112.5 -25t-83.5 -61l131 330h313l2 10h-320l-148 -372q44 47 98 78t119 30q54 -1 90.5 -30t52.5 -75.5t9 -100.5q-9 -67 -43.5 -119t-86.5 -81t-115 -29q-73 0 -113 38.5t-59 102.5l-9 -5q19 -66 61.5 -106t118.5 -40
q49 0 92.5 17t77.5 49t56 76t29 97z" />
    <glyph glyph-name="six" unicode="6" horiz-adv-x="520" 
d="M75 220q9 55 42.5 102t85.5 76.5t117 28.5q54 -1 92 -31t56 -76.5t11 -99.5q-8 -59 -40.5 -109.5t-83 -80t-112.5 -29.5q-61 0 -101.5 31t-57.5 81.5t-9 106.5zM411 699l-267 -320q-26 -31 -48.5 -73t-30.5 -86q-8 -60 9 -112.5t59.5 -84.5t108.5 -32q67 0 119.5 31
t86 83t41.5 115q7 55 -12 104.5t-59 81t-98 31.5q-55 1 -102 -22t-84 -59l1 -1l289 344h-13z" />
    <glyph glyph-name="seven" unicode="7" horiz-adv-x="500" 
d="M123 690h441l-461 -690h11l468 700h-457z" />
    <glyph glyph-name="eight" unicode="8" horiz-adv-x="501" 
d="M148 541q-5 -33 3.5 -64t27.5 -55.5t47 -38.5t61 -14q34 0 66.5 13.5t60.5 37.5t46.5 55t23.5 66q5 32 -2.5 62t-26 54t-47 38.5t-64.5 14.5q-48 0 -90.5 -23.5t-70.5 -62t-35 -83.5zM157 541q7 43 34 79t67 58t86 22t77.5 -23t45.5 -59t7 -77q-7 -44 -36.5 -82
t-70 -60.5t-80.5 -22.5q-39 1 -70.5 24.5t-48.5 61t-11 79.5zM67 185q-6 -38 1 -73t26.5 -62t51.5 -43t76 -16q45 0 82.5 15t66.5 42t47.5 62t24.5 75q5 38 -4.5 71.5t-31 59.5t-52.5 41t-69 15q-39 0 -75.5 -14.5t-66.5 -40.5t-50.5 -59.5t-26.5 -72.5zM77 185
q9 50 40.5 90.5t76.5 65t92 24.5t83 -25.5t53.5 -66t10.5 -88.5q-8 -51 -37 -93t-73.5 -66.5t-99.5 -24.5t-90.5 26t-49.5 68t-6 90z" />
    <glyph glyph-name="nine" unicode="9" horiz-adv-x="520" 
d="M519 480q-9 -54 -42 -101.5t-85 -76.5t-118 -28q-53 1 -91.5 30.5t-56.5 76.5t-11 99q9 60 41 110t82.5 80t112.5 30t102 -31.5t57 -81.5t9 -107zM183 0l267 321q26 32 49 74t30 85q9 61 -8.5 113t-60 84.5t-108.5 32.5t-119 -31t-86 -83t-42 -116q-7 -54 12 -103.5
t59.5 -81t97.5 -32.5q56 -1 102.5 22.5t83.5 59.5h-1l-288 -345h12z" />
    <glyph glyph-name="colon" unicode=":" horiz-adv-x="291" 
d="M88 1q0 -4 3.5 -7.5t7.5 -3.5q5 0 8 3.5t3 7.5q0 5 -3 8t-8 3q-4 0 -7.5 -3t-3.5 -8zM148 349q0 -4 3.5 -7.5t7.5 -3.5q5 0 8 3.5t3 7.5q0 5 -3 8t-8 3q-4 0 -7.5 -3t-3.5 -8z" />
    <glyph glyph-name="semicolon" unicode=";" horiz-adv-x="268" 
d="M177 349q0 -4 3.5 -7.5t7.5 -3.5q5 0 8 3.5t3 7.5q0 5 -3 8t-8 3q-4 0 -7.5 -3t-3.5 -8zM160 93l-147 -251l6 -2l151 248z" />
    <glyph glyph-name="less" unicode="&#x3c;" horiz-adv-x="621" 
d="M97 257l513 203l1 10l-531 -210l-1 -6l460 -208l2 9z" />
    <glyph glyph-name="equal" unicode="=" horiz-adv-x="597" 
d="M68 185h471l1 10h-471zM89 310h471l2 10h-471z" />
    <glyph glyph-name="greater" unicode="&#x3e;" horiz-adv-x="621" 
d="M559 258l-514 -202l-1 -10l531 209l1 6l-460 209l-2 -10z" />
    <glyph glyph-name="question" unicode="?" horiz-adv-x="526" 
d="M501 520q-10 -52 -47.5 -90.5t-91 -60t-114.5 -24.5h-1l-25 -174h8l28 166q61 4 115 27.5t91 63t47 92.5q6 39 -2 73.5t-29 60.5t-53.5 41t-76.5 15q-71 0 -121.5 -34t-91.5 -82l8 -6q39 47 88 79.5t116 32.5q56 0 92.5 -25t52 -65.5t7.5 -89.5zM181 1q0 -5 3 -8t7 -3
q5 0 8 3t3 8t-2.5 8t-7.5 3q-4 0 -7.5 -3t-3.5 -8z" />
    <glyph glyph-name="at" unicode="@" horiz-adv-x="747" 
d="M237 320q7 55 35.5 100.5t69.5 72t87 24.5q36 -1 55.5 -24.5t26 -56.5t1.5 -66q-7 -47 -33 -92t-64.5 -74.5t-84.5 -28.5q-37 1 -59 22t-30 54t-4 69zM226 320q-5 -41 5 -76.5t35 -57.5t65 -22q47 0 87.5 30t68 77t34.5 96q5 38 -1.5 74.5t-28 61t-61.5 25.5
q-49 2 -93 -26t-73.5 -75.5t-37.5 -106.5zM61 320q-10 -67 1 -126.5t43 -104.5t85 -70.5t127 -25.5q75 -1 136.5 17t113.5 41l-4 10q-50 -23 -111 -40.5t-134 -16.5q-95 1 -154 43.5t-82 114t-10 158.5q13 77 49.5 145.5t93 121t127.5 82t153 28.5q69 0 120 -26.5t82.5 -71
t43 -99t1.5 -110.5q-6 -43 -25 -84.5t-47.5 -75t-62 -51.5t-67.5 -15q-27 2 -38.5 17t-12.5 35.5t2 37.5q2 8 4 18t4 17l80 231h-12l-79 -229l2 -1q-8 -33 -9.5 -63.5t11.5 -51t47 -22.5q36 -3 71.5 15.5t65.5 52.5t50.5 77.5t26.5 91.5q10 59 -2 115t-45 102t-86 73.5
t-124 27.5q-84 1 -157 -29.5t-131 -85t-96 -124.5t-51 -149z" />
    <glyph glyph-name="A" unicode="A" horiz-adv-x="582" 
d="M145 272h333l1 10h-333zM383 688l89 -412v-3l57 -273h12l-154 715l-400 -715h12l152 273l2 4z" />
    <glyph glyph-name="B" unicode="B" horiz-adv-x="480" 
d="M133 386h110q51 1 95.5 17.5t75 50.5t38.5 86q6 38 -3.5 67.5t-32 50t-56 31.5t-74.5 11h-106l-120 -700h117q65 0 119 22.5t89.5 67.5t44.5 110q6 44 -7.5 79t-40 60.5t-60.5 39t-69 13.5h-119l-1 -8h110q50 0 93 -23.5t67 -64.5t16 -96q-9 -62 -42.5 -104t-84.5 -63.5
t-114 -21.5h-106l116 678h97q79 0 123.5 -39t32.5 -110q-8 -50 -39 -82t-75 -47.5t-93 -16.5h-100z" />
    <glyph glyph-name="C" unicode="C" horiz-adv-x="665" 
d="M93 350q11 71 43 133.5t80.5 110t110.5 75t134 27.5q63 1 114.5 -19t89.5 -63l3 15q-41 40 -90 60t-116 19q-74 0 -138.5 -28.5t-114.5 -77.5t-83 -113.5t-45 -138.5q-10 -69 1.5 -133t44.5 -114.5t87 -80t127 -29.5q71 -1 127 20.5t105 58.5l3 15q-49 -39 -106 -61
t-128 -21q-71 0 -122.5 29t-83 78t-42.5 110.5t-1 127.5z" />
    <glyph glyph-name="D" unicode="D" horiz-adv-x="616" 
d="M180 700l-120 -700h11l120 700h-11zM216 0q77 0 142 26.5t115 74t83 111.5t45 138q11 71 -1 134t-46 111.5t-89 76.5t-130 28h-150l-2 -11h151q74 0 127 -27t85 -74t43.5 -108t0.5 -130q-15 -96 -65.5 -173t-129 -121.5t-178.5 -44.5h-150l-2 -11h151z" />
    <glyph glyph-name="E" unicode="E" horiz-adv-x="495" 
d="M62 0h329l1 10h-328zM180 690h328l2 10h-328zM128 384h309l1 10h-308zM180 700l-120 -700h11l120 700h-11z" />
    <glyph glyph-name="F" unicode="F" horiz-adv-x="437" 
d="M181 689h288l2 11h-288zM127 373h279l1 10h-278zM180 700l-120 -700h11l120 700h-11z" />
    <glyph glyph-name="G" unicode="G" horiz-adv-x="742" 
d="M437 330h271q-14 -63 -45 -121.5t-77 -104.5t-105 -73t-129 -27q-72 0 -125.5 28.5t-86.5 77.5t-45.5 111t-2.5 129q12 72 45 135t83.5 110.5t114 74.5t136.5 27q83 0 144 -40.5t91 -106.5l11 6q-37 68 -97.5 110t-147.5 42q-75 0 -140.5 -28t-118 -77.5t-86.5 -114
t-46 -138.5q-10 -69 3 -133t48 -114.5t90.5 -80t128.5 -29.5q74 0 136 29t109.5 78t79 111.5t44.5 128.5h-281z" />
    <glyph glyph-name="H" unicode="H" horiz-adv-x="628" 
d="M128 377h446l2 10h-447zM623 700l-121 -700h11l121 700h-11zM180 700l-120 -700h11l120 700h-11z" />
    <glyph glyph-name="I" unicode="I" horiz-adv-x="175" 
d="M176 700l-121 -700h10l121 700h-10z" />
    <glyph glyph-name="J" unicode="J" horiz-adv-x="191" 
d="M-178 -158l-7 -7q14 -19 42 -36.5t64 -17.5q47 -1 76.5 19.5t46 57t23.5 82.5l130 760h-11l-128 -750q-10 -71 -40 -115t-98 -43q-31 0 -55.5 15.5t-42.5 34.5z" />
    <glyph glyph-name="K" unicode="K" horiz-adv-x="441" 
d="M176 700l-121 -700h11l120 700h-10zM489 699l-361 -326l255 -373h15l-257 372l364 327h-16z" />
    <glyph glyph-name="L" unicode="L" horiz-adv-x="417" 
d="M180 700l-120 -700h311l2 10h-301l118 690h-10z" />
    <glyph glyph-name="M" unicode="M" horiz-adv-x="805" 
d="M227 675l167 -570l363 569l-48 -674h11l51 716l-373 -584l-171 583l-196 -715h10z" />
    <glyph glyph-name="N" unicode="N" horiz-adv-x="675" 
d="M680 700l-118 -683l-398 698l-123 -715h11l117 678l399 -693l123 715h-11z" />
    <glyph glyph-name="O" unicode="O" horiz-adv-x="751" 
d="M92 350q11 71 44 134t82.5 111t113 75t136.5 27q72 0 125 -28.5t85.5 -77.5t44.5 -111.5t2 -129.5q-11 -70 -44 -133t-82.5 -111t-113 -75.5t-136.5 -27.5q-72 0 -125 29t-85.5 78t-44.5 111t-2 129zM81 350q-10 -69 3 -133t47 -115t89 -80.5t128 -29.5q74 0 139.5 28
t117 77.5t85.5 114.5t46 138q10 70 -3 134t-47 114.5t-88.5 80t-128.5 29.5t-139.5 -28t-117 -77.5t-85.5 -114t-46 -138.5z" />
    <glyph glyph-name="P" unicode="P" horiz-adv-x="466" 
d="M180 700l-120 -700h11l120 700h-11zM185 690h115q58 0 98 -24.5t58 -68t9 -100.5q-9 -58 -41.5 -101.5t-81.5 -67.5t-109 -24h-114l-2 -10h115q62 0 113.5 25t86 71t44.5 107q9 60 -10.5 105.5t-62 71.5t-102.5 26h-114z" />
    <glyph glyph-name="Q" unicode="Q" horiz-adv-x="748" 
d="M92 350q11 71 44 134t82.5 111t113 75t136.5 27q72 0 125 -28.5t85.5 -77.5t44.5 -111.5t2 -129.5q-11 -70 -44 -133t-82.5 -111t-113 -75.5t-136.5 -27.5q-72 0 -125 29t-85.5 78t-44.5 111t-2 129zM81 350q-10 -69 3 -133t47 -115t89 -80.5t128 -29.5q74 0 139.5 28
t117 77.5t85.5 114.5t46 138q10 70 -3 134t-47 114.5t-88.5 80t-128.5 29.5t-139.5 -28t-117 -77.5t-85.5 -114t-46 -138.5zM412 300l260 -300h16l-261 300h-15z" />
    <glyph glyph-name="R" unicode="R" horiz-adv-x="454" 
d="M220 317l160 -317h13l-161 317h-12zM180 700l-120 -700h11l120 700h-11zM180 689h110q60 -1 106 -21.5t68.5 -60.5t12.5 -100t-45.5 -100.5t-88.5 -61t-116 -21.5h-109l-2 -10h110q65 1 120.5 23t93.5 64.5t48 105.5q10 62 -14 105t-72.5 65.5t-110.5 22.5h-109z" />
    <glyph glyph-name="S" unicode="S" horiz-adv-x="474" 
d="M62 193l-10 -4q4 -49 20.5 -93.5t52 -73t96.5 -29.5q57 0 102 23.5t73.5 64.5t36.5 92q7 52 -10 88.5t-50 62.5t-73 44q-32 14 -60.5 31t-50 39t-31 50t-3.5 64q7 43 33 75.5t64.5 51t82.5 17.5q48 0 77.5 -20t45 -51t20.5 -64l10 3q-4 35 -21.5 68t-49.5 54.5t-82 21.5
q-47 0 -87.5 -20t-68 -55t-35.5 -81q-6 -38 4.5 -67.5t32.5 -52.5t51 -40.5t62 -32.5q38 -17 70 -42t48.5 -60t9.5 -84t-34.5 -87t-70 -60t-96.5 -22q-59 1 -93 29t-48.5 71.5t-17.5 88.5z" />
    <glyph glyph-name="T" unicode="T" horiz-adv-x="418" 
d="M110 689h184l-118 -689h11l118 689h185l2 11h-380z" />
    <glyph glyph-name="U" unicode="U" horiz-adv-x="559" 
d="M176 700l-83 -480q-8 -60 4.5 -112.5t50 -84.5t104.5 -32t116 30.5t79.5 83t40.5 115.5l82 480h-11l-83 -480q-10 -61 -39.5 -110.5t-76 -78.5t-108.5 -29q-61 0 -96 30.5t-47 80t-5 107.5l82 480h-10z" />
    <glyph glyph-name="V" unicode="V" horiz-adv-x="582" 
d="M276 15l-158 685h-12l165 -715l388 715h-13z" />
    <glyph glyph-name="W" unicode="W" horiz-adv-x="922" 
d="M661 27l-106 689l-321 -689l-113 673h-11l118 -715l321 692l106 -692l339 715h-11z" />
    <glyph glyph-name="X" unicode="X" horiz-adv-x="485" 
d="M529 699l-243 -321l-138 322h-14l145 -332l-277 -368h14l267 356l153 -356h13l-158 367l252 332h-14z" />
    <glyph glyph-name="Y" unicode="Y" horiz-adv-x="492" 
d="M558 699l-297 -417l-141 418h-13l148 -433l-47 -267h11l46 267l306 432h-13z" />
    <glyph glyph-name="Z" unicode="Z" horiz-adv-x="519" 
d="M129 689h445l-582 -689h476l2 12h-454l582 688h-467z" />
    <glyph glyph-name="bracketleft" unicode="[" horiz-adv-x="252" 
d="M210 769h125l1 11h-136l-154 -1000h136l2 11h-125z" />
    <glyph glyph-name="backslash" unicode="\" horiz-adv-x="422" 
d="M107 700l261 -700h13l-261 700h-13z" />
    <glyph glyph-name="bracketright" unicode="]" horiz-adv-x="252" 
d="M95 -209h-125l-1 -11h135l155 1000h-136l-2 -11h125z" />
    <glyph glyph-name="asciicircum" unicode="^" horiz-adv-x="495" 
d="M339 692l132 -232h13l-143 249v0l-227 -248h15z" />
    <glyph glyph-name="underscore" unicode="_" horiz-adv-x="485" 
d="M-46 -109h486l2 11h-486z" />
    <glyph glyph-name="grave" unicode="`" horiz-adv-x="343" 
d="M186 692l145 -156l5 4l-141 160z" />
    <glyph glyph-name="a" unicode="a" horiz-adv-x="525" 
d="M490 460l-80 -460h10l80 460h-10zM56 230q-8 -62 7.5 -117t55.5 -88.5t103 -33.5q47 0 86.5 21t70 56t50 77t26.5 85q6 40 0.5 82t-23.5 77.5t-50 57.5t-79 23q-63 1 -115.5 -32t-87 -87.5t-44.5 -120.5zM66 230q10 63 43.5 115.5t84.5 84t111 30.5q43 -1 73 -22
t48 -55.5t24 -74.5t0 -78q-7 -41 -26.5 -81.5t-49.5 -74t-67.5 -53.5t-80.5 -20q-61 0 -99.5 32.5t-53.5 85t-7 111.5z" />
    <glyph glyph-name="b" unicode="b" horiz-adv-x="525" 
d="M194 780h-10l-134 -780h10zM494 230q9 63 -7 117.5t-56 88.5t-104 34q-47 0 -86.5 -21t-69.5 -56t-49.5 -77.5t-26.5 -85.5q-6 -40 -0.5 -81.5t23.5 -77t50 -58t79 -22.5q63 -1 115.5 31.5t87.5 87.5t44 120zM484 230q-9 -63 -43 -115.5t-85 -83.5t-112 -30q-42 1 -72 22
t-48 55t-24 74t0 78q7 42 26.5 82.5t49 74t67.5 53.5t81 20q61 1 99.5 -32t54 -85.5t6.5 -112.5z" />
    <glyph glyph-name="c" unicode="c" horiz-adv-x="474" 
d="M67 230q9 63 45 115.5t90 83.5t117 31q47 0 84 -18.5t57 -41.5l2 12q-21 23 -58 40.5t-84 17.5q-67 0 -123 -32.5t-93 -87t-47 -120.5q-8 -63 12.5 -117.5t66 -88t111.5 -33.5q50 0 91.5 17.5t67.5 39.5l2 12q-26 -21 -68 -40t-92 -19q-63 0 -106.5 32.5t-63 84.5
t-11.5 112z" />
    <glyph glyph-name="d" unicode="d" horiz-adv-x="525" 
d="M544 780l-134 -780h10l134 780h-10zM56 230q-8 -62 7.5 -117t55.5 -88.5t103 -33.5q47 0 86.5 21t70 56t50 77t26.5 85q6 40 0.5 82t-23.5 77.5t-50 57.5t-79 23q-63 1 -115.5 -32t-87 -87.5t-44.5 -120.5zM66 230q10 63 43.5 115.5t84.5 84t111 30.5q43 -1 73 -22
t48 -55.5t24 -74.5t0 -78q-7 -41 -26.5 -81.5t-49.5 -74t-67.5 -53.5t-80.5 -20q-61 0 -99.5 32.5t-53.5 85t-7 111.5z" />
    <glyph glyph-name="e" unicode="e" horiz-adv-x="502" 
d="M225 -10q63 0 115 29.5t95 87.5l-8 6q-40 -56 -90 -84.5t-112 -28.5q-47 0 -83.5 25t-56.5 69.5t-20 102.5q0 49 19.5 95.5t53 84.5t76.5 60.5t90 22.5q46 0 81 -24.5t55 -65.5t20 -90q0 -16 -4 -29.5t-8 -21.5l7 9h-387v-10h392q5 12 7.5 25.5t2.5 25.5q0 52 -21.5 95
t-59 69.5t-85.5 26.5q-49 0 -93.5 -23t-79.5 -62.5t-55.5 -88t-20.5 -99.5q0 -61 21.5 -108t60 -73t88.5 -26z" />
    <glyph glyph-name="f" unicode="f" horiz-adv-x="270" 
d="M100 460l-2 -10h190l1 10h-189zM372 733l7 7q-11 17 -28.5 32t-46.5 16q-40 1 -66.5 -20t-41 -53t-20.5 -65l-111 -650h10l111 650q6 28 19 58t37.5 50.5t61.5 19.5q25 -1 41 -15t27 -30z" />
    <glyph glyph-name="g" unicode="g" horiz-adv-x="525" 
d="M27 -30q-6 -53 8.5 -98.5t50 -73t93.5 -27.5q63 0 114.5 31t85.5 85t44 123l77 450h-10l-78 -450q-9 -66 -42 -118t-82 -81.5t-108 -29.5q-55 1 -88.5 26.5t-47 68.5t-7.5 94h-10zM56 230q-8 -62 7.5 -117t55.5 -88.5t103 -33.5q47 0 86.5 21t70 56t50 77t26.5 85
q6 40 0.5 82t-23.5 77.5t-50 57.5t-79 23q-63 1 -115.5 -32t-87 -87.5t-44.5 -120.5zM66 230q10 63 43.5 115.5t84.5 84t111 30.5q42 -1 72.5 -22t48.5 -55t24 -73t1 -75q-7 -42 -26.5 -83.5t-49.5 -75.5t-67.5 -54.5t-81.5 -20.5q-61 0 -99.5 32.5t-53.5 85t-7 111.5z" />
    <glyph glyph-name="h" unicode="h" 
d="M199 780h-10l-134 -780h10zM397 320l-56 -320h10l56 320q5 40 -2.5 73.5t-32 55t-70.5 21.5q-51 0 -91 -27t-66.5 -70t-37.5 -92h5q11 44 37 85.5t65.5 68t87.5 25.5q43 0 65 -20t28.5 -51.5t1.5 -68.5z" />
    <glyph glyph-name="i" unicode="i" horiz-adv-x="184" 
d="M174 695q0 -4 3 -7t7 -3q5 0 7.5 3t2.5 7q0 5 -2.5 7.5t-7.5 2.5q-4 0 -7 -2.5t-3 -7.5zM140 460l-80 -460h10l80 460h-10z" />
    <glyph glyph-name="j" unicode="j" horiz-adv-x="175" 
d="M164 695q0 -4 3 -7t7 -3q5 0 7.5 3t2.5 7q0 5 -2.5 7.5t-7.5 2.5q-4 0 -7 -2.5t-3 -7.5zM-149 -165l-8 -7q12 -16 29.5 -31.5t45.5 -15.5q40 0 66.5 20.5t41.5 52.5t21 64l93 542h-10l-93 -542q-5 -27 -18.5 -56.5t-38 -50t-62.5 -20.5q-24 0 -40 15t-27 29z" />
    <glyph glyph-name="k" unicode="k" horiz-adv-x="361" 
d="M184 780l-134 -780h10l134 780h-10zM370 459l-265 -188l207 -271h12l-207 270l269 189h-16z" />
    <glyph glyph-name="l" unicode="l" horiz-adv-x="175" 
d="M189 780l-134 -780h10l134 780h-10z" />
    <glyph glyph-name="m" unicode="m" horiz-adv-x="670" 
d="M615 320q5 37 -0.5 71t-25 56t-59.5 23q-53 1 -94.5 -35.5t-65.5 -95.5q3 32 -3.5 62t-26.5 49.5t-57 19.5q-36 1 -68 -17.5t-55.5 -49.5t-35.5 -67l21 124h-10l-80 -460h10l52 291q7 43 31.5 82t59.5 63.5t74 23.5q37 -1 54.5 -22t21.5 -52.5t0 -65.5l-56 -320h10
l52 290q7 43 31.5 82t60 64t74.5 24q37 -1 54 -22t21 -52.5t0 -65.5l-55 -320h10z" />
    <glyph glyph-name="n" unicode="n" 
d="M397 320l-56 -320h10l56 320q5 40 -2.5 73.5t-32 55t-70.5 21.5q-63 0 -110 -38.5t-67 -95.5l20 124h-10l-80 -460h10l52 290q8 45 34 84t65.5 63t85.5 23q43 0 65 -20t28.5 -51.5t1.5 -68.5z" />
    <glyph glyph-name="o" unicode="o" horiz-adv-x="540" 
d="M62 230q-8 -63 12.5 -117.5t66 -88t111.5 -33.5q67 0 123 32t93.5 87t46.5 120q9 63 -12 117.5t-66.5 88.5t-111.5 34q-67 0 -123.5 -32.5t-93.5 -87t-46 -120.5zM72 230q9 63 45 115.5t90 83.5t117 31t106.5 -32.5t63 -84.5t11.5 -113q-9 -63 -45 -115t-90 -83t-118 -31
q-62 0 -105.5 32.5t-63.5 84.5t-11 112z" />
    <glyph glyph-name="p" unicode="p" horiz-adv-x="525" 
d="M22 -219l118 679h-10l-118 -679h10zM494 230q9 63 -7 117.5t-56 88.5t-104 34q-47 0 -86.5 -21t-69.5 -56t-49.5 -77.5t-26.5 -85.5q-6 -40 -0.5 -81.5t23.5 -77t50 -58t79 -22.5q63 -1 115.5 31.5t87.5 87.5t44 120zM484 230q-9 -63 -43 -115.5t-85 -83.5t-112 -30
q-42 1 -72 22t-48 55t-24 74t0 78q7 42 26.5 82.5t49 74t67.5 53.5t81 20q61 1 99.5 -32t54 -85.5t6.5 -112.5z" />
    <glyph glyph-name="q" unicode="q" horiz-adv-x="525" 
d="M373 -219h9l118 679h-10zM56 230q-8 -62 7.5 -117t55.5 -88.5t103 -33.5q47 0 86.5 21t70 56t50 77t26.5 85q6 40 0.5 82t-23.5 77.5t-50 57.5t-79 23q-63 1 -115.5 -32t-87 -87.5t-44.5 -120.5zM66 230q10 63 43.5 115.5t84.5 84t111 30.5q43 -1 73 -22t48 -55.5
t24 -74.5t0 -78q-7 -41 -26.5 -81.5t-49.5 -74t-67.5 -53.5t-80.5 -20q-61 0 -99.5 32.5t-53.5 85t-7 111.5z" />
    <glyph glyph-name="r" unicode="r" horiz-adv-x="281" 
d="M145 460h-10l-80 -460h10zM310 440l7 8q-13 8 -27.5 14.5t-30.5 7.5q-45 2 -76 -26.5t-49.5 -72.5t-26.5 -90h5q8 41 26 83t48 69.5t72 26.5q14 -1 27 -6.5t25 -13.5z" />
    <glyph glyph-name="s" unicode="s" horiz-adv-x="391" 
d="M56 132l-10 -2q1 -34 13 -66t39.5 -52.5t75.5 -20.5q38 0 70.5 16t53.5 44.5t26 65.5q5 35 -10 58.5t-41 39t-56 25.5q-31 11 -57 24t-39 35.5t-8 59.5q8 47 44.5 73t82.5 26q53 -1 77 -28t34 -65l10 3q-10 41 -37 70t-83 30q-33 0 -62.5 -13t-49.5 -37.5t-26 -58.5
q-5 -39 8 -63t39.5 -38.5t59.5 -26.5q30 -10 55.5 -24t39.5 -35.5t9 -54.5q-7 -52 -47 -84.5t-92 -32.5q-45 1 -70.5 20t-36.5 49.5t-12 62.5z" />
    <glyph glyph-name="t" unicode="t" horiz-adv-x="184" 
d="M68 460l-2 -10h156l2 10h-156zM167 620l-107 -620h10l107 620h-10z" />
    <glyph glyph-name="u" unicode="u" 
d="M91 150l54 310h-10l-54 -310q-5 -42 1 -78t30 -58.5t71 -22.5q64 -1 109.5 37t68.5 93l-20 -121h10l80 460h-10l-51 -288q-7 -42 -33.5 -81.5t-66 -64.5t-86.5 -25q-44 1 -66 22t-27 55t0 72z" />
    <glyph glyph-name="v" unicode="v" horiz-adv-x="408" 
d="M64 460l120 -475l269 475h-12l-253 -449l-113 449h-11z" />
    <glyph glyph-name="w" unicode="w" horiz-adv-x="602" 
d="M67 460l60 -475l218 456l69 -456l226 475h-10l-210 -441l-69 457l-218 -457l-57 441h-9z" />
    <glyph glyph-name="x" unicode="x" horiz-adv-x="369" 
d="M389 459l-184 -214l-118 215h-14l125 -222l-206 -238h15l196 229l126 -229h13l-131 237l192 222h-14z" />
    <glyph glyph-name="y" unicode="y" horiz-adv-x="412" 
d="M455 460h-11l-264 -439l11 -1l-119 440h-11l120 -439l-145 -240h11z" />
    <glyph glyph-name="z" unicode="z" horiz-adv-x="417" 
d="M417 450l-425 -450h379l2 11h-358l425 449h-350l-1 -10h328z" />
    <glyph glyph-name="braceleft" unicode="{" horiz-adv-x="273" 
d="M225 640q8 59 29 94.5t72 35.5h20l1 10h-20q-38 0 -60.5 -17.5t-34 -49t-17.5 -73.5l-32 -210q-7 -49 -27 -83.5t-50 -51.5l-2 -10q25 -19 33 -53.5t3 -81.5l-32 -210q-4 -39 -2.5 -70.5t17.5 -50.5t54 -19h19l2 10h-20q-34 0 -48 17t-15 46.5t2 66.5l33 210q3 27 1.5 50
t-6.5 41.5t-15 31.5t-24 19l-1 -3q17 5 31 17t25.5 30.5t19.5 42t12 51.5z" />
    <glyph glyph-name="bar" unicode="|" horiz-adv-x="204" 
d="M201 785l-155 -1000h10l155 1000h-10z" />
    <glyph glyph-name="braceright" unicode="}" horiz-adv-x="273" 
d="M103 -60q-7 -58 -28.5 -94t-72.5 -36h-19l-2 -10h20q38 0 60.5 17.5t34.5 49.5t17 73l32 210q8 50 28 84.5t50 50.5l1 10q-24 20 -32.5 54.5t-3.5 80.5l32 210q5 39 3 71t-17.5 50.5t-54.5 18.5h-19l-1 -10h19q35 0 48.5 -17t15 -46.5t-2.5 -66.5l-33 -210
q-3 -26 -1.5 -49t7 -41.5t15 -31.5t24.5 -20v4q-16 -5 -30.5 -17.5t-26 -30.5t-19.5 -42t-12 -52z" />
    <glyph glyph-name="asciitilde" unicode="~" horiz-adv-x="558" 
d="M96 179q-1 5 -1.5 11t0.5 11q7 46 37 81t79 35q25 0 42.5 -12.5t30 -29t22.5 -32.5q17 -25 38.5 -47.5t57.5 -22.5q23 -1 43.5 9t33.5 25q14 16 22.5 38t12.5 45q1 7 1 14t-1 14l-9 3q1 -7 1 -15.5t-1 -15.5q-6 -42 -32 -75t-70 -32q-33 0 -53.5 22.5t-35.5 44.5
q-17 26 -39.5 51t-62.5 26q-25 0 -47.5 -10t-38.5 -27q-16 -16 -25.5 -38t-13.5 -46q-1 -7 -1 -13v-11z" />
    <glyph glyph-name="uni00A0" unicode="&#xa0;" horiz-adv-x="301" 
 />
    <glyph glyph-name="exclamdown" unicode="&#xa1;" horiz-adv-x="291" 
d="M102 -244l82 499h-6l-90 -499h14zM225 454q1 5 -1.5 8t-7.5 3q-4 0 -8 -3t-4 -8q-1 -4 2 -7.5t7 -3.5t8 3.5t4 7.5z" />
    <glyph glyph-name="cent" unicode="&#xa2;" horiz-adv-x="563" 
d="M280 -4l-25 -107h14l15 107h-4zM105 230q11 63 47.5 115t91 83.5t118.5 31.5q47 0 84 -18t56 -42l2 12q-21 23 -58 40.5t-84 17.5q-67 0 -123.5 -32.5t-94 -87t-48.5 -120.5q-9 -62 10.5 -117t64.5 -88.5t111 -33.5q50 0 91.5 17.5t68.5 39.5l2 12q-27 -21 -69 -40
t-93 -19q-63 0 -105.5 32.5t-61.5 85t-10 111.5zM374 578l-16 -114h4l26 114h-14z" />
    <glyph glyph-name="sterling" unicode="&#xa3;" horiz-adv-x="563" 
d="M109 305l-1 -10h301l2 10h-302zM524 498h10q3 31 -1 67.5t-18.5 69.5t-43 54t-75.5 21q-39 0 -73 -14t-60.5 -38t-43.5 -55t-23 -65q-6 -41 6.5 -75.5t30 -65.5t30 -63.5t6.5 -69.5q-9 -50 -43 -93.5t-77.5 -84.5t-84.5 -86h392l1 10l-381 1l2 -10q20 24 50.5 52.5
t62.5 61.5t56.5 70.5t31.5 78.5q6 38 -6.5 70.5t-30.5 63.5t-30 65t-6 75q8 42 34 79t66.5 60.5t88.5 22.5q44 0 70.5 -20t40.5 -51t17.5 -66t0.5 -65z" />
    <glyph glyph-name="currency" unicode="&#xa4;" horiz-adv-x="543" 
d="M117 523l52 -63l11 9l-51 64zM49 68l73 62l-7 10l-74 -62zM487 461l73 61l-8 11l-73 -63zM421 131l52 -64l10 10l-51 63zM74 300q-9 -61 10.5 -116t63.5 -89t108 -34q65 0 120.5 32.5t93.5 87t48 119.5q9 62 -10.5 116.5t-63.5 89t-108 34.5t-120 -33t-94 -87.5
t-48 -119.5zM84 300q10 62 46.5 114t90 84t115.5 32q61 0 102.5 -33.5t60 -85.5t9.5 -111q-10 -61 -46.5 -113.5t-90 -84t-115.5 -31.5q-61 0 -102.5 33t-59.5 85.5t-10 110.5z" />
    <glyph glyph-name="yen" unicode="&#xa5;" horiz-adv-x="548" 
d="M48 270h463l2 10h-463zM27 145h463l2 10h-463zM572 699l-295 -417l-143 418h-12l148 -432l-47 -268h11l45 265l306 434h-13z" />
    <glyph glyph-name="brokenbar" unicode="&#xa6;" horiz-adv-x="204" 
d="M190 695l-43 -239h10l43 239h-10zM123 245h-10l-43 -239h10z" />
    <glyph glyph-name="section" unicode="&#xa7;" horiz-adv-x="386" 
d="M425 616l7 4q-13 41 -52 65.5t-89 24.5q-36 0 -70.5 -12.5t-58.5 -37t-30 -61.5q-4 -28 7.5 -47.5t33 -33t46 -24l45.5 -19.5q25 -10 54 -25.5t48.5 -37t15.5 -51.5q-5 -37 -30.5 -60t-62 -36.5t-76.5 -23.5v0q33 1 63.5 8t54.5 21t40.5 36t20.5 54q5 34 -13.5 56.5
t-48 38.5t-58.5 28q-18 8 -42 18t-45.5 23t-34 31.5t-8.5 43.5q5 34 29 56.5t56.5 33.5t62.5 11q46 0 83.5 -22.5t51.5 -61.5zM32 127l-9 -4q4 -38 26 -68t56.5 -47t75.5 -17q38 0 74 11t61.5 35.5t31.5 62.5q6 41 -13 67t-49.5 43t-61.5 31q-18 8 -40.5 18.5t-42.5 24.5
t-31.5 32.5t-8.5 42.5q6 32 30.5 56t61.5 40.5t79 24.5h-1q-35 -2 -65.5 -11t-54.5 -24t-39.5 -36.5t-20.5 -48.5q-5 -34 15 -57.5t51.5 -39.5t58.5 -30q29 -13 59.5 -29.5t49.5 -41t13 -62.5q-6 -36 -31.5 -58.5t-59.5 -32t-66 -9.5q-61 1 -102 38t-47 89z" />
    <glyph glyph-name="dieresis" unicode="&#xa8;" horiz-adv-x="410" 
d="M380 689q0 -4 2.5 -7.5t6.5 -3.5q5 0 8.5 3.5t4.5 7.5q0 5 -2.5 8t-7.5 3q-4 0 -7.5 -3t-4.5 -8zM186 689q0 -4 2.5 -7.5t6.5 -3.5q5 0 8.5 3.5t4.5 7.5q0 5 -2.5 8t-7.5 3q-4 0 -7.5 -3t-4.5 -8z" />
    <glyph glyph-name="copyright" unicode="&#xa9;" horiz-adv-x="776" 
d="M229 350q8 57 38 104t76.5 75.5t103.5 28.5q38 0 68.5 -12t54.5 -37l2 9q-25 23 -54.5 35t-70.5 12q-58 0 -106.5 -29.5t-79.5 -78t-39 -107.5q-7 -55 9 -104t54.5 -79t96.5 -31q42 -1 75.5 12.5t62.5 34.5l2 9q-30 -22 -64 -36t-76 -13q-56 1 -92.5 30.5t-52 76.5
t-8.5 100zM86 350q11 72 46 135.5t88 112t120 75.5t140 27q72 0 129 -28.5t95.5 -77.5t54.5 -112t6 -132q-11 -72 -46 -135.5t-88.5 -112t-119.5 -75.5t-140 -27q-72 0 -129 28.5t-95.5 77.5t-54.5 112t-6 132zM76 350q-10 -72 6 -136.5t55.5 -114.5t98.5 -79.5t134 -29.5
q77 0 145.5 28t123 77.5t90 114.5t46.5 140q10 72 -6.5 137t-56 115t-98.5 79t-134 29q-77 0 -145.5 -27.5t-122.5 -77t-89.5 -115t-46.5 -140.5z" />
    <glyph glyph-name="ordfeminine" unicode="&#xaa;" horiz-adv-x="231" 
d="M92 528q5 32 35 50.5t61 17.5q21 -1 36 -8t26 -16l1 6q-11 8 -25.5 14.5t-37.5 7.5q-33 0 -64 -18.5t-36 -52.5q-4 -34 14.5 -53t47.5 -20q38 -1 63 25.5t34 57.5l-4 1q-9 -29 -33.5 -54.5t-59.5 -24.5q-27 1 -44.5 18.5t-13.5 48.5zM133 663q15 12 35 22.5t43 9.5
q30 -1 40 -21.5t7 -48.5l-30 -164h5l30 164q3 29 -8.5 51t-43.5 24q-25 1 -46 -10.5t-36 -22.5z" />
    <glyph glyph-name="guillemotleft" unicode="&#xab;" horiz-adv-x="471" 
d="M220 255l239 227l-6 7l-243 -233l163 -236l8 7zM65 255l239 227l-6 7l-243 -233l163 -236l7 7z" />
    <glyph glyph-name="logicalnot" unicode="&#xac;" horiz-adv-x="602" 
d="M98 365h467l-34 -189h10l35 199h-476z" />
    <glyph glyph-name="uni00AD" unicode="&#xad;" horiz-adv-x="204" 
d="M23 265h194l2 10h-194z" />
    <glyph glyph-name="registered" unicode="&#xae;" horiz-adv-x="776" 
d="M389 340l100 -190h9l-101 190h-8zM363 570l-66 -420h7l66 420h-7zM362 563h66q53 -1 87.5 -28t26.5 -81q-7 -54 -49.5 -81t-98.5 -29h-66l-1 -6l66 1q58 2 103 30t53 85q8 56 -28 85.5t-92 30.5h-66zM86 350q11 72 46 135.5t88 112t120 75.5t140 27q72 0 129 -28.5
t95.5 -77.5t54.5 -112t6 -132q-11 -72 -46 -135.5t-88.5 -112t-119.5 -75.5t-140 -27q-72 0 -129 28.5t-95.5 77.5t-54.5 112t-6 132zM76 350q-10 -72 6 -136.5t55.5 -114.5t98.5 -79.5t134 -29.5q77 0 145.5 28t123 77.5t90 114.5t46.5 140q10 72 -6.5 137t-56 115
t-98.5 79t-134 29q-77 0 -145.5 -27.5t-122.5 -77t-89.5 -115t-46.5 -140.5z" />
    <glyph glyph-name="macron" unicode="&#xaf;" horiz-adv-x="495" 
d="M163 665h340l1 10h-339z" />
    <glyph glyph-name="degree" unicode="&#xb0;" horiz-adv-x="270" 
d="M94 601q-7 -48 19.5 -84t76.5 -36q34 0 63 16t48.5 43t24.5 60q5 32 -5 59t-33 44t-57 17t-63.5 -16t-49 -43t-24.5 -60zM104 600q5 30 23.5 55t45.5 40.5t57 14.5q45 -1 69 -33.5t17 -76.5q-4 -30 -22.5 -55t-45.5 -39.5t-57 -14.5q-45 1 -69.5 33.5t-17.5 75.5z" />
    <glyph glyph-name="plusminus" unicode="&#xb1;" horiz-adv-x="592" 
d="M46 0h466l2 10h-466zM105 380h466l1 10h-466zM370 620l-73 -470h10l73 470h-10z" />
    <glyph glyph-name="uni00B2" unicode="&#xb2;" horiz-adv-x="322" 
d="M50 283l264 -1l1 6l-249 1l210 190q25 23 47.5 51t27.5 64q5 27 -3.5 53t-29.5 44t-57 18q-40 1 -70 -20.5t-49.5 -56t-27.5 -73.5h6q8 37 26.5 70t47.5 54t67 20q35 0 55 -17t27 -42t2 -50q-6 -36 -28 -62t-47 -49z" />
    <glyph glyph-name="uni00B3" unicode="&#xb3;" horiz-adv-x="299" 
d="M193 498q32 2 63.5 13.5t54 33.5t28.5 55q5 27 -4.5 51t-30.5 39.5t-54 15.5q-52 1 -85 -31.5t-44 -77.5h6q11 42 42.5 73t80.5 30q45 -1 67.5 -31.5t15.5 -68.5q-6 -31 -28.5 -51.5t-52 -31.5t-58.5 -14zM174 275q35 0 65 14t50 39t25 57q4 28 -5 49t-27 35t-41 22
t-47 10v-5q28 -3 56.5 -15.5t46 -36t11.5 -59.5q-7 -45 -45.5 -75t-88.5 -29q-56 0 -79 32t-20 78h-6q-2 -32 8 -58.5t34.5 -42t62.5 -15.5z" />
    <glyph glyph-name="acute" unicode="&#xb4;" horiz-adv-x="343" 
d="M336 691l-7 8l-191 -158l5 -5z" />
    <glyph glyph-name="mu" unicode="&#xb5;" 
d="M145 460h-10l-135 -779h10l69 397q6 -38 30 -62.5t74 -24.5q64 -1 110 37.5t68 93.5l-20 -122h10l80 460h-10l-52 -288q-7 -44 -33 -83.5t-65.5 -63.5t-86.5 -24q-42 0 -64 19t-28.5 51t-3.5 70z" />
    <glyph glyph-name="paragraph" unicode="&#xb6;" horiz-adv-x="435" 
d="M298 270l-84 -489h10l157 909h77l-156 -909h10l158 919h-98q-64 0 -119 -26t-91.5 -74t-47.5 -115q-10 -64 11.5 -111t66.5 -73.5t106 -30.5z" />
    <glyph glyph-name="periodcentered" unicode="&#xb7;" horiz-adv-x="235" 
d="M117 221q0 -3 1 -5.5t3.5 -4t5.5 -1.5t5.5 1.5t4.5 4.5t2 5q1 3 -0.5 5.5t-3.5 4t-5 1.5t-6 -1.5t-4.5 -4t-2.5 -5.5z" />
    <glyph glyph-name="cedilla" unicode="&#xb8;" horiz-adv-x="340" 
d="M144 0l-69 -87q19 10 40.5 18.5t43.5 6.5q16 -1 28 -9t18.5 -22t3.5 -33q-3 -26 -20.5 -44.5t-41 -28.5t-47.5 -10q-23 0 -40 8.5t-34 24.5l-8 -6q19 -18 37 -27.5t44 -9.5q27 0 53.5 11t45 32.5t21.5 49.5q4 32 -14 52.5t-45 21.5q-22 1 -38 -6t-34 -17l68 75h-12z" />
    <glyph glyph-name="uni00B9" unicode="&#xb9;" horiz-adv-x="456" 
d="M226 667l102 22l-71 -414h6l74 422l-110 -23z" />
    <glyph glyph-name="ordmasculine" unicode="&#xba;" horiz-adv-x="270" 
d="M91 581q-7 -48 19.5 -84t76.5 -36q34 0 63 16t48.5 43t24.5 60q5 32 -5.5 59t-33.5 44t-57 17q-33 0 -62.5 -16t-49 -43t-24.5 -60zM101 580q5 30 23 55t45.5 40.5t57.5 14.5q45 -1 69 -33.5t17 -76.5q-4 -30 -22.5 -55t-45.5 -39.5t-58 -14.5q-45 1 -69 33.5t-17 75.5z
" />
    <glyph glyph-name="guillemotright" unicode="&#xbb;" horiz-adv-x="471" 
d="M284 255l-239 -227l6 -7l243 233l-163 236l-8 -7zM439 255l-239 -227l6 -7l243 233l-163 236l-7 -7z" />
    <glyph glyph-name="onequarter" unicode="&#xbc;" horiz-adv-x="732" 
d="M744 699l-676 -699h12l676 699h-12zM107 667l103 22l-72 -414h6l74 422l-110 -23zM377 84h287l1 6h-66h-2h-214zM383 85l265 314l-54 -311v-3l-15 -85h6l72 420v-1l-281 -334h7z" />
    <glyph glyph-name="onehalf" unicode="&#xbd;" horiz-adv-x="795" 
d="M744 699l-676 -699h12l676 699h-12zM107 667l103 22l-72 -414h6l74 422l-110 -23zM455 3l264 -1l1 6l-249 1l209 190q25 23 48 50.5t29 63.5q5 27 -3.5 53t-30.5 44t-58 19q-40 1 -70 -20.5t-49.5 -56t-27.5 -73.5h6q8 37 27 70t47.5 54t66.5 20q35 -1 55 -18t27.5 -42
t2.5 -50q-6 -36 -28.5 -62t-46.5 -49z" />
    <glyph glyph-name="threequarters" unicode="&#xbe;" horiz-adv-x="796" 
d="M809 699l-676 -699h12l676 699h-12zM198 498q32 2 63.5 13.5t54 33.5t28.5 55q5 27 -4.5 51t-30.5 39.5t-54 15.5q-52 1 -85 -31.5t-45 -77.5h6q11 42 42.5 73t80.5 30q45 -1 68 -31.5t16 -68.5q-6 -31 -28.5 -51.5t-52 -31.5t-58.5 -14zM178 275q35 0 65.5 14t50.5 39
t25 57q4 28 -5 49t-27 35t-41 22t-47 10l-1 -5q28 -3 56.5 -15.5t46.5 -36t12 -59.5q-7 -45 -46 -75t-89 -29q-55 0 -78.5 32t-19.5 78h-6q-2 -32 8 -58.5t34 -42t62 -15.5zM442 84h287l1 6h-66h-2h-214zM448 85l265 314l-53 -311l-1 -3l-15 -85h6l72 420v-1l-281 -334h7z
" />
    <glyph glyph-name="questiondown" unicode="&#xbf;" horiz-adv-x="526" 
d="M91 180q7 40 37 78t84.5 65.5t132.5 32.5v-1l24 175h-7l-29 -167q-60 -4 -114 -27t-91 -62.5t-47 -93.5q-6 -39 1.5 -73t28.5 -60t54 -41t77 -15q71 -1 122 33t91 82l-8 6q-40 -46 -88.5 -79t-116.5 -32q-54 0 -91.5 25t-53 65.5t-6.5 88.5zM411 699q0 5 -2.5 8t-6.5 3
q-3 0 -6 -1.5t-4.5 -4t-2.5 -5.5q0 -4 2.5 -7.5t6.5 -3.5q3 0 6 1.5t5 4.5t2 5z" />
    <glyph glyph-name="Agrave" unicode="&#xc0;" horiz-adv-x="582" 
d="M143 272h335l1 10h-335zM383 688l89 -412v-3l57 -273h12l-154 715l-400 -715h12l152 273l2 4zM291 932l143 -156l5 4l-139 160z" />
    <glyph glyph-name="Aacute" unicode="&#xc1;" horiz-adv-x="582" 
d="M143 272h335l1 10h-335zM383 688l89 -412v-3l57 -273h12l-154 715l-400 -715h12l152 273l2 4zM556 931l-7 8l-193 -158l3 -5z" />
    <glyph glyph-name="Acircumflex" unicode="&#xc2;" horiz-adv-x="582" 
d="M143 272h335l1 10h-335zM383 688l89 -412v-3l57 -273h12l-154 715l-400 -715h12l152 273l2 4zM420 910l126 -135l7 7l-132 140l-179 -139l6 -7z" />
    <glyph glyph-name="Atilde" unicode="&#xc3;" horiz-adv-x="582" 
d="M143 272h335l1 10h-335zM383 688l89 -412v-3l57 -273h12l-154 715l-400 -715h12l152 273l2 4zM277 797l10 -1q7 18 20.5 33.5t41.5 16.5q21 0 36 -11.5t31.5 -23t42.5 -11.5q16 0 29 6.5t24.5 18.5t20.5 27l-10 3q-13 -19 -27 -33t-36 -14q-23 0 -38.5 11.5t-31.5 23
t-43 11.5q-20 0 -34 -8.5t-22.5 -21.5t-13.5 -27z" />
    <glyph glyph-name="Adieresis" unicode="&#xc4;" horiz-adv-x="582" 
d="M143 272h335l1 10h-335zM383 688l89 -412v-3l57 -273h12l-154 715l-400 -715h12l152 273l2 4zM488 806q0 -4 2.5 -7.5t6.5 -3.5q5 0 8.5 3.5t4.5 7.5q0 5 -2.5 8t-6.5 3t-8 -3t-5 -8zM294 806q-1 -4 2 -7.5t7 -3.5q5 0 8.5 3.5t4.5 7.5q0 5 -2.5 8t-7.5 3q-4 0 -8 -3
t-4 -8z" />
    <glyph glyph-name="Aring" unicode="&#xc5;" horiz-adv-x="582" 
d="M143 272h335l1 10h-335zM383 688l89 -412v-3l57 -273h12l-154 715l-400 -715h12l152 273l2 4zM303 809q-4 -27 6 -49.5t30 -36.5t46 -14q27 0 52 13t43 35.5t22 50.5q4 27 -6 49.5t-30 36.5t-47 14q-26 0 -51.5 -13.5t-43 -35.5t-21.5 -50zM313 808q4 25 19.5 45.5
t38.5 33t47 11.5q36 -1 57.5 -27.5t16.5 -62.5q-6 -37 -37.5 -63.5t-68.5 -25.5q-36 1 -57 27.5t-16 61.5z" />
    <glyph glyph-name="AE" unicode="&#xc6;" horiz-adv-x="870" 
d="M222 280h281l2 10h-282zM563 700l-586 -700h13l587 699zM455 0h310l2 10h-310zM577 690h306l2 10h-322zM521 384h290l2 10h-290zM569 700l-121 -700h11l121 700h-11z" />
    <glyph glyph-name="Ccedilla" unicode="&#xc7;" horiz-adv-x="665" 
d="M93 350q11 71 43 133.5t80.5 110t110.5 75t134 27.5q63 1 114.5 -19t89.5 -63l3 15q-41 40 -90 60t-116 19q-74 0 -138.5 -28.5t-114.5 -77.5t-83 -113.5t-45 -138.5q-10 -69 1.5 -133t44.5 -114.5t87 -80t127 -29.5q71 -1 127 20.5t105 58.5l3 15q-49 -39 -106 -61
t-128 -21q-71 0 -122.5 29t-83 78t-42.5 110.5t-1 127.5zM336 -1l-69 -87q19 10 40.5 18.5t43.5 6.5q16 -1 28 -9t18 -22t4 -33q-3 -26 -20.5 -44.5t-41 -28.5t-47.5 -10q-23 0 -40 8.5t-34 24.5l-8 -6q19 -18 37 -27.5t44 -9.5q27 0 53.5 11t45 32.5t21.5 49.5
q4 32 -14 52.5t-45 21.5q-22 1 -38 -6t-34 -17l68 75h-12z" />
    <glyph glyph-name="Egrave" unicode="&#xc8;" horiz-adv-x="495" 
d="M62 0h329l1 10h-328zM180 690h328l2 10h-328zM128 384h309l1 10h-308zM180 700l-120 -700h11l120 700h-11zM232 925l143 -156l4 4l-139 160z" />
    <glyph glyph-name="Eacute" unicode="&#xc9;" horiz-adv-x="495" 
d="M62 0h329l1 10h-328zM180 690h328l2 10h-328zM128 384h309l1 10h-308zM180 700l-120 -700h11l120 700h-11zM535 924l-6 8l-194 -158l4 -5z" />
    <glyph glyph-name="Ecircumflex" unicode="&#xca;" horiz-adv-x="495" 
d="M62 0h329l1 10h-328zM180 690h328l2 10h-328zM128 384h309l1 10h-308zM180 700l-120 -700h11l120 700h-11zM380 903l126 -135l7 7l-132 140l-179 -139l6 -7z" />
    <glyph glyph-name="Edieresis" unicode="&#xcb;" horiz-adv-x="495" 
d="M62 0h329l1 10h-328zM180 690h328l2 10h-328zM128 384h309l1 10h-308zM180 700l-120 -700h11l120 700h-11zM448 799q0 -4 2.5 -7.5t6.5 -3.5q5 0 8.5 3.5t4.5 7.5q0 5 -2.5 8t-6.5 3t-8 -3t-5 -8zM254 799q-1 -4 2 -7.5t7 -3.5q5 0 8.5 3.5t4.5 7.5q0 5 -2.5 8t-7.5 3
q-4 0 -8 -3t-4 -8z" />
    <glyph glyph-name="Igrave" unicode="&#xcc;" horiz-adv-x="175" 
d="M176 700l-121 -700h10l121 700h-10zM67 925l143 -156l4 4l-139 160z" />
    <glyph glyph-name="Iacute" unicode="&#xcd;" horiz-adv-x="175" 
d="M176 700l-121 -700h10l121 700h-10zM370 924l-6 8l-194 -158l4 -5z" />
    <glyph glyph-name="Icircumflex" unicode="&#xce;" horiz-adv-x="175" 
d="M176 700l-121 -700h10l121 700h-10zM215 903l126 -135l7 7l-132 140l-179 -139l6 -7z" />
    <glyph glyph-name="Idieresis" unicode="&#xcf;" horiz-adv-x="175" 
d="M176 700l-121 -700h10l121 700h-10zM254 799q-1 -4 2 -7.5t7 -3.5q5 0 8.5 3.5t4.5 7.5q0 5 -2.5 8t-7.5 3q-4 0 -8 -3t-4 -8zM118 799q0 -4 2.5 -7.5t6.5 -3.5q5 0 8.5 3.5t4.5 7.5q0 5 -2.5 8t-6.5 3t-8 -3t-5 -8z" />
    <glyph glyph-name="Eth" unicode="&#xd0;" horiz-adv-x="660" 
d="M37 345h291l2 10h-292zM180 700l-120 -700h11l120 700h-11zM216 0q102 2 183 48t133.5 124.5t68.5 177.5q14 95 -12 173.5t-89.5 127t-164.5 49.5h-150l-2 -11h151q98 -2 159.5 -48.5t86 -122.5t10.5 -168q-15 -96 -66 -172t-129.5 -120.5t-177.5 -46.5h-150l-2 -11h151z
" />
    <glyph glyph-name="Ntilde" unicode="&#xd1;" horiz-adv-x="645" 
d="M660 700l-118 -683l-398 698l-123 -715h11l117 678l399 -693l123 715h-11zM300 757l9 -1q6 18 20 34t42 16q21 0 37 -11.5t33 -23t40 -11.5q16 0 29 6.5t24 18.5t20 27l-9 3q-13 -19 -27 -33t-36 -14q-23 0 -39.5 11.5t-32.5 23t-40 11.5q-20 0 -34 -8.5t-22.5 -21.5
t-13.5 -27z" />
    <glyph glyph-name="Ograve" unicode="&#xd2;" horiz-adv-x="751" 
d="M92 350q11 71 44 134t82.5 111t113 75t136.5 27q72 0 125 -28.5t85.5 -77.5t44.5 -111.5t2 -129.5q-11 -70 -44 -133t-82.5 -111t-113 -75.5t-136.5 -27.5q-72 0 -125 29t-85.5 78t-44.5 111t-2 129zM81 350q-10 -69 3 -133t47 -115t89 -80.5t128 -29.5q74 0 139.5 28
t117 77.5t85.5 114.5t46 138q10 70 -3 134t-47 114.5t-88.5 80t-128.5 29.5t-139.5 -28t-117 -77.5t-85.5 -114t-46 -138.5zM375 925l141 -156l7 4l-139 160z" />
    <glyph glyph-name="Oacute" unicode="&#xd3;" horiz-adv-x="751" 
d="M92 350q11 71 44 134t82.5 111t113 75t136.5 27q72 0 125 -28.5t85.5 -77.5t44.5 -111.5t2 -129.5q-11 -70 -44 -133t-82.5 -111t-113 -75.5t-136.5 -27.5q-72 0 -125 29t-85.5 78t-44.5 111t-2 129zM81 350q-10 -69 3 -133t47 -115t89 -80.5t128 -29.5q74 0 139.5 28
t117 77.5t85.5 114.5t46 138q10 70 -3 134t-47 114.5t-88.5 80t-128.5 29.5t-139.5 -28t-117 -77.5t-85.5 -114t-46 -138.5zM638 924l-7 8l-193 -158l6 -5z" />
    <glyph glyph-name="Ocircumflex" unicode="&#xd4;" horiz-adv-x="751" 
d="M92 350q11 71 44 134t82.5 111t113 75t136.5 27q72 0 125 -28.5t85.5 -77.5t44.5 -111.5t2 -129.5q-11 -70 -44 -133t-82.5 -111t-113 -75.5t-136.5 -27.5q-72 0 -125 29t-85.5 78t-44.5 111t-2 129zM81 350q-10 -69 3 -133t47 -115t89 -80.5t128 -29.5q74 0 139.5 28
t117 77.5t85.5 114.5t46 138q10 70 -3 134t-47 114.5t-88.5 80t-128.5 29.5t-139.5 -28t-117 -77.5t-85.5 -114t-46 -138.5zM503 903l126 -135l8 7l-132 140l-180 -139l6 -7z" />
    <glyph glyph-name="Otilde" unicode="&#xd5;" horiz-adv-x="751" 
d="M92 350q11 71 44 134t82.5 111t113 75t136.5 27q72 0 125 -28.5t85.5 -77.5t44.5 -111.5t2 -129.5q-11 -70 -44 -133t-82.5 -111t-113 -75.5t-136.5 -27.5q-72 0 -125 29t-85.5 78t-44.5 111t-2 129zM81 350q-10 -69 3 -133t47 -115t89 -80.5t128 -29.5q74 0 139.5 28
t117 77.5t85.5 114.5t46 138q10 70 -3 134t-47 114.5t-88.5 80t-128.5 29.5t-139.5 -28t-117 -77.5t-85.5 -114t-46 -138.5zM361 790l8 -1q7 18 21.5 34t42.5 16q21 0 36.5 -11.5t32.5 -23t40 -11.5q16 0 29 6.5t24 18.5t20 27l-8 3q-13 -19 -27 -33t-36 -14
q-23 0 -39.5 11.5t-32.5 23t-40 11.5q-21 0 -35 -8.5t-22.5 -21.5t-13.5 -27z" />
    <glyph glyph-name="Odieresis" unicode="&#xd6;" horiz-adv-x="751" 
d="M92 350q11 71 44 134t82.5 111t113 75t136.5 27q72 0 125 -28.5t85.5 -77.5t44.5 -111.5t2 -129.5q-11 -70 -44 -133t-82.5 -111t-113 -75.5t-136.5 -27.5q-72 0 -125 29t-85.5 78t-44.5 111t-2 129zM81 350q-10 -69 3 -133t47 -115t89 -80.5t128 -29.5q74 0 139.5 28
t117 77.5t85.5 114.5t46 138q10 70 -3 134t-47 114.5t-88.5 80t-128.5 29.5t-139.5 -28t-117 -77.5t-85.5 -114t-46 -138.5zM583 809q-1 -4 2 -7.5t7 -3.5t8 3.5t4 7.5q1 5 -1.5 8t-7.5 3q-4 0 -8 -3t-4 -8zM369 809q0 -4 2.5 -7.5t6.5 -3.5q5 0 8.5 3.5t4.5 7.5q0 5 -2.5 8
t-6.5 3t-8 -3t-5 -8z" />
    <glyph glyph-name="multiply" unicode="&#xd7;" horiz-adv-x="561" 
d="M66 47l230 201l161 -202l8 7l-163 201l233 201l-6 7l-232 -201l-161 202l-8 -7l164 -202l-232 -200z" />
    <glyph glyph-name="Oslash" unicode="&#xd8;" horiz-adv-x="767" 
d="M92 350q11 71 44 134t82.5 111t113 75t136.5 27q72 0 125 -28.5t85.5 -77.5t44.5 -111.5t2 -129.5q-11 -70 -44 -133t-82.5 -111t-113 -75.5t-136.5 -27.5q-72 0 -125 29t-85.5 78t-44.5 111t-2 129zM81 350q-10 -69 3 -133t47 -115t89 -80.5t128 -29.5q74 0 139.5 28
t117 77.5t85.5 114.5t46 138q10 70 -3 134t-47 114.5t-88.5 80t-128.5 29.5t-139.5 -28t-117 -77.5t-85.5 -114t-46 -138.5zM789 733l-759 -759l9 -6l760 758z" />
    <glyph glyph-name="Ugrave" unicode="&#xd9;" horiz-adv-x="559" 
d="M176 700l-83 -480q-8 -60 4.5 -112.5t50 -84.5t104.5 -32t116 30.5t79.5 83t40.5 115.5l82 480h-11l-83 -480q-10 -61 -39.5 -110.5t-76 -78.5t-108.5 -29q-61 0 -96 30.5t-47 80t-5 107.5l82 480h-10zM278 925l143 -156l5 4l-139 160z" />
    <glyph glyph-name="Uacute" unicode="&#xda;" horiz-adv-x="559" 
d="M176 700l-83 -480q-8 -60 4.5 -112.5t50 -84.5t104.5 -32t116 30.5t79.5 83t40.5 115.5l82 480h-11l-83 -480q-10 -61 -39.5 -110.5t-76 -78.5t-108.5 -29q-61 0 -96 30.5t-47 80t-5 107.5l82 480h-10zM543 924l-7 8l-193 -158l4 -5z" />
    <glyph glyph-name="Ucircumflex" unicode="&#xdb;" horiz-adv-x="559" 
d="M176 700l-83 -480q-8 -60 4.5 -112.5t50 -84.5t104.5 -32t116 30.5t79.5 83t40.5 115.5l82 480h-11l-83 -480q-10 -61 -39.5 -110.5t-76 -78.5t-108.5 -29q-61 0 -96 30.5t-47 80t-5 107.5l82 480h-10zM407 903l126 -135l8 7l-132 140l-180 -139l6 -7z" />
    <glyph glyph-name="Udieresis" unicode="&#xdc;" horiz-adv-x="559" 
d="M176 700l-83 -480q-8 -60 4.5 -112.5t50 -84.5t104.5 -32t116 30.5t79.5 83t40.5 115.5l82 480h-11l-83 -480q-10 -61 -39.5 -110.5t-76 -78.5t-108.5 -29q-61 0 -96 30.5t-47 80t-5 107.5l82 480h-10zM462 779q0 -4 2.5 -7.5t6.5 -3.5q5 0 8.5 3.5t4.5 7.5q0 5 -2.5 8
t-6.5 3t-8 -3t-5 -8zM287 779q0 -4 3 -7.5t7 -3.5t8 3.5t4 7.5q1 5 -2 8t-7 3t-8 -3t-5 -8z" />
    <glyph glyph-name="Yacute" unicode="&#xdd;" horiz-adv-x="492" 
d="M529 924l-7 8l-193 -158l4 -5zM558 699l-297 -417l-141 418h-13l148 -433l-47 -267h11l46 267l306 432h-13z" />
    <glyph glyph-name="Thorn" unicode="&#xde;" horiz-adv-x="505" 
d="M171 700l-121 -700h10l121 700h-10zM148 550h152q60 -1 105.5 -26.5t68 -69.5t12.5 -104q-10 -58 -47.5 -102.5t-91.5 -70t-116 -27.5h-151l-2 -10h152q66 2 123 28t95.5 72.5t48.5 109.5q10 62 -13.5 109t-71 73.5t-111.5 27.5h-151z" />
    <glyph glyph-name="germandbls" unicode="&#xdf;" horiz-adv-x="530" 
d="M285 -10q58 0 104.5 32.5t74 87.5t27.5 122q0 50 -16 78t-39 42t-46 23t-39 20t-16 34q0 20 16.5 34.5t40 30t47.5 36t40.5 50t16.5 73.5q0 43 -19 74.5t-51 49t-73 17.5q-51 0 -94 -29.5t-71.5 -78.5t-38.5 -108l-99 -578h10l100 580q9 55 36.5 101.5t68 74.5t88.5 28
q57 0 95 -36.5t38 -94.5q0 -42 -16.5 -70.5t-40 -48.5t-47.5 -36t-40.5 -31.5t-16.5 -36.5q0 -26 16 -39t39 -22t46 -22.5t39 -40.5t16 -76q0 -62 -26 -114.5t-70 -84t-100 -31.5q-40 0 -79.5 14t-63.5 38l-7 -6q16 -17 40.5 -29.5t53 -19.5t56.5 -7z" />
    <glyph glyph-name="agrave" unicode="&#xe0;" horiz-adv-x="525" 
d="M490 460l-80 -460h10l80 460h-10zM56 230q-8 -62 7.5 -117t55.5 -88.5t103 -33.5q47 0 86.5 21t70 56t50 77t26.5 85q6 40 0.5 82t-23.5 77.5t-50 57.5t-79 23q-63 1 -115.5 -32t-87 -87.5t-44.5 -120.5zM66 230q10 63 43.5 115.5t84.5 84t111 30.5q43 -1 73 -22
t48 -55.5t24 -74.5t0 -78q-7 -41 -26.5 -81.5t-49.5 -74t-67.5 -53.5t-80.5 -20q-61 0 -99.5 32.5t-53.5 85t-7 111.5zM249 697l143 -156l4 4l-138 160z" />
    <glyph glyph-name="aacute" unicode="&#xe1;" horiz-adv-x="525" 
d="M490 460l-80 -460h10l80 460h-10zM56 230q-8 -62 7.5 -117t55.5 -88.5t103 -33.5q47 0 86.5 21t70 56t50 77t26.5 85q6 40 0.5 82t-23.5 77.5t-50 57.5t-79 23q-63 1 -115.5 -32t-87 -87.5t-44.5 -120.5zM66 230q10 63 43.5 115.5t84.5 84t111 30.5q43 -1 73 -22
t48 -55.5t24 -74.5t0 -78q-7 -41 -26.5 -81.5t-49.5 -74t-67.5 -53.5t-80.5 -20q-61 0 -99.5 32.5t-53.5 85t-7 111.5zM436 696l-7 8l-193 -158l4 -5z" />
    <glyph glyph-name="acircumflex" unicode="&#xe2;" horiz-adv-x="525" 
d="M490 460l-80 -460h10l80 460h-10zM56 230q-8 -62 7.5 -117t55.5 -88.5t103 -33.5q47 0 86.5 21t70 56t50 77t26.5 85q6 40 0.5 82t-23.5 77.5t-50 57.5t-79 23q-63 1 -115.5 -32t-87 -87.5t-44.5 -120.5zM66 230q10 63 43.5 115.5t84.5 84t111 30.5q43 -1 73 -22
t48 -55.5t24 -74.5t0 -78q-7 -41 -26.5 -81.5t-49.5 -74t-67.5 -53.5t-80.5 -20q-61 0 -99.5 32.5t-53.5 85t-7 111.5zM341 685l126 -135l7 7l-132 140l-179 -139l6 -7z" />
    <glyph glyph-name="atilde" unicode="&#xe3;" horiz-adv-x="525" 
d="M490 460l-80 -460h10l80 460h-10zM56 230q-8 -62 7.5 -117t55.5 -88.5t103 -33.5q47 0 86.5 21t70 56t50 77t26.5 85q6 40 0.5 82t-23.5 77.5t-50 57.5t-79 23q-63 1 -115.5 -32t-87 -87.5t-44.5 -120.5zM66 230q10 63 43.5 115.5t84.5 84t111 30.5q43 -1 73 -22
t48 -55.5t24 -74.5t0 -78q-7 -41 -26.5 -81.5t-49.5 -74t-67.5 -53.5t-80.5 -20q-61 0 -99.5 32.5t-53.5 85t-7 111.5zM195 552l10 -1q7 18 20.5 33.5t40.5 16.5q21 0 37 -11.5t33.5 -23t40.5 -11.5q16 0 29 6.5t24 18.5t20 27l-10 3q-13 -19 -27 -33t-36 -14
q-23 0 -39.5 11.5t-32.5 23t-40 11.5q-15 0 -33 -9t-29 -22t-8 -26z" />
    <glyph glyph-name="adieresis" unicode="&#xe4;" horiz-adv-x="525" 
d="M490 460l-80 -460h10l80 460h-10zM56 230q-8 -62 7.5 -117t55.5 -88.5t103 -33.5q47 0 86.5 21t70 56t50 77t26.5 85q6 40 0.5 82t-23.5 77.5t-50 57.5t-79 23q-63 1 -115.5 -32t-87 -87.5t-44.5 -120.5zM66 230q10 63 43.5 115.5t84.5 84t111 30.5q43 -1 73 -22
t48 -55.5t24 -74.5t0 -78q-7 -41 -26.5 -81.5t-49.5 -74t-67.5 -53.5t-80.5 -20q-61 0 -99.5 32.5t-53.5 85t-7 111.5zM420 591q0 -4 2.5 -7.5t6.5 -3.5q5 0 8.5 3.5t4.5 7.5q0 5 -2.5 8t-6.5 3t-8 -3t-5 -8zM226 591q0 -4 2.5 -7.5t6.5 -3.5q5 0 8.5 3.5t4.5 7.5
q0 5 -2.5 8t-6.5 3t-8 -3t-5 -8z" />
    <glyph glyph-name="aring" unicode="&#xe5;" horiz-adv-x="525" 
d="M490 460l-80 -460h10l80 460h-10zM56 230q-8 -62 7.5 -117t55.5 -88.5t103 -33.5q47 0 86.5 21t70 56t50 77t26.5 85q6 40 0.5 82t-23.5 77.5t-50 57.5t-79 23q-63 1 -115.5 -32t-87 -87.5t-44.5 -120.5zM66 230q10 63 43.5 115.5t84.5 84t111 30.5q43 -1 73 -22
t48 -55.5t24 -74.5t0 -78q-7 -41 -26.5 -81.5t-49.5 -74t-67.5 -53.5t-80.5 -20q-61 0 -99.5 32.5t-53.5 85t-7 111.5zM232 631q-4 -27 6 -49.5t30 -36.5t46 -14q27 0 52 13t42.5 35.5t21.5 50.5q4 27 -6 49.5t-29.5 36.5t-46.5 14t-52 -13.5t-42.5 -35.5t-21.5 -50z
M241 630q4 25 20 45.5t39 33t47 11.5q36 -1 57.5 -27.5t16.5 -62.5q-4 -24 -20 -44.5t-39 -32.5t-47 -12q-36 1 -57.5 27.5t-16.5 61.5z" />
    <glyph glyph-name="ae" unicode="&#xe6;" horiz-adv-x="825" 
d="M158 -10q72 0 125.5 49.5t77.5 138.5h-5q-2 -90 43.5 -139t129.5 -49q68 0 129 31t104 86l-7 6q-44 -54 -104 -83.5t-123 -29.5q-60 0 -99.5 28.5t-55 80t-3.5 121.5l-6 -2h423q3 10 5 14t3 11q10 61 -10 110t-62 78t-99 29q-54 0 -105 -24.5t-89.5 -66.5t-57.5 -97h4
q21 95 -2 141.5t-92 46.5q-43 0 -88.5 -17.5t-83.5 -49.5l5 -8q25 21 52.5 35.5t56.5 22t56 7.5q59 0 82 -36t12 -104l-15 -87l5 1q-17 22 -50.5 34.5t-76.5 12.5q-55 0 -100 -18.5t-73.5 -52t-36.5 -78.5q-10 -61 27 -101.5t104 -40.5zM158 0q-62 0 -96 37.5t-25 94.5
q7 41 35 72.5t70.5 49t94.5 17.5q42 0 75 -12.5t49 -34.5l-2 6l-5 -51l4 19q-23 -94 -76 -146t-124 -52zM370 236q10 62 47.5 113t91 81t112.5 30q55 0 95 -28t58.5 -75t8.5 -105q-2 -14 -5 -18l8 4h-420z" />
    <glyph glyph-name="ccedilla" unicode="&#xe7;" horiz-adv-x="474" 
d="M61 230q10 63 46.5 115.5t91.5 83.5t118 31q47 0 84 -18.5t56 -41.5l2 12q-21 23 -57.5 40.5t-83.5 17.5q-67 0 -124 -32.5t-95 -87t-48 -120.5q-9 -62 10.5 -117t64.5 -88.5t111 -33.5q50 0 91.5 17.5t68.5 39.5l2 12q-27 -21 -69 -40t-92 -19q-63 0 -105.5 32.5
t-61.5 85t-10 111.5zM232 -3l-69 -87q19 10 40.5 18.5t43.5 6.5q16 -1 28 -9t18 -22t4 -33q-3 -26 -20.5 -44.5t-41 -28.5t-47.5 -10q-23 0 -40 8.5t-34 24.5l-8 -6q19 -18 37 -27.5t44 -9.5q27 0 53.5 11t45 32.5t21.5 49.5q4 32 -14 52.5t-45 21.5q-22 1 -38 -6t-34 -17
l68 75h-12z" />
    <glyph glyph-name="egrave" unicode="&#xe8;" horiz-adv-x="487" 
d="M69 228h391q2 6 3.5 13t2.5 13q7 56 -11.5 105t-58 80t-94.5 31q-49 0 -92 -22t-75 -58.5t-51 -81.5q-8 -18 -13.5 -37t-8.5 -39q-7 -59 9 -114.5t54.5 -91t99.5 -35.5q54 0 92.5 17.5t67.5 44t51 53.5l-7 7q-22 -27 -50.5 -53t-66 -42.5t-87.5 -16.5q-58 1 -93.5 35
t-50 87t-9.5 110v0q9 62 42 113.5t82 82.5t106 30q57 0 94.5 -33.5t52 -84t3.5 -103.5h-382zM175 686l144 -156l6 4l-142 160z" />
    <glyph glyph-name="eacute" unicode="&#xe9;" horiz-adv-x="487" 
d="M69 228h391q2 6 3.5 13t2.5 13q7 56 -11.5 105t-58 80t-94.5 31q-49 0 -92 -22t-75 -58.5t-51 -81.5q-8 -18 -13.5 -37t-8.5 -39q-7 -59 9 -114.5t54.5 -91t99.5 -35.5q54 0 92.5 17.5t67.5 44t51 53.5l-7 7q-22 -27 -50.5 -53t-66 -42.5t-87.5 -16.5q-58 1 -93.5 35
t-50 87t-9.5 110v0q9 62 42 113.5t82 82.5t106 30q57 0 94.5 -33.5t52 -84t3.5 -103.5h-382zM487 685l-7 8l-190 -158l5 -5z" />
    <glyph glyph-name="ecircumflex" unicode="&#xea;" horiz-adv-x="487" 
d="M69 228h391q2 6 3.5 13t2.5 13q7 56 -11.5 105t-58 80t-94.5 31q-49 0 -92 -22t-75 -58.5t-51 -81.5q-8 -18 -13.5 -37t-8.5 -39q-7 -59 9 -114.5t54.5 -91t99.5 -35.5q54 0 92.5 17.5t67.5 44t51 53.5l-7 7q-22 -27 -50.5 -53t-66 -42.5t-87.5 -16.5q-58 1 -93.5 35
t-50 87t-9.5 110v0q9 62 42 113.5t82 82.5t106 30q57 0 94.5 -33.5t52 -84t3.5 -103.5h-382zM330 664l126 -134l7 7l-132 139l-179 -138l6 -7z" />
    <glyph glyph-name="edieresis" unicode="&#xeb;" horiz-adv-x="487" 
d="M69 228h391q2 6 3.5 13t2.5 13q7 56 -11.5 105t-58 80t-94.5 31q-49 0 -92 -22t-75 -58.5t-51 -81.5q-8 -18 -13.5 -37t-8.5 -39q-7 -59 9 -114.5t54.5 -91t99.5 -35.5q54 0 92.5 17.5t67.5 44t51 53.5l-7 7q-22 -27 -50.5 -53t-66 -42.5t-87.5 -16.5q-58 1 -93.5 35
t-50 87t-9.5 110v0q9 62 42 113.5t82 82.5t106 30q57 0 94.5 -33.5t52 -84t3.5 -103.5h-382zM394 541q0 -4 2.5 -7.5t6.5 -3.5q5 0 8.5 3.5t4.5 7.5q0 5 -2.5 8t-7.5 3q-4 0 -7.5 -3.5t-4.5 -7.5zM200 541q0 -4 2.5 -7.5t6.5 -3.5q5 0 8.5 3.5t4.5 7.5q0 5 -2.5 8t-7.5 3
q-4 0 -7.5 -3.5t-4.5 -7.5z" />
    <glyph glyph-name="igrave" unicode="&#xec;" horiz-adv-x="184" 
d="M140 460l-80 -460h10l79 460h-9zM32 687l141 -156l6 4l-138 160z" />
    <glyph glyph-name="iacute" unicode="&#xed;" horiz-adv-x="184" 
d="M140 460l-80 -460h10l79 460h-9zM334 686l-7 8l-193 -158l5 -5z" />
    <glyph glyph-name="icircumflex" unicode="&#xee;" horiz-adv-x="184" 
d="M140 460l-80 -460h10l79 460h-9zM179 665l126 -135l8 7l-132 140l-180 -139l6 -7z" />
    <glyph glyph-name="idieresis" unicode="&#xef;" horiz-adv-x="184" 
d="M140 460l-80 -460h10l79 460h-9zM225 541q-1 -4 2 -7.5t7 -3.5t8 3.5t4 7.5q1 5 -2 8t-7 3t-8 -3t-4 -8zM69 541q0 -4 2.5 -7.5t6.5 -3.5q5 0 8.5 3.5t4.5 7.5q0 5 -2.5 8t-6.5 3t-8 -3t-5 -8z" />
    <glyph glyph-name="eth" unicode="&#xf0;" horiz-adv-x="536" 
d="M237 -10q49 0 96 21.5t85 58.5t60 85t21 101q0 22 -4 43.5t-15.5 50t-34.5 72.5t-60 111.5t-92 166.5l-8 -6q39 -69 65 -115.5t44.5 -81t34.5 -67.5t36 -76l1 1q-25 41 -67.5 61.5t-98.5 20.5q-46 0 -90.5 -21t-80 -57.5t-56.5 -82.5t-21 -96q0 -59 22 -101.5t63.5 -65.5
t99.5 -23zM238 0q-80 0 -128 49t-48 131q0 47 20.5 91t54.5 79.5t76 56t86 20.5q63 0 105.5 -24.5t63.5 -63.5t21 -84q0 -49 -21.5 -94.5t-58 -82t-81 -57.5t-90.5 -21zM235 520l267 110l-3 10l-266 -110z" />
    <glyph glyph-name="ntilde" unicode="&#xf1;" 
d="M145 460h-10l-80 -460h10zM397 320l-56 -320h10l56 320q5 40 -2.5 73.5t-32 55t-70.5 21.5q-51 0 -91 -27t-66.5 -70t-37.5 -92h5q11 44 37 85.5t65.5 68t87.5 25.5q43 0 65 -20t28.5 -51.5t1.5 -68.5zM175 552l9 -1q7 18 21 34t42 16q21 0 36.5 -11.5t32.5 -23t40 -11.5
q16 0 29 6.5t24.5 18.5t20.5 27l-9 3q-13 -19 -27 -33t-36 -14q-23 0 -39.5 11.5l-33 23t-40.5 11.5q-20 0 -34 -8.5t-22.5 -21.5t-13.5 -27z" />
    <glyph glyph-name="ograve" unicode="&#xf2;" horiz-adv-x="540" 
d="M56 230q-9 -62 10.5 -117t64.5 -88.5t111 -33.5q67 0 124 32t95 87t48 120q9 63 -11 117.5t-64.5 88.5t-111.5 34t-123.5 -32.5t-94.5 -87t-48 -120.5zM66 230q10 63 46.5 115.5t91.5 83.5t118 31t105.5 -32.5t61.5 -85t10 -112.5q-10 -63 -46.5 -115t-91.5 -83t-119 -31
q-63 0 -105.5 32.5t-61 84.5t-9.5 112zM228 687l143 -156l4 4l-138 160z" />
    <glyph glyph-name="oacute" unicode="&#xf3;" horiz-adv-x="540" 
d="M56 230q-9 -62 10.5 -117t64.5 -88.5t111 -33.5q67 0 124 32t95 87t48 120q9 63 -11 117.5t-64.5 88.5t-111.5 34t-123.5 -32.5t-94.5 -87t-48 -120.5zM66 230q10 63 46.5 115.5t91.5 83.5t118 31t105.5 -32.5t61.5 -85t10 -112.5q-10 -63 -46.5 -115t-91.5 -83t-119 -31
q-63 0 -105.5 32.5t-61 84.5t-9.5 112zM493 686l-7 8l-193 -158l3 -5z" />
    <glyph glyph-name="ocircumflex" unicode="&#xf4;" horiz-adv-x="540" 
d="M56 230q-9 -62 10.5 -117t64.5 -88.5t111 -33.5q67 0 124 32t95 87t48 120q9 63 -11 117.5t-64.5 88.5t-111.5 34t-123.5 -32.5t-94.5 -87t-48 -120.5zM66 230q10 63 46.5 115.5t91.5 83.5t118 31t105.5 -32.5t61.5 -85t10 -112.5q-10 -63 -46.5 -115t-91.5 -83t-119 -31
q-63 0 -105.5 32.5t-61 84.5t-9.5 112zM360 685l126 -135l8 7l-132 140l-180 -139l6 -7z" />
    <glyph glyph-name="otilde" unicode="&#xf5;" horiz-adv-x="540" 
d="M56 230q-9 -62 10.5 -117t64.5 -88.5t111 -33.5q67 0 124 32t95 87t48 120q9 63 -11 117.5t-64.5 88.5t-111.5 34t-123.5 -32.5t-94.5 -87t-48 -120.5zM66 230q10 63 46.5 115.5t91.5 83.5t118 31t105.5 -32.5t61.5 -85t10 -112.5q-10 -63 -46.5 -115t-91.5 -83t-119 -31
q-63 0 -105.5 32.5t-61 84.5t-9.5 112zM214 552l10 -1q7 18 20.5 33.5t41.5 16.5q21 0 37 -11.5t33 -23t40 -11.5q16 0 29 6.5t24 18.5t20 27l-9 3q-13 -19 -27 -33t-36 -14q-23 0 -39.5 11.5l-33 23t-40.5 11.5q-15 0 -32.5 -9t-29 -22t-8.5 -26z" />
    <glyph glyph-name="odieresis" unicode="&#xf6;" horiz-adv-x="540" 
d="M56 230q-9 -62 10.5 -117t64.5 -88.5t111 -33.5q67 0 124 32t95 87t48 120q9 63 -11 117.5t-64.5 88.5t-111.5 34t-123.5 -32.5t-94.5 -87t-48 -120.5zM66 230q10 63 46.5 115.5t91.5 83.5t118 31t105.5 -32.5t61.5 -85t10 -112.5q-10 -63 -46.5 -115t-91.5 -83t-119 -31
q-63 0 -105.5 32.5t-61 84.5t-9.5 112zM425 561q-1 -4 2 -7.5t7 -3.5q5 0 8.5 3.5t3.5 7.5q1 5 -1.5 8t-7.5 3q-4 0 -8 -3t-4 -8zM231 561q-1 -4 2 -7.5t7 -3.5t8 3.5t4 7.5q1 5 -1.5 8t-7.5 3q-4 0 -8 -3t-4 -8z" />
    <glyph glyph-name="divide" unicode="&#xf7;" horiz-adv-x="605" 
d="M340 451q0 -3 1 -5.5t3.5 -4t5.5 -1.5q2 0 5 1.5t5 4.5t2 5q0 3 -1 5.5t-3 4t-5 1.5t-6 -1.5t-4.5 -4t-2.5 -5.5zM268 31q0 -4 3 -7.5t7 -3.5q3 0 5.5 1.5t4.5 4.5t2 5q1 3 -0.5 5.5t-3.5 4t-5 1.5t-6 -1.5t-4.5 -4t-2.5 -5.5zM71 235h486l1 10h-485z" />
    <glyph glyph-name="oslash" unicode="&#xf8;" horiz-adv-x="530" 
d="M56 230q-9 -62 10.5 -117t64.5 -88.5t111 -33.5q67 0 124 32t95 87t48 120q9 63 -11 117.5t-64.5 88.5t-111.5 34t-123.5 -32.5t-94.5 -87t-48 -120.5zM66 230q10 63 46.5 115.5t91.5 83.5t118 31t105.5 -32.5t61.5 -85t10 -112.5q-10 -63 -46.5 -115t-91.5 -83t-119 -31
q-63 0 -105.5 32.5t-61 84.5t-9.5 112zM502 493l-469 -523l8 -6l469 522z" />
    <glyph glyph-name="ugrave" unicode="&#xf9;" 
d="M341 0h10l80 460h-10zM91 150l54 310h-10l-54 -310q-5 -42 1 -78t30 -58.5t71 -22.5q51 0 91.5 26.5t67.5 69.5t37 92h-6q-10 -44 -36 -85t-65 -67t-88 -26q-44 0 -66 21t-27 55.5t0 72.5zM171 697l142 -156l6 4l-139 160z" />
    <glyph glyph-name="uacute" unicode="&#xfa;" 
d="M341 0h10l80 460h-10zM91 150l54 310h-10l-54 -310q-5 -42 1 -78t30 -58.5t71 -22.5q51 0 91.5 26.5t67.5 69.5t37 92h-6q-10 -44 -36 -85t-65 -67t-88 -26q-44 0 -66 21t-27 55.5t0 72.5zM474 696l-7 8l-193 -158l5 -5z" />
    <glyph glyph-name="ucircumflex" unicode="&#xfb;" 
d="M341 0h10l80 460h-10zM91 150l54 310h-10l-54 -310q-5 -42 1 -78t30 -58.5t71 -22.5q51 0 91.5 26.5t67.5 69.5t37 92h-6q-10 -44 -36 -85t-65 -67t-88 -26q-44 0 -66 21t-27 55.5t0 72.5zM320 675l124 -135l9 7l-132 140l-179 -139l5 -7z" />
    <glyph glyph-name="udieresis" unicode="&#xfc;" 
d="M341 0h10l80 460h-10zM91 150l54 310h-10l-54 -310q-5 -42 1 -78t30 -58.5t71 -22.5q51 0 91.5 26.5t67.5 69.5t37 92h-6q-10 -44 -36 -85t-65 -67t-88 -26q-44 0 -66 21t-27 55.5t0 72.5zM366 562q-1 -4 2.5 -8t7.5 -4t7.5 3.5t3.5 7.5q1 5 -1 8t-7 3q-4 0 -8.5 -3
t-4.5 -7zM210 562q0 -4 3.5 -8t7.5 -4t7.5 3.5t3.5 7.5q1 5 -1.5 8t-6.5 3t-8.5 -3t-5.5 -7z" />
    <glyph glyph-name="yacute" unicode="&#xfd;" horiz-adv-x="412" 
d="M455 460h-11l-264 -439l11 -1l-118 440h-12l120 -439l-145 -240h11zM448 686l-7 8l-193 -158l5 -5z" />
    <glyph glyph-name="thorn" unicode="&#xfe;" horiz-adv-x="525" 
d="M22 -219l172 999h-10l-171 -999h9zM494 230q9 63 -7 117.5t-56 88.5t-104 34q-47 0 -86.5 -21t-69.5 -56t-49.5 -77.5t-26.5 -85.5q-6 -40 -0.5 -81.5t23.5 -77t50 -58t79 -22.5q63 -1 115.5 31.5t87.5 87.5t44 120zM484 230q-9 -63 -43 -115.5t-85 -83.5t-112 -30
q-42 1 -72 22t-48 55t-24 74t0 78q7 42 26.5 82.5t49 74t67.5 53.5t81 20q61 1 99.5 -32t54 -85.5t6.5 -112.5z" />
    <glyph glyph-name="ydieresis" unicode="&#xff;" horiz-adv-x="412" 
d="M455 460h-11l-264 -439l11 -1l-118 440h-12l120 -439l-145 -240h11zM342 561q0 -4 2.5 -7t6.5 -4q4 0 8 3.5t5 7.5q0 5 -3 8t-7 3t-7.5 -3t-4.5 -8zM187 561q0 -4 2 -7t6 -4q5 0 9 3.5t5 7.5q0 5 -3 8t-7 3t-7.5 -3t-4.5 -8z" />
    <glyph glyph-name="Amacron" unicode="&#x100;" horiz-adv-x="582" 
d="M143 272h335l1 10h-335zM383 688l89 -412v-3l57 -273h12l-154 715l-400 -715h12l152 273l2 4zM230 795h340l2 10h-340z" />
    <glyph glyph-name="amacron" unicode="&#x101;" horiz-adv-x="525" 
d="M490 460l-80 -460h10l80 460h-10zM56 230q-8 -62 7.5 -117t55.5 -88.5t103 -33.5q47 0 86.5 21t70 56t50 77t26.5 85q6 40 0.5 82t-23.5 77.5t-50 57.5t-79 23q-63 1 -115.5 -32t-87 -87.5t-44.5 -120.5zM66 230q10 63 43.5 115.5t84.5 84t111 30.5q43 -1 73 -22
t48 -55.5t24 -74.5t0 -78q-7 -41 -26.5 -81.5t-49.5 -74t-67.5 -53.5t-80.5 -20q-61 0 -99.5 32.5t-53.5 85t-7 111.5zM147 550h340l2 10h-340z" />
    <glyph glyph-name="Abreve" unicode="&#x102;" horiz-adv-x="582" 
d="M143 272h335l1 10h-335zM383 688l89 -412v-3l57 -273h12l-154 715l-400 -715h12l152 273l2 4zM269 925q-3 -36 9.5 -68t42.5 -51.5t78 -19.5q49 0 85 19.5t59 51t33 67.5h-10q-9 -33 -32 -62.5t-57 -47.5t-78 -18q-42 0 -70 18t-40.5 47.5t-9.5 63.5h-10z" />
    <glyph glyph-name="abreve" unicode="&#x103;" horiz-adv-x="525" 
d="M490 460l-80 -460h10l80 460h-10zM56 230q-8 -62 7.5 -117t55.5 -88.5t103 -33.5q47 0 86.5 21t70 56t50 77t26.5 85q6 40 0.5 82t-23.5 77.5t-50 57.5t-79 23q-63 1 -115.5 -32t-87 -87.5t-44.5 -120.5zM66 230q10 63 43.5 115.5t84.5 84t111 30.5q43 -1 73 -22
t48 -55.5t24 -74.5t0 -78q-7 -41 -26.5 -81.5t-49.5 -74t-67.5 -53.5t-80.5 -20q-61 0 -99.5 32.5t-53.5 85t-7 111.5zM188 690q-3 -36 9.5 -68t42.5 -51.5t78 -19.5q49 0 85 19.5t59.5 51t33.5 67.5h-10q-10 -33 -33 -62.5t-57 -47.5t-78 -18q-42 0 -70 18t-40.5 47.5
t-9.5 63.5h-10z" />
    <glyph glyph-name="Aogonek" unicode="&#x104;" horiz-adv-x="582" 
d="M145 272h333l1 10h-333zM383 688l89 -412v-3l57 -273h12l-154 715l-400 -715h12l152 273l2 4zM544 -173q-16 -13 -41 -25t-54 -11q-34 0 -58 17.5t-20 51.5q5 34 33.5 59.5t66.5 45.5t70 35l-5 10q-34 -16 -73 -36.5t-67.5 -48t-34.5 -64.5q-5 -37 20.5 -58.5t66.5 -21.5
q31 -1 58 11t44 27z" />
    <glyph glyph-name="aogonek" unicode="&#x105;" horiz-adv-x="525" 
d="M490 460l-80 -460h10l80 460h-10zM56 230q-8 -62 7.5 -117t55.5 -88.5t103 -33.5q47 0 86.5 21t70 56t50 77t26.5 85q6 40 0.5 82t-23.5 77.5t-50 57.5t-79 23q-63 1 -115.5 -32t-87 -87.5t-44.5 -120.5zM66 230q10 63 43.5 115.5t84.5 84t111 30.5q43 -1 73 -22
t48 -55.5t24 -74.5t0 -78q-7 -41 -26.5 -81.5t-49.5 -74t-67.5 -53.5t-80.5 -20q-61 0 -99.5 32.5t-53.5 85t-7 111.5zM424 -173q-17 -13 -41.5 -25t-53.5 -11q-34 0 -58 17.5t-20 51.5q5 34 33.5 59.5t66.5 45.5t70 35l-5 10q-34 -16 -73 -36.5t-67.5 -48t-34.5 -64.5
q-5 -37 20 -58.5t67 -21.5q31 -1 57.5 11t44.5 27z" />
    <glyph glyph-name="Cacute" unicode="&#x106;" horiz-adv-x="665" 
d="M93 350q11 71 43 133.5t80.5 110t110.5 75t134 27.5q63 1 114.5 -19t89.5 -63l3 15q-41 40 -90 60t-116 19q-74 0 -138.5 -28.5t-114.5 -77.5t-83 -113.5t-45 -138.5q-10 -69 1.5 -133t44.5 -114.5t87 -80t127 -29.5q71 -1 127 20.5t105 58.5l3 15q-49 -39 -106 -61
t-128 -21q-71 0 -122.5 29t-83 78t-42.5 110.5t-1 127.5zM632 924l-6 8l-194 -158l4 -5z" />
    <glyph glyph-name="cacute" unicode="&#x107;" horiz-adv-x="474" 
d="M61 230q10 63 46.5 115.5t91.5 83.5t118 31q47 0 84 -18.5t56 -41.5l2 12q-21 23 -57.5 40.5t-83.5 17.5q-67 0 -124 -32.5t-95 -87t-48 -120.5q-9 -62 10.5 -117t64.5 -88.5t111 -33.5q50 0 91.5 17.5t68.5 39.5l2 12q-27 -21 -69 -40t-92 -19q-63 0 -105.5 32.5
t-61.5 85t-10 111.5zM498 696l-6 8l-194 -158l6 -5z" />
    <glyph glyph-name="Ccircumflex" unicode="&#x108;" horiz-adv-x="665" 
d="M93 350q11 71 43 133.5t80.5 110t110.5 75t134 27.5q63 1 114.5 -19t89.5 -63l3 15q-41 40 -90 60t-116 19q-74 0 -138.5 -28.5t-114.5 -77.5t-83 -113.5t-45 -138.5q-10 -69 1.5 -133t44.5 -114.5t87 -80t127 -29.5q71 -1 127 20.5t105 58.5l3 15q-49 -39 -106 -61
t-128 -21q-71 0 -122.5 29t-83 78t-42.5 110.5t-1 127.5zM497 903l125 -135l8 7l-132 140l-180 -139l6 -7z" />
    <glyph glyph-name="ccircumflex" unicode="&#x109;" horiz-adv-x="474" 
d="M61 230q10 63 46.5 115.5t91.5 83.5t118 31q47 0 84 -18.5t56 -41.5l2 12q-21 23 -57.5 40.5t-83.5 17.5q-67 0 -124 -32.5t-95 -87t-48 -120.5q-9 -62 10.5 -117t64.5 -88.5t111 -33.5q50 0 91.5 17.5t68.5 39.5l2 12q-27 -21 -69 -40t-92 -19q-63 0 -105.5 32.5
t-61.5 85t-10 111.5zM352 665l126 -135l7 7l-132 140l-179 -139l6 -7z" />
    <glyph glyph-name="Cdotaccent" unicode="&#x10a;" horiz-adv-x="665" 
d="M93 350q11 71 43 133.5t80.5 110t110.5 75t134 27.5q63 1 114.5 -19t89.5 -63l3 15q-41 40 -90 60t-116 19q-74 0 -138.5 -28.5t-114.5 -77.5t-83 -113.5t-45 -138.5q-10 -69 1.5 -133t44.5 -114.5t87 -80t127 -29.5q71 -1 127 20.5t105 58.5l3 15q-49 -39 -106 -61
t-128 -21q-71 0 -122.5 29t-83 78t-42.5 110.5t-1 127.5zM466 789q-1 -4 2 -7.5t7 -3.5t8 3.5t4 7.5q1 5 -1.5 8t-7.5 3q-4 0 -8 -3t-4 -8z" />
    <glyph glyph-name="cdotaccent" unicode="&#x10b;" horiz-adv-x="474" 
d="M61 230q10 63 46.5 115.5t91.5 83.5t118 31q47 0 84 -18.5t56 -41.5l2 12q-21 23 -57.5 40.5t-83.5 17.5q-67 0 -124 -32.5t-95 -87t-48 -120.5q-9 -62 10.5 -117t64.5 -88.5t111 -33.5q50 0 91.5 17.5t68.5 39.5l2 12q-27 -21 -69 -40t-92 -19q-63 0 -105.5 32.5
t-61.5 85t-10 111.5zM321 551q0 -4 2.5 -7.5t6.5 -3.5q5 0 8.5 3.5t4.5 7.5q0 5 -2.5 8t-6.5 3t-8 -3t-5 -8z" />
    <glyph glyph-name="Ccaron" unicode="&#x10c;" horiz-adv-x="665" 
d="M93 350q11 71 43 133.5t80.5 110t110.5 75t134 27.5q63 1 114.5 -19t89.5 -63l3 15q-41 40 -90 60t-116 19q-74 0 -138.5 -28.5t-114.5 -77.5t-83 -113.5t-45 -138.5q-10 -69 1.5 -133t44.5 -114.5t87 -80t127 -29.5q71 -1 127 20.5t105 58.5l3 15q-49 -39 -106 -61
t-128 -21q-71 0 -122.5 29t-83 78t-42.5 110.5t-1 127.5zM476 791l-124 135l-9 -8l132 -139l179 138l-6 8z" />
    <glyph glyph-name="ccaron" unicode="&#x10d;" horiz-adv-x="474" 
d="M61 230q10 63 46.5 115.5t91.5 83.5t118 31q47 0 84 -18.5t56 -41.5l2 12q-21 23 -57.5 40.5t-83.5 17.5q-67 0 -124 -32.5t-95 -87t-48 -120.5q-9 -62 10.5 -117t64.5 -88.5t111 -33.5q50 0 91.5 17.5t68.5 39.5l2 12q-27 -21 -69 -40t-92 -19q-63 0 -105.5 32.5
t-61.5 85t-10 111.5zM333 563l-124 135l-9 -8l132 -139l180 138l-7 8z" />
    <glyph glyph-name="Dcaron" unicode="&#x10e;" horiz-adv-x="616" 
d="M180 700l-120 -700h11l120 700h-11zM216 0q102 2 183 48t133.5 124.5t68.5 177.5q14 95 -12 173.5t-89.5 127t-164.5 49.5h-150l-2 -11h151q98 -2 159.5 -48.5t86 -122.5t10.5 -168q-15 -96 -65.5 -172.5t-129 -120.5t-178.5 -46h-150l-2 -11h151zM419 811l-124 135
l-9 -8l132 -139l180 138l-7 8z" />
    <glyph glyph-name="dcaron" unicode="&#x10f;" horiz-adv-x="553" 
d="M544 780l-134 -780h10l134 780h-10zM56 230q-8 -62 7.5 -117t55.5 -88.5t103 -33.5q47 0 86.5 21t70 56t50 77t26.5 85q6 40 0.5 82t-23.5 77.5t-50 57.5t-79 23q-63 1 -115.5 -32t-87 -87.5t-44.5 -120.5zM66 230q10 63 43.5 115.5t84.5 84t111 30.5q43 -1 73 -22
t48 -55.5t24 -74.5t0 -78q-7 -41 -26.5 -81.5t-49.5 -74t-67.5 -53.5t-80.5 -20q-61 0 -99.5 32.5t-53.5 85t-7 111.5zM740 763l-147 -251l6 -2l151 248z" />
    <glyph glyph-name="Dcroat" unicode="&#x110;" horiz-adv-x="660" 
d="M37 345h291l2 10h-292zM180 700l-120 -700h11l120 700h-11zM216 0q102 2 183 48t133.5 124.5t68.5 177.5q14 95 -12 173.5t-89.5 127t-164.5 49.5h-150l-2 -11h151q98 -2 159.5 -48.5t86 -122.5t10.5 -168q-15 -96 -66 -172t-129.5 -120.5t-177.5 -46.5h-150l-2 -11h151z
" />
    <glyph glyph-name="dcroat" unicode="&#x111;" horiz-adv-x="525" 
d="M371 655h291l2 10h-291zM544 780l-134 -780h10l134 780h-10zM56 230q-9 -63 7 -117.5t56 -88t103 -33.5q45 0 84.5 20.5t70.5 54.5t51 76.5t27 87.5q6 42 0 84t-24.5 77t-50.5 56.5t-77 22.5q-63 1 -115.5 -31.5t-87 -87t-44.5 -121.5zM66 230q10 63 43.5 115.5t84.5 84
t111 30.5q44 -1 74 -23t47.5 -56.5t23.5 -74.5t0 -76q-7 -39 -26 -79.5t-48.5 -74t-67.5 -54.5t-82 -21q-60 0 -98.5 32.5t-54 85t-7.5 111.5z" />
    <glyph glyph-name="Emacron" unicode="&#x112;" horiz-adv-x="495" 
d="M62 0h329l1 10h-328zM180 690h328l2 10h-328zM128 384h309l1 10h-308zM180 700l-120 -700h11l120 700h-11zM217 835h340l2 10h-340z" />
    <glyph glyph-name="emacron" unicode="&#x113;" horiz-adv-x="487" 
d="M69 228h391q2 6 3.5 13t2.5 13q7 56 -11.5 105t-58 80t-94.5 31q-49 0 -92 -22t-75 -58.5t-51 -81.5q-8 -18 -13.5 -37t-8.5 -39q-7 -59 9 -114.5t54.5 -91t99.5 -35.5q54 0 92.5 17.5t67.5 44t51 53.5l-7 7q-22 -27 -50.5 -53t-65.5 -42.5t-88 -16.5q-58 1 -93.5 35
t-50 87t-9.5 110v0q9 62 42 113.5t82 82.5t106 30q57 0 94.5 -33.5t52 -84t3.5 -103.5h-382zM137 530h340l1 10h-339z" />
    <glyph glyph-name="Ebreve" unicode="&#x114;" horiz-adv-x="495" 
d="M62 0h329l1 10h-328zM180 690h328l2 10h-328zM128 384h309l1 10h-308zM180 700l-120 -700h11l120 700h-11zM237 908q-3 -36 9.5 -68t42.5 -51.5t78 -19.5q49 0 85 19.5t59 51t33 67.5h-10q-9 -33 -32 -62.5t-57 -47.5t-78 -18q-42 0 -70 18t-40.5 47.5t-9.5 63.5h-10z
" />
    <glyph glyph-name="ebreve" unicode="&#x115;" horiz-adv-x="487" 
d="M69 228h391q2 6 3.5 13t2.5 13q7 56 -11.5 105t-58 80t-94.5 31q-49 0 -92 -22t-75 -58.5t-51 -81.5q-8 -18 -13.5 -37t-8.5 -39q-7 -59 9 -114.5t54.5 -91t99.5 -35.5q54 0 92.5 17.5t67.5 44t51 53.5l-7 7q-22 -27 -50.5 -53t-66 -42.5t-87.5 -16.5q-58 1 -93.5 35
t-50 87t-9.5 110v0q9 62 42 113.5t82 82.5t106 30q57 0 94.5 -33.5t52 -84t3.5 -103.5h-382zM165 669q-2 -36 11 -68t43 -51.5t78 -19.5q49 0 85 19.5t59 51t32 67.5l-10 1q-9 -34 -31.5 -63.5t-56 -47.5t-77.5 -18q-43 0 -71 18t-41 47.5t-11 63.5h-10z" />
    <glyph glyph-name="Edotaccent" unicode="&#x116;" horiz-adv-x="495" 
d="M62 0h329l1 10h-328zM180 690h328l2 10h-328zM128 384h309l1 10h-308zM180 700l-120 -700h11l120 700h-11zM348 779q-1 -4 2 -7.5t7 -3.5t8 3.5t4 7.5q1 5 -1.5 8t-7.5 3q-4 0 -8 -3t-4 -8z" />
    <glyph glyph-name="edotaccent" unicode="&#x117;" horiz-adv-x="487" 
d="M69 228h391q2 6 3.5 13t2.5 13q7 56 -11.5 105t-58 80t-94.5 31q-49 0 -92 -22t-75 -58.5t-51 -81.5q-8 -18 -13.5 -37t-8.5 -39q-7 -59 9 -114.5t54.5 -91t99.5 -35.5q54 0 92.5 17.5t67.5 44t51 53.5l-7 7q-22 -27 -50.5 -53t-66 -42.5t-87.5 -16.5q-58 1 -93.5 35
t-50 87t-9.5 110v0q9 62 42 113.5t82 82.5t106 30q57 0 94.5 -33.5t52 -84t3.5 -103.5h-382zM297 541q0 -4 3 -7.5t7 -3.5t7.5 3.5t4.5 7.5q0 5 -2.5 8t-6.5 3t-8 -3.5t-5 -7.5z" />
    <glyph glyph-name="Eogonek" unicode="&#x118;" horiz-adv-x="495" 
d="M62 0h329l1 10h-328zM180 690h328l2 10h-328zM128 384h309l1 10h-308zM180 700l-120 -700h11l120 700h-11zM394 -173q-17 -13 -41.5 -25t-53.5 -11q-34 0 -58 17.5t-20 51.5q5 34 33.5 59.5t66.5 45.5t70 35l-6 10q-34 -16 -72.5 -36.5t-67 -48t-34.5 -64.5
q-5 -37 20 -58.5t67 -21.5q31 -1 57.5 11t44.5 27z" />
    <glyph glyph-name="eogonek" unicode="&#x119;" horiz-adv-x="487" 
d="M69 228h391q2 6 3.5 13t2.5 13q7 56 -11.5 105t-58 80t-94.5 31q-49 0 -92 -22t-75 -58.5t-51 -81.5q-8 -18 -13.5 -37t-8.5 -39q-7 -59 9 -114.5t54.5 -91t99.5 -35.5q40 0 72 10t57 27t45 37.5t37 40.5l-7 7q-22 -27 -50.5 -53t-66 -42.5t-87.5 -16.5q-58 1 -93.5 35
t-50 87t-9.5 110v0q9 62 42 113.5t82 82.5t106 30q57 0 94.5 -33.5t52 -84t3.5 -103.5h-382zM458 -124q-17 -13 -41.5 -24.5t-53.5 -11.5q-34 1 -58 18.5t-21 51.5q2 29 24.5 57t57 61t70.5 78l-3 3q-38 -46 -73.5 -78.5t-59 -60.5t-26.5 -60q-3 -37 22 -58t66 -22
q31 0 57.5 12t43.5 27z" />
    <glyph glyph-name="Ecaron" unicode="&#x11a;" horiz-adv-x="495" 
d="M62 0h329l1 10h-328zM180 690h328l2 10h-328zM128 384h309l1 10h-308zM180 700l-120 -700h11l120 700h-11zM358 781l-124 135l-9 -8l132 -139l179 138l-7 8z" />
    <glyph glyph-name="ecaron" unicode="&#x11b;" horiz-adv-x="487" 
d="M69 228h391q2 6 3.5 13t2.5 13q7 56 -11.5 105t-58 80t-94.5 31q-49 0 -92 -22t-75 -58.5t-51 -81.5q-8 -18 -13.5 -37t-8.5 -39q-7 -59 9 -114.5t54.5 -91t99.5 -35.5q54 0 92.5 17.5t67.5 44t51 53.5l-7 7q-22 -27 -50.5 -53t-66 -42.5t-87.5 -16.5q-58 1 -93.5 35
t-50 87t-9.5 110v0q9 62 42 113.5t82 82.5t106 30q57 0 94.5 -33.5t52 -84t3.5 -103.5h-382zM297 542l-125 135l-9 -8l133 -139l179 138l-7 8z" />
    <glyph glyph-name="Gcircumflex" unicode="&#x11c;" horiz-adv-x="742" 
d="M437 330h271q-14 -63 -45 -121.5t-77 -104.5t-105 -73t-129 -27q-72 0 -125.5 28.5t-86.5 77.5t-45.5 111t-2.5 129q12 72 45 135t83.5 110.5t114 74.5t136.5 27q83 0 144 -40.5t91 -106.5l11 6q-37 68 -97.5 110t-147.5 42q-75 0 -140.5 -28t-118 -77.5t-86.5 -114
t-46 -138.5q-10 -69 3 -133t48 -114.5t90.5 -80t128.5 -29.5q74 0 136 29t109.5 78t79 111.5t44.5 128.5h-281zM506 903l126 -135l8 7l-133 140l-179 -139l6 -7z" />
    <glyph glyph-name="gcircumflex" unicode="&#x11d;" horiz-adv-x="525" 
d="M27 -30q-6 -53 8.5 -98.5t50 -73t93.5 -27.5q63 0 114 31t85 85t45 123l77 450h-10l-78 -450q-10 -66 -42.5 -118t-81.5 -81.5t-108 -29.5q-55 1 -88.5 26.5t-47 68.5t-7.5 94h-10zM56 230q-8 -62 7.5 -117t55.5 -88.5t103 -33.5q47 0 86.5 21t70 56t50 77t26.5 85
q6 40 0.5 82t-23.5 77.5t-50 57.5t-79 23q-63 1 -115.5 -32t-87 -87.5t-44.5 -120.5zM66 230q10 63 43.5 115.5t84.5 84t111 30.5q42 -1 72.5 -22t48.5 -55t24 -73t1 -75q-7 -42 -26.5 -83.5t-49.5 -75.5t-67.5 -54.5t-81.5 -20.5q-61 0 -99.5 32.5t-53.5 85t-7 111.5z
M338 665l125 -135l8 7l-132 140l-180 -139l6 -7z" />
    <glyph glyph-name="Gbreve" unicode="&#x11e;" horiz-adv-x="742" 
d="M437 330h271q-14 -63 -45 -121.5t-77 -104.5t-105 -73t-129 -27q-72 0 -125.5 28.5t-86.5 77.5t-45.5 111t-2.5 129q12 72 45 135t83.5 110.5t114 74.5t136.5 27q83 0 144 -40.5t91 -106.5l11 6q-37 68 -97.5 110t-147.5 42q-75 0 -140.5 -28t-118 -77.5t-86.5 -114
t-46 -138.5q-10 -69 3 -133t48 -114.5t90.5 -80t128.5 -29.5q74 0 136 29t109.5 78t79 111.5t44.5 128.5h-281zM353 908q-3 -36 10 -68t43 -51.5t77 -19.5q49 0 85.5 19.5t59.5 51t33 67.5h-10q-10 -33 -32.5 -62.5t-56.5 -47.5t-78 -18q-43 0 -71 18t-40.5 47.5t-9.5 63.5
h-10z" />
    <glyph glyph-name="gbreve" unicode="&#x11f;" horiz-adv-x="525" 
d="M27 -30q-6 -53 8.5 -98.5t50 -73t93.5 -27.5q63 0 114 31t85 85t45 123l77 450h-10l-78 -450q-10 -66 -42.5 -118t-81.5 -81.5t-108 -29.5q-55 1 -88.5 26.5t-47 68.5t-7.5 94h-10zM56 230q-8 -62 7.5 -117t55.5 -88.5t103 -33.5q47 0 86.5 21t70 56t50 77t26.5 85
q6 40 0.5 82t-23.5 77.5t-50 57.5t-79 23q-63 1 -115.5 -32t-87 -87.5t-44.5 -120.5zM66 230q10 63 43.5 115.5t84.5 84t111 30.5q42 -1 72.5 -22t48.5 -55t24 -73t1 -75q-7 -42 -26.5 -83.5t-49.5 -75.5t-67.5 -54.5t-81.5 -20.5q-61 0 -99.5 32.5t-53.5 85t-7 111.5z
M185 670q-3 -36 9.5 -68t42.5 -51.5t77 -19.5q49 0 85.5 19.5t59.5 51t33 67.5h-10q-9 -33 -32 -62.5t-57 -47.5t-78 -18q-43 0 -71 18t-40.5 47.5t-9.5 63.5h-9z" />
    <glyph glyph-name="Gdotaccent" unicode="&#x120;" horiz-adv-x="742" 
d="M437 330h271q-14 -63 -45 -121.5t-77 -104.5t-105 -73t-129 -27q-72 0 -125.5 28.5t-86.5 77.5t-45.5 111t-2.5 129q12 72 45 135t83.5 110.5t114 74.5t136.5 27q83 0 144 -40.5t91 -106.5l11 6q-37 68 -97.5 110t-147.5 42q-75 0 -140.5 -28t-118 -77.5t-86.5 -114
t-46 -138.5q-10 -69 3 -133t48 -114.5t90.5 -80t128.5 -29.5q74 0 136 29t109.5 78t79 111.5t44.5 128.5h-281zM474 779q-1 -4 2 -7.5t7 -3.5t8 3.5t4 7.5q1 5 -1.5 8t-7.5 3q-4 0 -8 -3t-4 -8z" />
    <glyph glyph-name="gdotaccent" unicode="&#x121;" horiz-adv-x="525" 
d="M27 -30q-6 -53 8.5 -98.5t50 -73t93.5 -27.5q63 0 114 31t85 85t45 123l77 450h-10l-78 -450q-10 -66 -42.5 -118t-81.5 -81.5t-108 -29.5q-55 1 -88.5 26.5t-47 68.5t-7.5 94h-10zM56 230q-8 -62 7.5 -117t55.5 -88.5t103 -33.5q47 0 86.5 21t70 56t50 77t26.5 85
q6 40 0.5 82t-23.5 77.5t-50 57.5t-79 23q-63 1 -115.5 -32t-87 -87.5t-44.5 -120.5zM66 230q10 63 43.5 115.5t84.5 84t111 30.5q42 -1 72.5 -22t48.5 -55t24 -73t1 -75q-7 -42 -26.5 -83.5t-49.5 -75.5t-67.5 -54.5t-81.5 -20.5q-61 0 -99.5 32.5t-53.5 85t-7 111.5z
M305 541q0 -4 2.5 -7.5t6.5 -3.5q5 0 8.5 3.5t4.5 7.5q0 5 -2.5 8t-6.5 3t-8 -3t-5 -8z" />
    <glyph glyph-name="uni0122" unicode="&#x122;" horiz-adv-x="742" 
d="M437 330h271q-14 -63 -45 -121.5t-77 -104.5t-105 -73t-129 -27q-72 0 -125.5 28.5t-86.5 77.5t-45.5 111t-2.5 129q12 72 45 135t83.5 110.5t114 74.5t136.5 27q83 0 144 -40.5t91 -106.5l11 6q-37 68 -97.5 110t-147.5 42q-75 0 -140.5 -28t-118 -77.5t-86.5 -114
t-46 -138.5q-10 -69 3 -133t48 -114.5t90.5 -80t128.5 -29.5q74 0 136 29t109.5 78t79 111.5t44.5 128.5h-281zM386 -69l-147 -251l6 -2l152 248z" />
    <glyph glyph-name="uni0123" unicode="&#x123;" horiz-adv-x="553" 
d="M27 -30q-6 -53 8.5 -98.5t50 -73t93.5 -27.5q63 0 114 31t85 85t45 123l77 450h-10l-78 -450q-10 -66 -42.5 -118t-81.5 -81.5t-108 -29.5q-55 1 -88.5 26.5t-47 68.5t-7.5 94h-10zM56 230q-8 -62 7.5 -117t55.5 -88.5t103 -33.5q47 0 86.5 21t70 56t50 77t26.5 85
q6 40 0.5 82t-23.5 77.5t-50 57.5t-79 23q-63 1 -115.5 -32t-87 -87.5t-44.5 -120.5zM66 230q10 63 43.5 115.5t84.5 84t111 30.5q42 -1 72.5 -22t48.5 -55t24 -73t1 -75q-7 -42 -26.5 -83.5t-49.5 -75.5t-67.5 -54.5t-81.5 -20.5q-61 0 -99.5 32.5t-53.5 85t-7 111.5z
M319 567l180 231l-6 4l-183 -228z" />
    <glyph glyph-name="Hcircumflex" unicode="&#x124;" horiz-adv-x="628" 
d="M128 377h446l2 10h-447zM623 700l-121 -700h11l121 700h-11zM180 700l-120 -700h11l120 700h-11zM442 903l125 -135l9 7l-133 140l-179 -139l5 -7z" />
    <glyph glyph-name="hcircumflex" unicode="&#x125;" 
d="M199 780h-10l-134 -780h10zM397 320l-56 -320h10l56 320q5 40 -2.5 73.5t-32 55t-70.5 21.5q-51 0 -91 -27t-66.5 -70t-37.5 -92h5q11 44 37 85.5t65.5 68t87.5 25.5q43 0 65 -20t28.5 -51.5t1.5 -68.5zM235 975l125 -135l9 7l-133 140l-179 -139l5 -7z" />
    <glyph glyph-name="Hbar" unicode="&#x126;" horiz-adv-x="628" 
d="M128 377h446l2 10h-447zM623 700l-121 -700h11l121 700h-11zM180 700l-120 -700h11l120 700h-11zM81 605h619l1 10h-618z" />
    <glyph glyph-name="hbar" unicode="&#x127;" horiz-adv-x="509" 
d="M199 780h-10l-134 -780h10zM397 320l-56 -320h10l56 320q5 40 -2.5 73.5t-32 55t-70.5 21.5q-51 0 -91 -27t-66.5 -70t-37.5 -92h5q11 44 37 85.5t65.5 68t87.5 25.5q43 0 65 -20t28.5 -51.5t1.5 -68.5zM96 690h303l1 10h-303z" />
    <glyph glyph-name="Itilde" unicode="&#x128;" horiz-adv-x="175" 
d="M176 700l-121 -700h10l121 700h-10zM90 832l9 -1q6 18 20.5 34t42.5 16q21 0 36.5 -11.5t32.5 -23t40 -11.5q16 0 29 6.5t24.5 18.5t20.5 27l-9 3q-13 -19 -27 -33t-36 -14q-24 0 -40 11.5t-32.5 23t-40.5 11.5q-20 0 -34 -8.5t-22.5 -21.5t-13.5 -27z" />
    <glyph glyph-name="itilde" unicode="&#x129;" horiz-adv-x="184" 
d="M140 460l-80 -460h10l79 460h-9zM56 592l9 -1q6 18 20.5 34t42.5 16q21 0 36.5 -11.5t32.5 -23t40 -11.5q16 0 29 6.5t24 18.5t20 27l-8 3q-13 -19 -27.5 -33t-36.5 -14q-23 0 -39.5 11.5t-32.5 23t-40 11.5q-20 0 -34 -8.5t-22.5 -21.5t-13.5 -27z" />
    <glyph glyph-name="Imacron" unicode="&#x12a;" horiz-adv-x="175" 
d="M176 700l-121 -700h10l121 700h-10zM65 835h340l2 10h-340z" />
    <glyph glyph-name="imacron" unicode="&#x12b;" horiz-adv-x="184" 
d="M140 460l-80 -460h10l79 460h-9zM31 595h340l1 10h-339z" />
    <glyph glyph-name="Ibreve" unicode="&#x12c;" horiz-adv-x="175" 
d="M176 700l-121 -700h10l121 700h-10zM61 910q-3 -36 9.5 -68t42.5 -51.5t77 -19.5q49 0 85.5 19.5t59.5 51t33 67.5h-10q-9 -33 -32 -62.5t-57 -47.5t-78 -18q-43 0 -71 18t-40.5 47.5t-9.5 63.5h-9z" />
    <glyph glyph-name="ibreve" unicode="&#x12d;" horiz-adv-x="184" 
d="M140 460l-80 -460h10l79 460h-9zM26 670q-3 -36 10 -68t43 -51.5t77 -19.5q49 0 85.5 19.5t59.5 51t33 67.5h-10q-10 -33 -32.5 -62.5t-56.5 -47.5t-78 -18q-43 0 -71 18t-40.5 47.5t-9.5 63.5h-10z" />
    <glyph glyph-name="Iogonek" unicode="&#x12e;" horiz-adv-x="175" 
d="M176 700l-121 -700h10l121 700h-10zM69 -173q-17 -13 -41.5 -25t-53.5 -11q-34 0 -58.5 17.5t-20.5 51.5q5 34 34 59.5t67 45.5t70 35l-6 10q-34 -16 -72.5 -36.5t-67 -48t-34.5 -64.5q-3 -25 7 -43t31 -27.5t49 -9.5q31 -1 57.5 11t44.5 27z" />
    <glyph glyph-name="iogonek" unicode="&#x12f;" horiz-adv-x="184" 
d="M174 695q0 -4 2 -7t6 -3q5 0 8 3t4 7q0 5 -2 7.5t-7 2.5q-4 0 -7 -3t-4 -7zM140 460l-80 -460h10l79 460h-9zM74 -173q-17 -13 -41.5 -25t-53.5 -11q-34 0 -58.5 17.5t-20.5 51.5q5 34 34 59.5t67 45.5t70 35l-6 10q-34 -16 -72.5 -36.5t-67 -48t-34.5 -64.5
q-5 -37 20 -58.5t67 -21.5q31 -1 57.5 11t44.5 27z" />
    <glyph glyph-name="Idotaccent" unicode="&#x130;" horiz-adv-x="175" 
d="M176 700l-121 -700h10l121 700h-10zM184 786q-1 -4 2 -7.5t7 -3.5t8 3.5t4 7.5q1 5 -1.5 8t-7.5 3q-4 0 -8 -3t-4 -8z" />
    <glyph glyph-name="dotlessi" unicode="&#x131;" horiz-adv-x="184" 
d="M140 460l-80 -460h10l79 460h-9z" />
    <glyph glyph-name="IJ" unicode="&#x132;" horiz-adv-x="476" 
d="M65 -158l-8 -7q15 -19 43 -36.5t63 -17.5q47 -1 77 19.5t46.5 57t23.5 82.5l130 760h-11l-129 -750q-10 -71 -39.5 -115t-97.5 -43q-31 0 -56 15.5t-42 34.5zM176 700l-121 -700h10l121 700h-10z" />
    <glyph glyph-name="ij" unicode="&#x133;" horiz-adv-x="495" 
d="M417 695q-1 -4 1.5 -7t6.5 -3q5 0 8 3t3 7q1 5 -1 7.5t-7 2.5q-4 0 -7.5 -3t-3.5 -7zM103 -165l-7 -7q11 -16 29 -31t46 -16q40 -1 66.5 19.5t41.5 53t20 64.5l93 542h-10l-93 -542q-5 -27 -18.5 -57.5t-37.5 -51t-61 -18.5q-15 1 -27.5 9.5t-22.5 19t-19 15.5zM174 695
q0 -4 2 -7t6 -3q5 0 8 3t4 7q0 5 -2 7.5t-7 2.5q-4 0 -7 -3t-4 -7zM140 460l-80 -460h10l79 460h-9z" />
    <glyph glyph-name="Jcircumflex" unicode="&#x134;" horiz-adv-x="191" 
d="M-178 -158l-7 -7q14 -19 42 -36.5t64 -17.5q47 -1 76.5 19.5t46 57t23.5 82.5l130 760h-11l-128 -750q-10 -71 -40 -115t-98 -43q-31 0 -55.5 15.5t-42.5 34.5zM227 903l124 -135l9 7l-132 140l-179 -139l4 -7z" />
    <glyph glyph-name="jcircumflex" unicode="&#x135;" horiz-adv-x="175" 
d="M-149 -165l-8 -7q12 -16 29.5 -31t45.5 -16q40 -1 66.5 19.5t41.5 53t21 64.5l93 542h-10l-93 -542q-5 -28 -18.5 -58t-37.5 -50t-62 -19q-25 1 -41 14.5t-27 29.5zM170 665l125 -135l8 7l-132 140l-180 -139l6 -7z" />
    <glyph glyph-name="uni0136" unicode="&#x136;" horiz-adv-x="441" 
d="M176 700l-121 -700h11l120 700h-10zM489 699l-361 -326l255 -373h16l-257 372l363 327h-16zM263 -61l-146 -251l6 -2l151 248z" />
    <glyph glyph-name="uni0137" unicode="&#x137;" horiz-adv-x="361" 
d="M184 780l-134 -780h10l134 780h-10zM370 459l-266 -188l207 -271h14l-207 270l268 189h-16zM224 -61l-147 -251l6 -2l151 248z" />
    <glyph glyph-name="kgreenlandic" unicode="&#x138;" horiz-adv-x="361" 
d="M130 460l-80 -460h10l80 460h-10zM370 459l-266 -188l207 -271h14l-207 270l268 189h-16z" />
    <glyph glyph-name="Lacute" unicode="&#x139;" horiz-adv-x="417" 
d="M180 700l-120 -700h311l2 10h-301l118 690h-10zM545 924l-7 8l-193 -158l3 -5z" />
    <glyph glyph-name="lacute" unicode="&#x13a;" horiz-adv-x="175" 
d="M189 780l-134 -780h10l134 780h-10zM402 996l-7 8l-193 -158l3 -5z" />
    <glyph glyph-name="uni013B" unicode="&#x13b;" horiz-adv-x="417" 
d="M180 700l-120 -700h311l2 10h-301l118 690h-10zM213 -61l-147 -251l6 -2l151 248z" />
    <glyph glyph-name="uni013C" unicode="&#x13c;" horiz-adv-x="175" 
d="M189 780l-134 -780h10l134 780h-10zM77 -61l-147 -251l6 -2l151 248z" />
    <glyph glyph-name="Lcaron" unicode="&#x13d;" horiz-adv-x="417" 
d="M180 700l-120 -700h311l2 10h-301l118 690h-10zM429 707l-146 -251l6 -2l151 248z" />
    <glyph glyph-name="lcaron" unicode="&#x13e;" horiz-adv-x="223" 
d="M189 780l-134 -780h10l134 780h-10zM415 763l-147 -251l6 -2l151 248z" />
    <glyph glyph-name="Ldot" unicode="&#x13f;" horiz-adv-x="417" 
d="M180 700l-120 -700h311l2 10h-301l118 690h-10zM305 414q-1 -4 2 -7.5t7 -3.5q3 0 5.5 1.5t4.5 4.5t2 5q1 3 -0.5 5.5t-3.5 4t-5 1.5q-2 0 -5 -1.5t-5 -4t-2 -5.5z" />
    <glyph glyph-name="ldot" unicode="&#x140;" horiz-adv-x="359" 
d="M189 780l-134 -780h10l134 780h-10zM264 396q0 -3 1 -5.5t3 -4t5 -1.5t5.5 1.5t4.5 4.5t2 5q1 3 -0.5 5.5t-3.5 4t-5 1.5q-2 0 -5 -1.5t-5 -4t-2 -5.5z" />
    <glyph glyph-name="Lslash" unicode="&#x141;" horiz-adv-x="364" 
d="M30 388l292 168l-5 9l-291 -169zM171 700l-121 -700h277l2 10h-266l119 690h-11z" />
    <glyph glyph-name="lslash" unicode="&#x142;" horiz-adv-x="155" 
d="M31 388l201 148l-6 8l-201 -148zM180 780l-135 -780h10l134 780h-9z" />
    <glyph glyph-name="Nacute" unicode="&#x143;" horiz-adv-x="645" 
d="M660 700l-118 -683l-398 698l-123 -715h11l117 678l399 -693l123 715h-11zM591 911l-6 8l-194 -158l4 -5z" />
    <glyph glyph-name="nacute" unicode="&#x144;" 
d="M145 460h-10l-80 -460h10zM397 320l-56 -320h10l56 320q5 40 -2.5 73.5t-32 55t-70.5 21.5q-51 0 -91 -27t-66.5 -70t-37.5 -92h5q11 44 37 85.5t65.5 68t87.5 25.5q43 0 65 -20t28.5 -51.5t1.5 -68.5zM464 696l-6 8l-194 -158l5 -5z" />
    <glyph glyph-name="uni0145" unicode="&#x145;" horiz-adv-x="645" 
d="M298 -46l-147 -251l6 -2l151 248zM660 700l-118 -683l-398 698l-123 -715h11l117 678l399 -693l123 715h-11z" />
    <glyph glyph-name="uni0146" unicode="&#x146;" 
d="M145 460h-10l-80 -460h10zM397 320l-56 -320h10l56 320q5 40 -2.5 73.5t-32 55t-70.5 21.5q-51 0 -91 -27t-66.5 -70t-37.5 -92h5q11 44 37 85.5t65.5 68t87.5 25.5q43 0 65 -20t28.5 -51.5t1.5 -68.5zM213 -41l-145 -251l6 -2l151 248z" />
    <glyph glyph-name="Ncaron" unicode="&#x147;" horiz-adv-x="645" 
d="M435 778l-124 135l-9 -8l132 -139l179 138l-6 8zM660 700l-118 -683l-398 698l-123 -715h11l117 678l399 -693l123 715h-11z" />
    <glyph glyph-name="ncaron" unicode="&#x148;" 
d="M145 460h-10l-80 -460h10zM397 320l-56 -320h10l56 320q5 40 -2.5 73.5t-32 55t-70.5 21.5q-51 0 -91 -27t-66.5 -70t-37.5 -92h5q11 44 37 85.5t65.5 68t87.5 25.5q43 0 65 -20t28.5 -51.5t1.5 -68.5zM296 543l-124 135l-9 -8l132 -139l179 138l-6 8z" />
    <glyph glyph-name="napostrophe" unicode="&#x149;" horiz-adv-x="597" 
d="M232 460h-10l-80 -460h10zM484 320l-56 -320h10l56 320q5 40 -2 73.5t-31.5 55t-70.5 21.5q-51 0 -91.5 -27t-67 -70t-36.5 -92h5q10 44 36.5 85.5t65.5 68t87 25.5q44 0 66 -20t28 -51.5t1 -68.5zM261 699l-131 -228h10l133 228h-12z" />
    <glyph glyph-name="Eng" unicode="&#x14a;" horiz-adv-x="725" 
d="M455 -220q42 0 69 20t42 52t21 66l130 782h-11l-114 -683l-417 698l-120 -715h11l114 678l410 -680l-13 -80q-5 -28 -18 -57.5t-37.5 -50t-64.5 -20.5q-28 0 -44.5 15t-25.5 30l-9 -7q9 -15 27 -31.5t50 -16.5z" />
    <glyph glyph-name="eng" unicode="&#x14b;" horiz-adv-x="475" 
d="M210 -220q52 0 86.5 36t45.5 102l67 402q12 74 -15.5 112t-92.5 38q-59 0 -110.5 -39t-75.5 -103l22 132h-10l-77 -460h10l47 280q9 49 37.5 90t69.5 65.5t85 24.5q61 0 86 -35.5t14 -104.5l-67 -402q-10 -60 -41.5 -94t-78.5 -34q-41 0 -70 45l-9 -7q14 -23 33.5 -35.5
t43.5 -12.5z" />
    <glyph glyph-name="Omacron" unicode="&#x14c;" horiz-adv-x="751" 
d="M92 350q11 71 44 134t82.5 111t113 75t136.5 27q72 0 125 -28.5t85.5 -77.5t44.5 -111.5t2 -129.5q-11 -70 -44 -133t-82.5 -111t-113 -75.5t-136.5 -27.5q-72 0 -125 29t-85.5 78t-44.5 111t-2 129zM81 350q-10 -69 3 -133t47 -115t89 -80.5t128 -29.5q74 0 139.5 28
t117 77.5t85.5 114.5t46 138q10 70 -3 134t-47 114.5t-88.5 80t-128.5 29.5t-139.5 -28t-117 -77.5t-85.5 -114t-46 -138.5zM313 788h340l2 10h-340z" />
    <glyph glyph-name="omacron" unicode="&#x14d;" horiz-adv-x="540" 
d="M56 230q-9 -62 10.5 -117t64.5 -88.5t111 -33.5q67 0 124 32t95 87t48 120q9 63 -11 117.5t-64.5 88.5t-111.5 34t-123.5 -32.5t-94.5 -87t-48 -120.5zM66 230q10 63 46.5 115.5t91.5 83.5t118 31t105.5 -32.5t61.5 -85t10 -112.5q-10 -63 -46.5 -115t-91.5 -83t-119 -31
q-63 0 -105.5 32.5t-61 84.5t-9.5 112zM167 550h340l1 10h-339z" />
    <glyph glyph-name="Obreve" unicode="&#x14e;" horiz-adv-x="751" 
d="M92 350q11 71 44 134t82.5 111t113 75t136.5 27q72 0 125 -28.5t85.5 -77.5t44.5 -111.5t2 -129.5q-11 -70 -44 -133t-82.5 -111t-113 -75.5t-136.5 -27.5q-72 0 -125 29t-85.5 78t-44.5 111t-2 129zM81 350q-10 -69 3 -133t47 -115t89 -80.5t128 -29.5q74 0 139.5 28
t117 77.5t85.5 114.5t46 138q10 70 -3 134t-47 114.5t-88.5 80t-128.5 29.5t-139.5 -28t-117 -77.5t-85.5 -114t-46 -138.5zM350 908q-3 -36 10 -68t43 -51.5t77 -19.5q49 0 85.5 19.5t59.5 51t33 67.5h-10q-10 -33 -32.5 -62.5t-56.5 -47.5t-78 -18q-43 0 -71 18
t-40.5 47.5t-9.5 63.5h-10z" />
    <glyph glyph-name="obreve" unicode="&#x14f;" horiz-adv-x="540" 
d="M56 230q-9 -62 10.5 -117t64.5 -88.5t111 -33.5q67 0 124 32t95 87t48 120q9 63 -11 117.5t-64.5 88.5t-111.5 34t-123.5 -32.5t-94.5 -87t-48 -120.5zM66 230q10 63 46.5 115.5t91.5 83.5t118 31t105.5 -32.5t61.5 -85t10 -112.5q-10 -63 -46.5 -115t-91.5 -83t-119 -31
q-63 0 -105.5 32.5t-61 84.5t-9.5 112zM204 670q-3 -36 9.5 -68t42.5 -51.5t78 -19.5q49 0 85 19.5t59.5 51t33.5 67.5h-10q-10 -33 -33 -62.5t-57 -47.5t-78 -18q-42 0 -70 18t-40.5 47.5t-9.5 63.5h-10z" />
    <glyph glyph-name="Ohungarumlaut" unicode="&#x150;" horiz-adv-x="751" 
d="M432 768l143 206l-9 5l-140 -208zM532 768l143 206l-9 5l-140 -208zM92 350q11 71 44 134t82.5 111t113 75t136.5 27q72 0 125 -28.5t85.5 -77.5t44.5 -111.5t2 -129.5q-11 -70 -44 -133t-82.5 -111t-113 -75.5t-136.5 -27.5q-72 0 -125 29t-85.5 78t-44.5 111t-2 129z
M81 350q-10 -69 3 -133t47 -115t89 -80.5t128 -29.5q74 0 139.5 28t117 77.5t85.5 114.5t46 138q10 70 -3 134t-47 114.5t-88.5 80t-128.5 29.5t-139.5 -28t-117 -77.5t-85.5 -114t-46 -138.5z" />
    <glyph glyph-name="ohungarumlaut" unicode="&#x151;" horiz-adv-x="540" 
d="M288 530l143 206l-9 5l-140 -208zM388 530l143 206l-9 5l-140 -208zM62 230q-8 -63 12.5 -117.5t66 -88t111.5 -33.5q67 0 123 32t93.5 87t46.5 120q9 63 -12 117.5t-66.5 88.5t-111.5 34q-67 0 -123.5 -32.5t-93.5 -87t-46 -120.5zM72 230q9 63 45 115.5t90 83.5t117 31
t106.5 -32.5t63 -84.5t11.5 -113q-9 -63 -45 -115t-90 -83t-118 -31q-62 0 -105.5 32.5t-63.5 84.5t-11 112z" />
    <glyph glyph-name="OE" unicode="&#x152;" horiz-adv-x="923" 
d="M540 385h324l1 10h-323zM592 695l-119 -689h11l119 689h-11zM820 10h-334h-24h-109q-71 2 -126.5 29.5t-91.5 74.5t-50 107.5t-4 128.5q12 72 46.5 133t87 107.5t117.5 72.5t138 27h113h16h336l2 10h-467q-76 -1 -143.5 -27.5t-120.5 -73.5t-88 -110.5t-47 -138.5
q-11 -72 3.5 -134.5t51.5 -110.5t94 -75.5t132 -29.5h467z" />
    <glyph glyph-name="oe" unicode="&#x153;" horiz-adv-x="899" 
d="M860 250l-5 -20l10 -1q2 6 3.5 12t2.5 12q9 56 -11 105.5t-61 80.5t-98 31q-56 0 -104 -26t-82.5 -69t-51.5 -96q-4 -12 -7 -24t-5 -25q-8 -58 7 -113t55.5 -90t106.5 -36q48 0 87 15t72 41t60 58l-7 7q-37 -46 -89.5 -79t-121.5 -32q-63 1 -102 34t-53.5 86t-7.5 112h-1
q13 56 45.5 108t83 85.5t115.5 32.5q58 0 96.5 -31.5t54.5 -79.5t8 -98zM454 228h411l2 10h-412zM56 230q-8 -62 7 -116.5t54 -88.5t101 -34q59 0 109.5 32.5t85.5 87t44 119.5q9 62 -7.5 116.5t-54.5 89t-97 34.5q-61 1 -112.5 -32t-85.5 -87.5t-44 -120.5zM66 230
q10 63 42.5 115.5t82.5 84t110 30.5q55 -1 91 -34.5t51 -86t7 -109.5q-9 -60 -42.5 -112.5t-82 -84.5t-104.5 -32q-60 0 -97.5 32.5t-51.5 85t-6 111.5z" />
    <glyph glyph-name="Racute" unicode="&#x154;" horiz-adv-x="454" 
d="M220 317l160 -317h13l-161 317h-12zM180 700l-120 -700h11l120 700h-11zM180 689h110q60 -1 106 -21.5t68.5 -60.5t12.5 -100t-45.5 -100.5t-88.5 -61t-116 -21.5h-109l-2 -10h110q65 1 120.5 23t93.5 64.5t48 105.5q10 62 -14 104.5t-72.5 65t-110.5 23.5h-109zM484 924
l-7 8l-193 -158l4 -5z" />
    <glyph glyph-name="racute" unicode="&#x155;" horiz-adv-x="281" 
d="M145 460h-10l-80 -460h10zM310 440l7 8q-13 8 -27.5 14.5t-30.5 7.5q-45 2 -76 -26.5t-49.5 -72.5t-26.5 -90h5q8 41 26 83t48 69.5t72 26.5q14 -1 27 -6.5t25 -13.5zM398 686l-7 8l-193 -158l3 -5z" />
    <glyph glyph-name="uni0156" unicode="&#x156;" horiz-adv-x="454" 
d="M220 317l160 -317h13l-161 317h-12zM180 700l-120 -700h11l120 700h-11zM180 689h110q60 -1 106 -21.5t68.5 -60.5t12.5 -100t-45.5 -100.5t-88.5 -61t-116 -21.5h-109l-2 -10h110q65 1 120.5 23t93.5 64.5t48 105.5q10 62 -14 104.5t-72.5 65t-110.5 23.5h-109zM214 -61
l-146 -251l6 -2l151 248z" />
    <glyph glyph-name="uni0157" unicode="&#x157;" horiz-adv-x="281" 
d="M145 460h-10l-80 -460h10zM310 440l7 8q-13 8 -27.5 14.5t-30.5 7.5q-45 2 -76 -26.5t-49.5 -72.5t-26.5 -90h5q8 41 26 83t48 69.5t72 26.5q14 -1 27 -6.5t25 -13.5zM58 -61l-147 -251l6 -2l151 248z" />
    <glyph glyph-name="Rcaron" unicode="&#x158;" horiz-adv-x="454" 
d="M220 317l160 -317h13l-161 317h-12zM180 700l-120 -700h11l120 700h-11zM180 689h110q60 -1 106 -21.5t68.5 -60.5t12.5 -100t-45.5 -100.5t-88.5 -61t-116 -21.5h-109l-2 -10h110q65 1 120.5 23t93.5 64.5t48 105.5q10 62 -14 104.5t-72.5 65t-110.5 23.5h-109zM327 781
l-125 135l-8 -8l132 -139l179 138l-7 8z" />
    <glyph glyph-name="rcaron" unicode="&#x159;" horiz-adv-x="281" 
d="M145 460h-10l-80 -460h10zM310 440l7 8q-13 8 -27.5 14.5t-30.5 7.5q-45 2 -76 -26.5t-49.5 -72.5t-26.5 -90h5q8 41 26 83t48 69.5t72 26.5q14 -1 27 -6.5t25 -13.5zM240 543l-125 135l-9 -8l133 -139l179 138l-7 8z" />
    <glyph glyph-name="Sacute" unicode="&#x15a;" horiz-adv-x="474" 
d="M55 197l-10 -4q7 -47 25.5 -93t54.5 -76t95 -31q62 0 107 24.5t71.5 66t34.5 91.5q7 50 -10 86.5t-50 63t-73 43.5q-29 13 -57.5 30t-50.5 38.5t-32.5 49.5t-4.5 64q7 42 34 75.5t66 52.5t83 19q49 0 79 -22.5t45.5 -56.5t20.5 -70l10 2q-4 38 -21 74t-49 60t-84 24
q-46 0 -88 -20.5t-70.5 -56t-36.5 -81.5q-7 -50 14.5 -86.5t59 -61.5t76.5 -43q37 -16 69 -41t49 -60t10 -83q-7 -49 -33 -87.5t-68 -61t-101 -22.5q-43 0 -72.5 18t-48 46.5t-29 62t-15.5 66.5zM528 924l-7 8l-193 -158l5 -5z" />
    <glyph glyph-name="sacute" unicode="&#x15b;" horiz-adv-x="391" 
d="M47 147l-10 -3q2 -37 13 -72t38 -58t76 -23q38 0 70.5 16t54.5 44.5t27 65.5q5 35 -9 58.5t-40 39t-56 25.5q-31 11 -57 24.5t-38.5 35.5t-6.5 59q8 47 47.5 73t86.5 26q49 -1 72 -28t32 -65l10 3q-9 41 -34.5 70t-78.5 30q-35 0 -66 -13t-52 -37.5t-27 -58.5
q-6 -39 7 -63t39 -38.5t59 -26.5q23 -7 43 -17t34.5 -23t21.5 -31.5t3 -42.5q-5 -34 -25.5 -60.5t-50.5 -41.5t-65 -15q-46 1 -70.5 23t-35 56t-12.5 68zM433 686l-7 8l-193 -158l5 -5z" />
    <glyph glyph-name="Scircumflex" unicode="&#x15c;" horiz-adv-x="474" 
d="M55 197l-10 -4q7 -47 25.5 -93t54.5 -76t95 -31q62 0 107 24.5t71.5 66t34.5 91.5q7 50 -10 86.5t-50 63t-73 43.5q-29 13 -57.5 30t-50.5 38.5t-32.5 49.5t-4.5 64q7 42 34 75.5t66 52.5t83 19q49 0 79 -22.5t45.5 -56.5t20.5 -70l10 2q-4 38 -21 74t-49 60t-84 24
q-46 0 -88 -20.5t-70.5 -56t-36.5 -81.5q-7 -50 14.5 -86.5t59 -61.5t76.5 -43q37 -16 69 -41t49 -60t10 -83q-7 -49 -33 -87.5t-68 -61t-101 -22.5q-43 0 -72.5 18t-48 46.5t-29 62t-15.5 66.5zM373 903l126 -135l8 7l-132 140l-180 -139l6 -7z" />
    <glyph glyph-name="scircumflex" unicode="&#x15d;" horiz-adv-x="391" 
d="M47 147l-10 -3q2 -37 13 -72t38 -58t76 -23q38 0 70.5 16t54.5 44.5t27 65.5q5 35 -9 58.5t-40 39t-56 25.5q-31 11 -57 24.5t-38.5 35.5t-6.5 59q8 47 47.5 73t86.5 26q49 -1 72 -28t32 -65l10 3q-9 41 -34.5 70t-78.5 30q-35 0 -66 -13t-52 -37.5t-27 -58.5
q-6 -39 7 -63t39 -38.5t59 -26.5q23 -7 43 -17t34.5 -23t21.5 -31.5t3 -42.5q-5 -34 -25.5 -60.5t-50.5 -41.5t-65 -15q-46 1 -70.5 23t-35 56t-12.5 68zM278 665l126 -135l8 7l-132 140l-180 -139l6 -7z" />
    <glyph glyph-name="Scedilla" unicode="&#x15e;" horiz-adv-x="474" 
d="M55 197l-10 -4q7 -47 25.5 -93t54.5 -76t95 -31q62 0 107 24.5t71.5 66t34.5 91.5q7 50 -10 86.5t-50 63t-73 43.5q-29 13 -57.5 30t-50.5 38.5t-32.5 49.5t-4.5 64q7 42 34 75.5t66 52.5t83 19q49 0 79 -22.5t45.5 -56.5t20.5 -70l10 2q-4 38 -21 74t-49 60t-84 24
q-46 0 -88 -20.5t-70.5 -56t-36.5 -81.5q-7 -50 14.5 -86.5t59 -61.5t76.5 -43q37 -16 69 -41t49 -60t10 -83q-7 -49 -33 -87.5t-68 -61t-101 -22.5q-43 0 -72.5 18t-48 46.5t-29 62t-15.5 66.5zM215 -1l-69 -87q18 10 40 18.5t44 6.5q16 -1 28 -9t18 -22t4 -33
q-3 -26 -20.5 -44.5t-41.5 -28.5t-48 -10q-22 0 -39 8.5t-35 24.5l-7 -6q18 -18 36.5 -27.5t44.5 -9.5q27 0 53.5 11t45 32.5t21.5 49.5q4 32 -14 52.5t-45 21.5q-22 1 -38.5 -6t-34.5 -17l69 75h-12z" />
    <glyph glyph-name="scedilla" unicode="&#x15f;" horiz-adv-x="391" 
d="M47 147l-10 -3q2 -37 13 -72t38 -58t76 -23q38 0 70.5 16t54.5 44.5t27 65.5q5 35 -9 58.5t-40 39t-56 25.5q-31 11 -57 24.5t-38.5 35.5t-6.5 59q8 47 47.5 73t86.5 26q49 -1 72 -28t32 -65l10 3q-9 41 -34.5 70t-78.5 30q-35 0 -66 -13t-52 -37.5t-27 -58.5
q-6 -39 7 -63t39 -38.5t59 -26.5q30 -10 55 -24t38.5 -35.5t8.5 -54.5q-5 -34 -25.5 -60.5t-50.5 -41.5t-65 -15q-46 1 -70.5 23t-35 56t-12.5 68zM159 -3l-69 -87q19 10 40.5 18.5t43.5 6.5q16 -1 28 -9t18.5 -22t3.5 -33q-3 -26 -20.5 -44.5t-41 -28.5t-47.5 -10
q-23 0 -40 8.5t-34 24.5l-8 -6q19 -18 37 -27.5t44 -9.5q27 0 53.5 11t45 32.5t21.5 49.5q4 32 -14 52.5t-45 21.5q-22 1 -38 -6t-34 -17l68 75h-12z" />
    <glyph glyph-name="Scaron" unicode="&#x160;" horiz-adv-x="474" 
d="M55 197l-10 -4q7 -47 25.5 -93t54.5 -76t95 -31q62 0 107 24.5t71.5 66t34.5 91.5q7 50 -10 86.5t-50 63t-73 43.5q-29 13 -57.5 30t-50.5 38.5t-32.5 49.5t-4.5 64q7 42 34 75.5t66 52.5t83 19q49 0 79 -22.5t45.5 -56.5t20.5 -70l10 2q-4 38 -21 74t-49 60t-84 24
q-46 0 -88 -20.5t-70.5 -56t-36.5 -81.5q-7 -50 14.5 -86.5t59 -61.5t76.5 -43q37 -16 69 -41t49 -60t10 -83q-7 -49 -33 -87.5t-68 -61t-101 -22.5q-43 0 -72.5 18t-48 46.5t-29 62t-15.5 66.5zM353 791l-125 135l-8 -8l132 -139l179 138l-7 8z" />
    <glyph glyph-name="scaron" unicode="&#x161;" horiz-adv-x="391" 
d="M47 147l-10 -3q2 -37 13 -72t38 -58t76 -23q38 0 70.5 16t54.5 44.5t27 65.5q5 35 -9 58.5t-40 39t-56 25.5q-31 11 -57 24.5t-38.5 35.5t-6.5 59q8 47 47.5 73t86.5 26q49 -1 72 -28t32 -65l10 3q-9 41 -34.5 70t-78.5 30q-35 0 -66 -13t-52 -37.5t-27 -58.5
q-6 -39 7 -63t39 -38.5t59 -26.5q23 -7 43 -17t34.5 -23t21.5 -31.5t3 -42.5q-5 -34 -25.5 -60.5t-50.5 -41.5t-65 -15q-46 1 -70.5 23t-35 56t-12.5 68zM256 543l-124 135l-9 -8l132 -139l180 138l-7 8z" />
    <glyph glyph-name="uni0162" unicode="&#x162;" horiz-adv-x="418" 
d="M176 0l-69 -87q19 10 40.5 18.5t43.5 6.5q16 -1 28 -9t18.5 -22t3.5 -33q-3 -26 -20.5 -44.5t-41 -28.5t-47.5 -10q-23 0 -40 8.5t-34 24.5l-8 -6q19 -18 37 -27.5t44 -9.5q27 0 53.5 11t45 32.5t21.5 49.5q4 32 -14 52.5t-45 21.5q-22 1 -38 -6t-34 -17l68 75h-12z
M110 689h184l-118 -689h11l118 689h185l2 11h-380z" />
    <glyph glyph-name="uni0163" unicode="&#x163;" horiz-adv-x="184" 
d="M59 4l-69 -87q19 10 40.5 18.5t43.5 6.5q16 -1 28 -9t18.5 -22t3.5 -33q-3 -26 -20.5 -44.5t-41 -28.5t-47.5 -10q-23 0 -40 8.5t-34 24.5l-8 -6q19 -18 37 -27.5t44 -9.5q27 0 53.5 11t45 32.5t21.5 49.5q4 32 -14 52.5t-45 21.5q-22 1 -38 -6t-34 -17l68 75h-12z
M68 460l-2 -10h156l2 10h-156zM167 620l-107 -620h10l107 620h-10z" />
    <glyph glyph-name="Tcaron" unicode="&#x164;" horiz-adv-x="418" 
d="M110 689h184l-118 -689h11l118 689h185l2 11h-380zM315 781l-125 135l-9 -8l132 -139l180 138l-7 8z" />
    <glyph glyph-name="tcaron" unicode="&#x165;" horiz-adv-x="272" 
d="M66 460l-2 -10h156l2 10h-156zM167 620l-107 -620h10l107 620h-10zM372 774l-147 -251l6 -2l151 248z" />
    <glyph glyph-name="Tbar" unicode="&#x166;" horiz-adv-x="431" 
d="M105 445h306l3 10h-306zM110 689h184l-118 -689h11l118 689h185l2 11h-380z" />
    <glyph glyph-name="tbar" unicode="&#x167;" horiz-adv-x="240" 
d="M38 270h194l2 10h-194zM68 460l-2 -10h156l2 10h-156zM167 620l-107 -620h10l107 620h-10z" />
    <glyph glyph-name="Utilde" unicode="&#x168;" horiz-adv-x="559" 
d="M176 700l-83 -480q-8 -60 4.5 -112.5t50 -84.5t104.5 -32t116 30.5t79.5 83t40.5 115.5l82 480h-11l-83 -480q-10 -61 -39.5 -110.5t-76 -78.5t-108.5 -29q-61 0 -96 30.5t-47 80t-5 107.5l82 480h-10zM263 769l9 -1q6 19 20 35t42 15q21 0 37 -11.5t33 -23t40 -11.5
q16 0 28.5 7t23.5 19t20 26l-9 3q-12 -19 -26 -32.5t-36 -14.5q-23 0 -40 11.5t-33 23t-40 11.5q-20 0 -34 -8.5t-22 -21.5t-13 -27z" />
    <glyph glyph-name="utilde" unicode="&#x169;" 
d="M341 0h10l80 460h-10zM91 150l54 310h-10l-54 -310q-5 -42 1 -78t30 -58.5t71 -22.5q51 0 91.5 26.5t67.5 69.5t37 92h-6q-10 -44 -36 -85t-65 -67t-88 -26q-44 0 -66 21t-27 55.5t0 72.5zM172 532l9 -1q6 18 20.5 34t42.5 16q21 0 36.5 -11.5t32.5 -23t40 -11.5
q16 0 29 6.5t24 18.5t20 27l-8 3q-13 -19 -27.5 -33t-36.5 -14q-23 0 -39.5 11.5t-32.5 23t-40 11.5q-20 0 -34 -8.5t-22.5 -21.5t-13.5 -27z" />
    <glyph glyph-name="Umacron" unicode="&#x16a;" horiz-adv-x="559" 
d="M176 700l-83 -480q-8 -60 4.5 -112.5t50 -84.5t104.5 -32t116 30.5t79.5 83t40.5 115.5l82 480h-11l-83 -480q-10 -61 -39.5 -110.5t-76 -78.5t-108.5 -29q-61 0 -96 30.5t-47 80t-5 107.5l82 480h-10zM214 768h340l1 10h-340z" />
    <glyph glyph-name="umacron" unicode="&#x16b;" 
d="M341 0h10l80 460h-10zM91 150l54 310h-10l-54 -310q-5 -42 1 -78t30 -58.5t71 -22.5q51 0 91.5 26.5t67.5 69.5t37 92h-6q-10 -44 -36 -85t-65 -67t-88 -26q-44 0 -66 21t-27 55.5t0 72.5zM124 530h340l1 10h-339z" />
    <glyph glyph-name="Ubreve" unicode="&#x16c;" horiz-adv-x="559" 
d="M176 700l-83 -480q-8 -60 4.5 -112.5t50 -84.5t104.5 -32t116 30.5t79.5 83t40.5 115.5l82 480h-11l-83 -480q-10 -61 -39.5 -110.5t-76 -78.5t-108.5 -29q-61 0 -96 30.5t-47 80t-5 107.5l82 480h-10zM254 908q-3 -36 10 -68t43 -51.5t77 -19.5q49 0 85.5 19.5t59.5 51
t33 67.5h-10q-10 -33 -32.5 -62.5t-56.5 -47.5t-78 -18q-43 0 -71 18t-40.5 47.5t-9.5 63.5h-10z" />
    <glyph glyph-name="ubreve" unicode="&#x16d;" 
d="M341 0h10l80 460h-10zM91 150l54 310h-10l-54 -310q-5 -42 1 -78t30 -58.5t71 -22.5q51 0 91.5 26.5t67.5 69.5t37 92h-6q-10 -44 -36 -85t-65 -67t-88 -26q-44 0 -66 21t-27 55.5t0 72.5zM165 670q-3 -36 9.5 -68t42 -51.5t77.5 -19.5q49 0 85.5 19.5t59.5 51t33 67.5
h-10q-10 -33 -32.5 -62.5t-56.5 -47.5t-78 -18q-43 0 -71 18t-40.5 47.5t-9.5 63.5h-9z" />
    <glyph glyph-name="Uring" unicode="&#x16e;" horiz-adv-x="559" 
d="M176 700l-83 -480q-8 -60 4.5 -112.5t50 -84.5t104.5 -32t116 30.5t79.5 83t40.5 115.5l82 480h-11l-83 -480q-10 -61 -39.5 -110.5t-76 -78.5t-108.5 -29q-61 0 -96 30.5t-47 80t-5 107.5l82 480h-10zM301 869q-4 -27 6 -49.5t30.5 -36.5t46.5 -14q27 0 52 13t42.5 35.5
t21.5 50.5q4 27 -6 49.5t-29.5 36.5t-46.5 14t-52 -13.5t-42.5 -35.5t-22.5 -50zM311 868q4 25 20 45.5t39 33t47 11.5q36 -1 57 -27.5t16 -62.5q-3 -24 -19 -44.5t-39 -32.5t-47 -12q-36 1 -57.5 27.5t-16.5 61.5z" />
    <glyph glyph-name="uring" unicode="&#x16f;" 
d="M341 0h10l80 460h-10zM91 150l54 310h-10l-54 -310q-5 -42 1 -78t30 -58.5t71 -22.5q51 0 91.5 26.5t67.5 69.5t37 92h-6q-10 -44 -36 -85t-65 -67t-88 -26q-44 0 -66 21t-27 55.5t0 72.5zM211 631q-4 -27 6 -49.5t30.5 -36.5t46.5 -14q27 0 52 13t42.5 35.5t21.5 50.5
q4 27 -6 49.5t-29.5 36.5t-46.5 14t-52 -13.5t-42.5 -35.5t-22.5 -50zM221 630q4 25 20 45.5t39 33t47 11.5q36 -1 57 -27.5t16 -62.5q-3 -24 -19 -44.5t-39 -32.5t-47 -12q-36 1 -57.5 27.5t-16.5 61.5z" />
    <glyph glyph-name="Uhungarumlaut" unicode="&#x170;" horiz-adv-x="559" 
d="M323 768l143 206l-9 5l-140 -208zM423 768l143 206l-9 5l-140 -208zM176 700l-83 -480q-8 -60 4.5 -112.5t50 -84.5t104.5 -32t116 30.5t79.5 83t40.5 115.5l82 480h-11l-83 -480q-10 -61 -39.5 -110.5t-76 -78.5t-108.5 -29q-61 0 -96 30.5t-47 80t-5 107.5l82 480h-10z
" />
    <glyph glyph-name="uhungarumlaut" unicode="&#x171;" 
d="M238 530l143 206l-9 5l-140 -208zM338 530l143 206l-9 5l-140 -208zM91 150l54 310h-10l-54 -310q-5 -42 1 -78t30 -58.5t71 -22.5q64 -1 109.5 37t68.5 93l-20 -121h10l80 460h-10l-51 -288q-7 -42 -33.5 -81.5t-66 -64.5t-86.5 -25q-44 1 -66 22t-27 55t0 72z" />
    <glyph glyph-name="Uogonek" unicode="&#x172;" horiz-adv-x="559" 
d="M268 -181q-16 -13 -40.5 -25t-53.5 -11q-34 0 -59 17.5t-21 51.5q5 33 33 59t65.5 46t69.5 35l-5 10q-34 -16 -72.5 -36.5t-66.5 -48t-33 -64.5q-4 -37 21.5 -58.5t66.5 -21.5q31 -1 57.5 11.5t43.5 27.5zM176 700l-83 -480q-8 -60 4.5 -112.5t50 -84.5t104.5 -32
t116 30.5t79.5 83t40.5 115.5l82 480h-11l-83 -480q-10 -61 -39.5 -110.5t-76 -78.5t-108.5 -29q-61 0 -96 30.5t-47 80t-5 107.5l82 480h-10z" />
    <glyph glyph-name="uogonek" unicode="&#x173;" 
d="M357 -173q-16 -13 -40.5 -25t-53.5 -11q-34 0 -59 17.5t-21 51.5q5 33 33 59t65.5 46t69.5 35l-5 10q-34 -16 -72.5 -36.5t-66.5 -48t-33 -64.5q-4 -37 21.5 -58.5t66.5 -21.5q31 -1 57.5 11.5t43.5 27.5zM91 150l54 310h-10l-54 -310q-5 -42 1 -78t30 -58.5t71 -22.5
q64 -1 109.5 37t68.5 93l-20 -121h10l80 460h-10l-51 -288q-7 -42 -33.5 -81.5t-66 -64.5t-86.5 -25q-44 1 -66 22t-27 55t0 72z" />
    <glyph glyph-name="Wcircumflex" unicode="&#x174;" horiz-adv-x="922" 
d="M661 27l-106 689l-321 -689l-113 673h-11l118 -715l321 692l106 -692l339 715h-11zM589 910l126 -134l7 7l-132 139l-179 -138l6 -7z" />
    <glyph glyph-name="wcircumflex" unicode="&#x175;" horiz-adv-x="602" 
d="M67 460l60 -475l218 456l69 -456l226 475h-10l-210 -441l-69 457l-218 -457l-57 441h-9zM385 670l126 -134l7 7l-132 139l-179 -138l6 -7z" />
    <glyph glyph-name="Ycircumflex" unicode="&#x176;" horiz-adv-x="492" 
d="M558 699l-297 -417l-141 418h-13l148 -433l-47 -267h11l46 267l306 432h-13zM365 903l126 -135l7 7l-132 140l-179 -139l6 -7z" />
    <glyph glyph-name="ycircumflex" unicode="&#x177;" horiz-adv-x="412" 
d="M455 460h-11l-264 -439l11 -1l-119 440h-11l120 -439l-145 -240h11zM286 664l126 -134l7 7l-132 139l-179 -138l6 -7z" />
    <glyph glyph-name="Ydieresis" unicode="&#x178;" horiz-adv-x="492" 
d="M253 780q0 -4 3.5 -8t7.5 -4t8 3.5t4 7.5q1 5 -2 8t-7 3t-8.5 -2.5t-5.5 -7.5zM428 780q0 -4 3 -8t7 -4q5 0 8.5 3.5t4.5 7.5q0 5 -2.5 8t-6.5 3t-8.5 -2.5t-5.5 -7.5zM558 699l-297 -417l-141 418h-13l148 -433l-47 -267h11l46 267l306 432h-13z" />
    <glyph glyph-name="Zacute" unicode="&#x179;" horiz-adv-x="519" 
d="M129 689h445l-582 -689h476l2 11l-454 1l582 688h-467zM545 924l-7 8l-193 -158l3 -5z" />
    <glyph glyph-name="zacute" unicode="&#x17a;" horiz-adv-x="417" 
d="M417 450l-425 -450h379l2 10l-358 1l425 449h-350l-1 -10h328zM446 686l-7 8l-193 -158l4 -5z" />
    <glyph glyph-name="Zdotaccent" unicode="&#x17b;" horiz-adv-x="519" 
d="M129 689h445l-582 -689h476l2 11l-454 1l582 688h-467zM367 779q0 -4 2.5 -7.5t6.5 -3.5q5 0 8.5 3.5t4.5 7.5q0 5 -2.5 8t-7.5 3q-4 0 -7.5 -3t-4.5 -8z" />
    <glyph glyph-name="zdotaccent" unicode="&#x17c;" horiz-adv-x="417" 
d="M417 450l-425 -450h379l2 10l-358 1l425 449h-350l-1 -10h328zM273 571q0 -4 2.5 -7.5t6.5 -3.5q5 0 8.5 3.5t4.5 7.5q0 5 -2.5 8t-6.5 3t-8 -3t-5 -8z" />
    <glyph glyph-name="Zcaron" unicode="&#x17d;" horiz-adv-x="519" 
d="M129 689h445l-582 -689h476l2 11l-454 1l582 688h-467zM377 781l-124 135l-9 -8l132 -139l180 138l-7 8z" />
    <glyph glyph-name="zcaron" unicode="&#x17e;" horiz-adv-x="417" 
d="M279 543l-125 135l-9 -8l132 -139l180 138l-7 8zM418 450l-426 -450h379l2 10l-359 1l426 449h-350l-1 -10h329z" />
    <glyph glyph-name="florin" unicode="&#x192;" horiz-adv-x="600" 
d="M104 -200q29 0 54.5 17t44 48t27.5 72l115 513h81l2 10h-82l43 190q13 59 44.5 93t71.5 34q20 0 35 -10t34 -34l7 7q-18 25 -36 36t-41 11q-29 0 -54.5 -17t-44 -48t-27.5 -72l-42 -190h-92l-2 -10h91l-114 -513q-13 -58 -44.5 -92.5t-72.5 -34.5q-19 0 -34.5 10
t-33.5 34l-7 -7q18 -25 36.5 -36t40.5 -11z" />
    <glyph glyph-name="uni0212" unicode="&#x212;" horiz-adv-x="454" 
d="M220 317l160 -317h13l-161 317h-12zM180 700l-120 -700h11l120 700h-11zM180 689h110q60 -1 106 -21.5t68.5 -60.5t12.5 -100t-45.5 -100.5t-88.5 -61t-116 -21.5h-109l-2 -10h110q65 1 120.5 23t93.5 64.5t48 105.5q10 62 -14 104.5t-72.5 65t-110.5 23.5h-109zM200 769
q11 36 34 68t59.5 51.5t85.5 19.5q48 0 77.5 -20t42 -51.5t8.5 -68.5h-9q3 35 -10 64.5t-41 47.5t-71 18q-44 0 -78 -18.5t-56 -47.5t-32 -63h-10z" />
    <glyph glyph-name="uni0213" unicode="&#x213;" horiz-adv-x="281" 
d="M145 460h-10l-80 -460h10zM310 440l7 8q-13 8 -27.5 14.5t-30.5 7.5q-45 2 -76 -26.5t-49.5 -72.5t-26.5 -90h5q8 41 26 83t48 69.5t72 26.5q14 -1 27 -6.5t25 -13.5zM87 551q11 36 34 68t59.5 51.5t85.5 19.5q48 0 77.5 -20t42 -51.5t8.5 -68.5h-9q3 35 -10 64.5
t-41 47.5t-71 18q-44 0 -78 -18.5t-56 -47.5t-32 -63h-10z" />
    <glyph glyph-name="uni0218" unicode="&#x218;" horiz-adv-x="474" 
d="M55 197l-10 -4q7 -47 25.5 -93t54.5 -76t95 -31q62 0 107 24.5t71.5 66t34.5 91.5q7 50 -10 86.5t-50 63t-73 43.5q-29 13 -57.5 30t-50.5 38.5t-32.5 49.5t-4.5 64q7 42 34 75.5t66 52.5t83 19q49 0 79 -22.5t45.5 -56.5t20.5 -70l10 2q-4 38 -21 74t-49 60t-84 24
q-46 0 -88 -20.5t-70.5 -56t-36.5 -81.5q-7 -50 14.5 -86.5t59 -61.5t76.5 -43q37 -16 69 -41t49 -60t10 -83q-7 -49 -33 -87.5t-68 -61t-101 -22.5q-43 0 -72.5 18t-48 46.5t-29 62t-15.5 66.5zM255 -69l-147 -251l6 -2l152 248z" />
    <glyph glyph-name="uni0219" unicode="&#x219;" horiz-adv-x="391" 
d="M47 147l-10 -3q2 -37 13 -72t38 -58t76 -23q38 0 70.5 16t54.5 44.5t27 65.5q5 35 -9 58.5t-40 39t-56 25.5q-31 11 -57 24.5t-38.5 35.5t-6.5 59q8 47 47.5 73t86.5 26q49 -1 72 -28t32 -65l10 3q-9 41 -34.5 70t-78.5 30q-35 0 -66 -13t-52 -37.5t-27 -58.5
q-6 -39 7 -63t39 -38.5t59 -26.5q23 -7 43 -17t34.5 -23t21.5 -31.5t3 -42.5q-5 -34 -25.5 -60.5t-50.5 -41.5t-65 -15q-46 1 -70.5 23t-35 56t-12.5 68zM200 -71l-147 -251l6 -2l151 248z" />
    <glyph glyph-name="uni021A" unicode="&#x21a;" horiz-adv-x="418" 
d="M110 689h184l-118 -689h11l118 689h185l2 11h-380zM218 -60l-147 -251l6 -2l151 248z" />
    <glyph glyph-name="uni021B" unicode="&#x21b;" horiz-adv-x="184" 
d="M68 460l-2 -10h156l2 10h-156zM167 620l-107 -620h10l107 620h-10zM101 -60l-147 -251l6 -2l151 248z" />
    <glyph glyph-name="uni0237" unicode="&#x237;" horiz-adv-x="175" 
d="M-149 -165l-8 -7q12 -16 29.5 -31t45.5 -16q40 -1 66.5 19.5t41.5 53t21 64.5l93 542h-10l-93 -542q-5 -28 -18.5 -58t-37.5 -50t-62 -19q-25 1 -41 14.5t-27 29.5z" />
    <glyph glyph-name="circumflex" unicode="&#x2c6;" horiz-adv-x="466" 
d="M329 718l126 -135l7 7l-132 140l-179 -139l6 -7z" />
    <glyph glyph-name="caron" unicode="&#x2c7;" horiz-adv-x="466" 
d="M305 583l-125 135l-9 -8l133 -139l179 138l-7 8z" />
    <glyph glyph-name="breve" unicode="&#x2d8;" horiz-adv-x="530" 
d="M226 850q-3 -36 10.5 -68t43.5 -51.5t78 -19.5q49 0 84.5 19.5t58.5 51t32 67.5l-10 1q-9 -34 -31 -63.5t-56 -47.5t-78 -18q-42 0 -70.5 18t-41.5 47.5t-11 63.5h-9z" />
    <glyph glyph-name="dotaccent" unicode="&#x2d9;" horiz-adv-x="235" 
d="M208 751q-1 -4 2 -7.5t7 -3.5q5 0 8.5 3.5t3.5 7.5q1 5 -1.5 8t-7.5 3q-4 0 -8 -3t-4 -8z" />
    <glyph glyph-name="ring" unicode="&#x2da;" horiz-adv-x="270" 
d="M143 786q-4 -27 6 -49.5t30 -36.5t46 -14q27 0 52 13t42.5 35.5t21.5 50.5q4 27 -6 49.5t-29.5 36.5t-46.5 14t-52 -13.5t-42.5 -35.5t-21.5 -50zM152 785q4 25 20 45.5t39 33t47 11.5q36 -1 57.5 -27.5t16.5 -62.5q-4 -24 -20 -44.5t-39 -32.5t-47 -12q-36 1 -57.5 27.5
t-16.5 61.5z" />
    <glyph glyph-name="ogonek" unicode="&#x2db;" horiz-adv-x="243" 
d="M160 -173q-16 -13 -40.5 -25t-53.5 -11q-34 0 -59 17.5t-21 51.5q5 33 33 59t65.5 46t69.5 35l-5 10q-34 -16 -72.5 -36.5t-66.5 -48t-33 -64.5q-4 -37 21.5 -58.5t66.5 -21.5q31 -1 57.5 11.5t43.5 27.5z" />
    <glyph glyph-name="tilde" unicode="&#x2dc;" horiz-adv-x="514" 
d="M220 650l9 -1q7 18 20.5 34t41.5 16q21 0 37 -11.5t33 -23t40 -11.5q16 0 29 6.5t24 18.5t20 27l-9 3q-13 -19 -26.5 -33t-35.5 -14q-24 0 -40.5 11.5l-33 23t-40.5 11.5q-20 0 -34 -8.5t-22 -21.5t-13 -27z" />
    <glyph glyph-name="hungarumlaut" unicode="&#x2dd;" horiz-adv-x="0" 
d="M60 529l143 206l-9 5l-140 -208zM160 529l143 206l-9 5l-140 -208z" />
    <glyph glyph-name="gravecomb" unicode="&#x300;" horiz-adv-x="0" 
d="M228 535l7 5l-143 160l-11 -8z" />
    <glyph glyph-name="acutecomb" unicode="&#x301;" horiz-adv-x="0" 
d="M77 535l200 157l-10 8l-196 -160z" />
    <glyph glyph-name="uni0302" unicode="&#x302;" horiz-adv-x="0" 
d="M71 583l177 136h-4l132 -136l8 7l-137 140l-183 -140z" />
    <glyph glyph-name="tildecomb" unicode="&#x303;" horiz-adv-x="0" 
d="M83 648q3 15 12 26.5t22.5 18t29.5 6.5q18 0 30.5 -7t23.5 -16.5t24.5 -16.5t33.5 -7q16 0 29 5.5t24 17.5t22 30l-8 3q-16 -24 -29.5 -36t-36.5 -12q-19 0 -32 7t-23.5 16.5t-24 16.5t-34.5 7q-22 0 -37 -8.5t-23.5 -21.5t-11.5 -28z" />
    <glyph glyph-name="uni0304" unicode="&#x304;" horiz-adv-x="0" 
d="M77 665h350l1 10h-350z" />
    <glyph glyph-name="uni0306" unicode="&#x306;" horiz-adv-x="0" 
d="M221 585q46 0 84.5 15.5t63.5 42.5t30 62h-10q-5 -31 -29 -55.5t-60 -39t-78 -14.5q-63 0 -99.5 31.5t-29.5 77.5h-10q-5 -35 10.5 -62t48.5 -42.5t79 -15.5z" />
    <glyph glyph-name="uni0307" unicode="&#x307;" horiz-adv-x="0" 
d="M88 654q5 0 8 3.5t3 7.5q0 5 -3 8t-8 3q-4 0 -7.5 -3t-3.5 -8q0 -4 3.5 -7.5t7.5 -3.5z" />
    <glyph glyph-name="uni0308" unicode="&#x308;" horiz-adv-x="0" 
d="M81 618q5 0 8 3.5t3 7.5q0 5 -3 8t-8 3q-4 0 -7.5 -3t-3.5 -8q0 -4 3.5 -7.5t7.5 -3.5zM281 618q5 0 8 3.5t3 7.5q0 5 -3 8t-8 3q-4 0 -7.5 -3t-3.5 -8q0 -4 3.5 -7.5t7.5 -3.5z" />
    <glyph glyph-name="uni030A" unicode="&#x30a;" horiz-adv-x="0" 
d="M156 530q28 0 53.5 13.5t43 36t22.5 50.5q7 42 -18.5 71t-67.5 29q-28 0 -53.5 -13.5t-42.5 -36t-22 -50.5q-7 -42 18 -71t67 -29zM156 540q-38 0 -60 26.5t-15 63.5q6 38 38 64t70 26t60 -26t16 -64q-7 -37 -39 -63.5t-70 -26.5z" />
    <glyph glyph-name="uni030B" unicode="&#x30b;" horiz-adv-x="0" 
d="M60 529l143 206l-9 5l-140 -208zM160 529l143 206l-9 5l-140 -208z" />
    <glyph glyph-name="uni030C" unicode="&#x30c;" horiz-adv-x="0" 
d="M223 583l183 140l-7 8l-178 -137l5 -1l-132 137l-8 -7z" />
    <glyph glyph-name="uni0312" unicode="&#x312;" horiz-adv-x="0" 
d="M63 519l147 253l-5 2l-152 -250z" />
    <glyph glyph-name="uni0326" unicode="&#x326;" horiz-adv-x="0" 
d="M-66 -210l114 187l-7 4l-111 -190z" />
    <glyph glyph-name="uni0327" unicode="&#x327;" horiz-adv-x="0" 
d="M17 -220q31 0 58 12.5t45 33.5t22 48q5 32 -12 53t-50 21q-19 0 -41.5 -7t-34.5 -18l11 3l58 74h-11l-69 -88q18 12 42 19t43 7q29 0 43 -17t9 -47q-6 -37 -38 -60.5t-75 -23.5q-25 0 -42 9t-31 27l-9 -8q16 -19 36.5 -28.5t45.5 -9.5z" />
    <glyph glyph-name="uni0328" unicode="&#x328;" horiz-adv-x="0" 
d="M31 -220q32 0 62 12.5t43 27.5l-6 7q-13 -13 -41 -25t-58 -12q-37 0 -61 18t-18 52q5 29 32.5 54.5t66 47.5t74.5 38l-5 10q-38 -18 -77 -39.5t-67 -48.5t-34 -62q-4 -24 5.5 -42t30.5 -28t53 -10z" />
    <glyph glyph-name="uni0394" unicode="&#x394;" horiz-adv-x="600" 
d="M1 0l384 726l140 -726h-524zM19 9h494l-133 685z" />
    <glyph glyph-name="uni03A9" unicode="&#x3a9;" horiz-adv-x="600" 
d="M31 0l2 8h168q-42 32 -71 82t-41 108t-3 114q12 71 51.5 126.5t97 87.5t122.5 32q66 0 113 -32t68 -87.5t9 -126.5q-9 -56 -40 -114t-76.5 -108t-97.5 -82h168l-2 -8h-196l1 2q42 20 80.5 54t71 77t54 89.5t28.5 89.5q12 68 -8 122t-65 85t-108 31t-118.5 -31t-93.5 -85
t-50 -122q-10 -60 4.5 -121.5t48 -111.5t80.5 -77l-1 -2h-196z" />
    <glyph glyph-name="uni03BC" unicode="&#x3bc;" horiz-adv-x="475" 
d="M145 460h-10l-135 -779h10l69 397q6 -38 30 -62.5t74 -24.5q64 -1 110 37.5t68 93.5l-20 -122h10l80 460h-10l-52 -288q-7 -44 -33 -83.5t-65.5 -63.5t-86.5 -24q-42 0 -64 19t-28.5 51t-3.5 70z" />
    <glyph glyph-name="pi" unicode="&#x3c0;" horiz-adv-x="456" 
d="M138 450l-78 -450h10l78 450h-10zM81 460l-2 -10h388l2 10h-388zM380 450l-56 -329q-3 -30 -5.5 -52.5t-0.5 -37.5t12.5 -24.5t32.5 -14.5l1 9q-25 7 -32.5 21.5t-5 38.5t6.5 60l57 329h-10z" />
    <glyph glyph-name="uni0400" unicode="&#x400;" horiz-adv-x="534" 
d="M62 0h329l1 10h-328zM180 690h328l2 10h-328zM128 384h309l1 10h-308zM180 700l-120 -700h11l120 700h-11zM256 952l143 -156l5 4l-139 160z" />
    <glyph glyph-name="uni0401" unicode="&#x401;" horiz-adv-x="534" 
d="M62 0h329l1 10h-328zM180 690h328l2 10h-328zM128 384h309l1 10h-308zM180 700l-120 -700h11l120 700h-11zM454 854q-1 -4 2 -7.5t7 -3.5t8 3.5t4 7.5q1 5 -1.5 8t-7.5 3q-4 0 -8 -3t-4 -8zM259 854q0 -4 3 -7.5t7 -3.5t8 3.5t4 7.5q1 5 -2 8t-7 3t-8 -3t-5 -8z" />
    <glyph glyph-name="uni0403" unicode="&#x403;" horiz-adv-x="422" 
d="M170 700l-120 -700h10l119 690h324l2 10h-335zM510 951l-7 8l-193 -158l4 -5z" />
    <glyph glyph-name="uni040C" unicode="&#x40c;" horiz-adv-x="548" 
d="M176 700l-121 -700h11l120 700h-10zM489 699l-361 -326l255 -373h16l-257 372l363 327h-16zM568 951l-6 8l-194 -158l5 -5z" />
    <glyph glyph-name="uni040D" unicode="&#x40d;" horiz-adv-x="704" 
d="M707 711l9 24l-654 -745l-8 -24zM190 700h-10l-126 -734l13 21zM716 735l-14 -20l-123 -715h10zM315 927l142 -156l6 4l-139 160z" />
    <glyph glyph-name="uni040E" unicode="&#x40e;" horiz-adv-x="466" 
d="M559 700h-10l-295 -470h4l-156 470h-9l157 -474l-141 -226h10zM208 908q-3 -36 9.5 -68t42.5 -51.5t78 -19.5q49 0 85 19.5t59 51t33 67.5h-10q-9 -33 -32 -62.5t-57 -47.5t-78 -18q-42 0 -70 18t-40.5 47.5t-9.5 63.5h-10z" />
    <glyph glyph-name="uni0410" unicode="&#x410;" horiz-adv-x="640" 
d="M145 272h333l1 10h-333zM383 688l89 -412v-3l57 -273h12l-154 715l-400 -715h12l152 273l2 4z" />
    <glyph glyph-name="uni0411" unicode="&#x411;" horiz-adv-x="493" 
d="M127 410h140q61 0 106.5 -25.5t68 -70.5t12.5 -104t-47 -104.5t-92 -70.5t-118 -25h-138l-2 -10h141q66 0 122.5 26t95 73.5t48.5 110.5q10 62 -14 109.5t-72 74t-112 26.5h-137zM170 700l-120 -700h10l119 690h315l1 10h-325z" />
    <glyph glyph-name="uni0412" unicode="&#x412;" horiz-adv-x="542" 
d="M133 386h110q51 1 95.5 17.5t75 50.5t38.5 86q6 38 -3.5 67.5t-32 50t-56 31.5t-74.5 11h-106l-120 -700h117q66 0 120 22.5t89 67.5t44 110q6 44 -7.5 79t-40 60.5t-60.5 39t-69 13.5h-119l-1 -8h110q50 0 93 -23.5t67 -64.5t16 -96q-9 -62 -42.5 -104t-84.5 -63.5
t-114 -21.5h-106l116 678h97q79 0 123.5 -38.5t32.5 -109.5q-8 -50 -39 -82.5t-75 -48t-93 -16.5h-100z" />
    <glyph glyph-name="uni0413" unicode="&#x413;" horiz-adv-x="422" 
d="M170 700l-120 -700h10l119 690h324l2 10h-335z" />
    <glyph glyph-name="uni0414" unicode="&#x414;" horiz-adv-x="772" 
d="M478 705l145 -696h12l-153 726l-401 -726h12zM691 0l-20 -109h11l21 119h-689l-22 -119h10l20 109h669z" />
    <glyph glyph-name="uni0415" unicode="&#x415;" horiz-adv-x="534" 
d="M62 0h329l1 10h-328zM180 690h328l2 10h-328zM128 384h309l1 10h-308zM180 700l-120 -700h11l120 700h-11z" />
    <glyph glyph-name="uni0416" unicode="&#x416;" horiz-adv-x="621" 
d="M126 700h-13l225 -329l-362 -371h16l357 370zM404 700l-121 -700h10l121 700h-10zM680 699l-326 -328l221 -371h14l-223 370l330 329h-16z" />
    <glyph glyph-name="uni0417" unicode="&#x417;" horiz-adv-x="588" 
d="M309 360q51 2 97.5 12t84.5 30t63.5 50t33.5 72q9 52 -13 94t-67.5 67t-106.5 25q-64 0 -116 -23t-87 -64.5t-49 -95.5h10q20 76 84 125t158 48q57 0 100.5 -23.5t64.5 -63t12 -89.5q-10 -53 -50 -87t-97.5 -51t-120.5 -19zM276 -9q70 0 128.5 23.5t96.5 66.5t48 104
q9 53 -8 87.5t-52.5 54t-82 28t-96.5 9.5l-1 -7q46 -1 90.5 -9t79.5 -27t52.5 -52t8.5 -84q-10 -56 -47 -97.5t-93.5 -64t-123.5 -22.5q-102 0 -157.5 50t-45.5 134h-10q-7 -58 17 -101.5t74 -68t122 -24.5z" />
    <glyph glyph-name="uni0418" unicode="&#x418;" horiz-adv-x="704" 
d="M707 711l9 24l-654 -745l-8 -24zM190 700h-10l-126 -734l13 21zM716 735l-14 -20l-123 -715h10z" />
    <glyph glyph-name="uni0419" unicode="&#x419;" horiz-adv-x="704" 
d="M707 711l9 24l-654 -745l-8 -24zM190 700h-10l-126 -734l13 21zM716 735l-14 -20l-123 -715h10zM310 907q-2 -36 11 -68t43.5 -52t77.5 -20q49 0 85 19.5t59 51.5t32 68h-10q-9 -33 -31.5 -62.5t-56 -48t-77.5 -18.5q-43 1 -71 19t-41 47.5t-11 63.5h-10z" />
    <glyph glyph-name="uni041A" unicode="&#x41a;" horiz-adv-x="548" 
d="M176 700l-121 -700h11l120 700h-10zM489 699l-361 -326l255 -373h15l-256 371l363 328h-16z" />
    <glyph glyph-name="uni041B" unicode="&#x41b;" horiz-adv-x="595" 
d="M610 700h-417l-79 -460q-8 -48 -23.5 -98t-41.5 -86t-65 -45l-2 -10q42 8 70.5 44t46 88t25.5 107l77 450h398l-119 -690h10z" />
    <glyph glyph-name="uni041C" unicode="&#x41c;" horiz-adv-x="786" 
d="M227 675l167 -570l363 569l-48 -674h11l51 716l-373 -584l-171 583l-196 -715h10z" />
    <glyph glyph-name="uni041D" unicode="&#x41d;" horiz-adv-x="694" 
d="M128 377h446l2 10h-447zM623 700l-121 -700h11l121 700h-11zM180 700l-120 -700h11l120 700h-11z" />
    <glyph glyph-name="uni041E" unicode="&#x41e;" horiz-adv-x="767" 
d="M92 350q11 71 44 134t82.5 111t113 75t136.5 27q72 0 125 -28.5t85.5 -77.5t44.5 -111.5t2 -129.5q-11 -70 -44 -133t-82.5 -111t-113 -75.5t-136.5 -27.5q-72 0 -125 29t-85.5 78t-44.5 111t-2 129zM81 350q-10 -69 3 -133t47 -115t89 -80.5t128 -29.5q74 0 139.5 28
t117 77.5t85.5 114.5t46 138q10 70 -3 134t-47 114.5t-88.5 80t-128.5 29.5t-139.5 -28t-117 -77.5t-85.5 -114t-46 -138.5z" />
    <glyph glyph-name="uni041F" unicode="&#x41f;" horiz-adv-x="621" 
d="M625 690l-119 -690h10l120 700h-466l-120 -700h10l119 690h446z" />
    <glyph glyph-name="uni0420" unicode="&#x420;" horiz-adv-x="532" 
d="M180 700l-120 -700h11l120 700h-11zM185 690h115q58 0 98 -24.5t58 -68t9 -100.5q-9 -58 -41.5 -101.5t-81.5 -67.5t-109 -24h-114l-2 -10h117q62 0 113 25t85 71t44 107q9 60 -10.5 105.5t-62 71.5t-102.5 26h-114z" />
    <glyph glyph-name="uni0421" unicode="&#x421;" horiz-adv-x="665" 
d="M93 350q11 71 43 133.5t80.5 110t110.5 75t134 27.5q63 1 114.5 -19t89.5 -63l3 15q-41 40 -90 60t-116 19q-74 0 -138.5 -28.5t-114.5 -77.5t-83 -113.5t-45 -138.5q-10 -69 1.5 -133t44.5 -114.5t87 -80t127 -29.5q71 -1 127 20.5t105 58.5l3 15q-49 -39 -106 -61
t-128 -21q-71 0 -122.5 29t-83 78t-42.5 110.5t-1 127.5z" />
    <glyph glyph-name="uni0422" unicode="&#x422;" horiz-adv-x="451" 
d="M110 689h184l-118 -689h11l118 689h185l2 11h-380z" />
    <glyph glyph-name="uni0423" unicode="&#x423;" horiz-adv-x="466" 
d="M559 700h-10l-296 -469l5 -1l-156 470h-9l158 -475l-142 -225h10z" />
    <glyph glyph-name="uni0424" unicode="&#x424;" horiz-adv-x="708" 
d="M442 700l-120 -700h10l120 700h-10zM693 350q-14 -80 -63.5 -138.5t-123 -90t-159.5 -32.5h-10q-82 2 -144.5 34t-93.5 90t-18 137q14 81 64 138.5t123.5 88.5t158.5 32h10q82 -1 144.5 -32.5t93.5 -89.5t18 -137zM703 350q10 62 -6 111t-53 84.5t-90 54.5t-117 20h-9
q-88 -1 -164.5 -33.5t-127.5 -92.5t-65 -144q-10 -61 6 -110.5t53 -85t90 -54.5t117 -20h9q66 1 126 19.5t108.5 53.5t80.5 84.5t42 112.5z" />
    <glyph glyph-name="uni0425" unicode="&#x425;" horiz-adv-x="539" 
d="M531 699l-249 -321l-132 322h-14l139 -332l-283 -368h14l273 356l146 -356h14l-152 367l258 332h-14z" />
    <glyph glyph-name="uni0426" unicode="&#x426;" horiz-adv-x="665" 
d="M62 10l119 690h-10l-121 -700h540l-20 -109h10l21 119h-83l119 690h-10l-119 -690h-446z" />
    <glyph glyph-name="uni0427" unicode="&#x427;" horiz-adv-x="524" 
d="M302 280h163l1 10h-162zM530 700l-121 -700h10l121 700h-10zM181 700h-10l-32 -182q-10 -62 4.5 -116.5t54 -88t104.5 -33.5l2 10q-61 0 -99 32t-52 84t-4 112z" />
    <glyph glyph-name="uni0428" unicode="&#x428;" horiz-adv-x="882" 
d="M770 10h-349l119 690h-10l-119 -690h-349l119 690h-10l-121 -700h729l120 700h-10z" />
    <glyph glyph-name="uni0429" unicode="&#x429;" horiz-adv-x="927" 
d="M770 10h-349l119 690h-10l-119 -690h-349l119 690h-10l-121 -700h802l-20 -109h10l21 119h-83l119 690h-10z" />
    <glyph glyph-name="uni042A" unicode="&#x42a;" horiz-adv-x="598" 
d="M232 410h140q61 0 106 -25.5t67.5 -70.5t12.5 -104t-47 -104.5t-91.5 -70.5t-117.5 -25h-138l-2 -10h140q66 0 122.5 26t95 73t48.5 110q10 62 -13.5 109.5t-71 74.5t-111.5 27h-138zM276 690l-119 -690h10l120 700h-185l-1 -10h175z" />
    <glyph glyph-name="uni042B" unicode="&#x42b;" horiz-adv-x="665" 
d="M666 700l-121 -700h10l121 700h-10zM166 700l-121 -700h10l121 700h-10zM121 410h139q61 0 106.5 -25.5t68 -70.5t12.5 -104t-47 -104.5t-91.5 -70.5t-117.5 -25h-139l-1 -10h139q66 0 123 26t95.5 73t48.5 110q10 62 -13.5 109.5t-71 74.5t-111.5 27h-139z" />
    <glyph glyph-name="uni042C" unicode="&#x42c;" horiz-adv-x="486" 
d="M166 700l-121 -700h10l121 700h-10zM121 410h139q61 0 106.5 -25.5t68 -70.5t12.5 -104t-47 -104.5t-91.5 -70.5t-117.5 -25h-139l-1 -10h139q66 0 123 26t95.5 73t48.5 110q10 62 -13.5 109.5t-71 74.5t-111.5 27h-139z" />
    <glyph glyph-name="uni042D" unicode="&#x42d;" horiz-adv-x="665" 
d="M189 345h448l1 10h-447zM637 350q-11 -70 -43 -132.5t-80.5 -110.5t-110.5 -75.5t-134 -27.5q-65 0 -114.5 20.5t-89.5 63.5l-2 -16q41 -40 90 -60t115 -20q74 0 138.5 28.5t115 78t83.5 114t44 137.5q10 69 -1.5 133t-44.5 114.5t-86.5 80t-127.5 30.5
q-70 0 -125.5 -21.5t-105.5 -57.5l-3 -15q49 38 107 60t126 22q71 -1 122.5 -29.5t83 -77.5t42.5 -110.5t1 -128.5z" />
    <glyph glyph-name="uni042E" unicode="&#x42e;" horiz-adv-x="994" 
d="M121 375h214l2 10h-214zM171 700l-121 -700h10l121 700h-10zM335 352q11 71 44 134t82.5 111t113 75t136.5 27q72 0 125 -28.5t85.5 -77.5t44.5 -111.5t2 -129.5q-11 -71 -44 -134t-83 -111.5t-113.5 -76t-136.5 -27.5q-72 0 -124.5 29.5t-85 79t-44.5 111.5t-2 129z
M324 352q-10 -69 2.5 -133.5t47 -116t89 -81.5t127.5 -30q75 0 140.5 28.5t117 78.5t85.5 115.5t46 138.5q10 70 -3 134t-47 114.5t-88.5 80t-128.5 29.5t-139.5 -28t-117 -77.5t-85.5 -114t-46 -138.5z" />
    <glyph glyph-name="uni042F" unicode="&#x42f;" horiz-adv-x="454" 
d="M289 316h-12l-271 -316h14zM460 700h-11l-120 -700h10zM456 689l2 11h-111q-64 -1 -120 -23t-93.5 -64.5t-47.5 -105.5q-10 -62 14 -105t72 -65.5t110 -22.5h110l1 10h-110q-60 0 -105.5 21t-68 62t-13.5 100q10 60 46 100t89 60.5t115 21.5h110z" />
    <glyph glyph-name="uni0430" unicode="&#x430;" horiz-adv-x="471" 
d="M45 135q8 44 37 74.5t69.5 46t82.5 15.5q43 0 73.5 -12.5t51.5 -32.5l2 9q-20 18 -49.5 32t-76.5 14q-45 0 -88.5 -17t-73.5 -49t-38 -79q-6 -45 9 -77.5t45 -50t70 -17.5q51 0 90.5 24t65.5 62.5t36 81.5h-5q-10 -41 -36.5 -77t-64.5 -58.5t-85 -22.5q-55 0 -90 35.5
t-25 98.5zM122 396q32 25 70.5 45t85.5 19q41 -1 63 -20.5t29.5 -50.5t2.5 -69l-56 -320h10l55 320q4 30 0.5 56.5t-15.5 47.5t-33.5 33t-54.5 13q-51 1 -91 -20.5t-72 -45.5z" />
    <glyph glyph-name="uni0431" unicode="&#x431;" horiz-adv-x="530" 
d="M319 460q63 0 108 -30.5t66.5 -82.5t11.5 -117q-9 -63 -47 -115t-93 -83t-117 -31q-65 0 -104.5 31t-57.5 78.5t-18 94.5l-15 30q0 -64 19 -119.5t62 -90t113 -34.5q68 0 125.5 32.5t95.5 86.5t47 120q10 66 -12.5 120.5t-69.5 87t-113 32.5zM57 205h11q0 50 22 96t59 82
t81.5 56.5t88.5 20.5l1 10q-47 0 -93.5 -21.5t-84.5 -59t-61.5 -85t-23.5 -99.5zM53 235l10 -30v35q0 61 18.5 123.5t52.5 118.5t82 99t107 65q63 24 103 56t60 78h-10q-20 -41 -58 -71t-98 -53q-59 -22 -108 -65.5t-84.5 -101t-55 -123t-19.5 -131.5z" />
    <glyph glyph-name="uni0432" unicode="&#x432;" horiz-adv-x="399" 
d="M90 231l-1 -6h130q23 0 48.5 -3.5t47 -13.5t33.5 -30t7 -53q-8 -50 -49 -82.5t-106 -32.5h-148l-1 -10l149 1q68 0 112 34.5t53 89.5q7 44 -13.5 66.5t-56 31t-76.5 8.5h-129zM90 229h120q40 1 76.5 11t62 33t32.5 62q7 42 -10.5 70t-50 41.5t-72.5 13.5h-119l-2 -10h120
q37 0 68 -13t47 -38.5t9 -63.5q-6 -39 -34 -60.5t-63 -30t-64 -9.5h-119zM125 460l-80 -460h10l80 460h-10z" />
    <glyph glyph-name="uni0433" unicode="&#x433;" horiz-adv-x="291" 
d="M129 460l-79 -460h10l78 450h198l2 10h-209z" />
    <glyph glyph-name="uni0434" unicode="&#x434;" horiz-adv-x="636" 
d="M370 470l128 -462h10l-135 487l-302 -487h11zM556 0l-17 -89h10l18 99h-553l-18 -99h10l16 89h534z" />
    <glyph glyph-name="uni0435" unicode="&#x435;" horiz-adv-x="494" 
d="M69 228h391q2 6 3.5 13t2.5 13q7 56 -11.5 105t-58 80t-94.5 31q-49 0 -92 -22t-75 -58.5t-51 -81.5q-8 -18 -13.5 -37t-8.5 -39q-7 -59 9 -114.5t54.5 -91t99.5 -35.5q54 0 92.5 17.5t67.5 44t51 53.5l-7 7q-22 -27 -50.5 -53t-66 -42.5t-87.5 -16.5q-58 1 -93.5 35
t-50 87t-9.5 110v0q9 62 42 113.5t82 82.5t106 30q57 0 94.5 -33.5t52 -84t3.5 -103.5h-382z" />
    <glyph glyph-name="uni0436" unicode="&#x436;" horiz-adv-x="441" 
d="M451 459l-209 -188l150 -271h12l-150 269l210 190h-13zM278 460h-10l-80 -460h10zM93 460h-13l144 -190l-242 -270h13l242 270z" />
    <glyph glyph-name="uni0437" unicode="&#x437;" horiz-adv-x="462" 
d="M255 244q45 1 81.5 11t61 31.5t31.5 56.5q7 38 -9.5 66.5t-48.5 44.5t-72 16q-45 0 -83.5 -19t-64.5 -50.5t-36 -68.5h10q10 33 34 62.5t59.5 47.5t79.5 18q38 0 68 -15t45 -41t8 -60q-10 -51 -56.5 -71.5t-105.5 -21.5zM217 -9q44 0 87 16t74 47.5t37 76.5
q7 42 -14.5 67.5t-60 37t-84.5 12.5l-1 -6q38 -1 75 -11t59.5 -33.5t15.5 -66.5q-6 -42 -36 -71t-71 -44t-81 -15q-73 0 -110 41.5t-39 102.5h-10q1 -66 42 -110t117 -44z" />
    <glyph glyph-name="uni0438" unicode="&#x438;" 
d="M432 466l10 29l-388 -500l-10 -29zM140 460h-10l-86 -494l13 19zM442 495l-14 -20l-82 -475h10z" />
    <glyph glyph-name="uni0439" unicode="&#x439;" 
d="M432 466l10 29l-388 -500l-10 -29zM140 460h-10l-86 -494l13 19zM442 495l-14 -20l-82 -475h10zM157 694q-2 -36 11 -68t43 -51.5t78 -19.5q49 0 85 19.5t59 51t32 67.5l-10 1q-9 -34 -31.5 -63.5t-56 -47.5t-77.5 -18q-43 0 -71 18t-41 47.5t-11 63.5h-10z" />
    <glyph glyph-name="uni043A" unicode="&#x43a;" horiz-adv-x="427" 
d="M130 460l-80 -460h10l80 460h-10zM370 459l-266 -188l207 -271h14l-207 270l268 189h-16z" />
    <glyph glyph-name="uni043B" unicode="&#x43b;" horiz-adv-x="474" 
d="M448 460h-316l-51 -300q-9 -60 -32.5 -100t-64.5 -49l-2 -10q30 6 52 26.5t36.5 54t20.5 78.5l50 290h295l-77 -450h10z" />
    <glyph glyph-name="uni043C" unicode="&#x43c;" horiz-adv-x="589" 
d="M545 0h12l-31 495l-9 -41zM266 9l-6 -39l258 484l8 40zM260 -31l7 39l-88 487l-4 -40zM-23 0l14 1l184 454l5 40z" />
    <glyph glyph-name="uni043D" unicode="&#x43d;" horiz-adv-x="480" 
d="M94 240h320l2 10h-321zM450 460l-80 -460h10l80 460h-10zM125 460l-80 -460h10l80 460h-10z" />
    <glyph glyph-name="uni043E" unicode="&#x43e;" horiz-adv-x="530" 
d="M56 230q-9 -62 10.5 -117t64.5 -88.5t111 -33.5q67 0 124 32t95 87t48 120q9 63 -11 117.5t-64.5 88.5t-111.5 34t-123.5 -32.5t-94.5 -87t-48 -120.5zM66 230q10 63 46.5 115.5t91.5 83.5t118 31t105.5 -32.5t61.5 -85t10 -112.5q-10 -63 -46.5 -115t-91.5 -83t-119 -31
q-63 0 -105.5 32.5t-61 84.5t-9.5 112z" />
    <glyph glyph-name="uni043F" unicode="&#x43f;" horiz-adv-x="442" 
d="M421 460h-296l-80 -460h10l78 450h276l-78 -450h10z" />
    <glyph glyph-name="uni0440" unicode="&#x440;" horiz-adv-x="553" 
d="M22 -219l118 679h-10l-118 -679h10zM494 230q9 63 -7 117.5t-56 88.5t-104 34q-47 0 -86.5 -21t-69.5 -56t-49.5 -77.5t-26.5 -85.5q-6 -40 -0.5 -81.5t23.5 -77t50 -58t79 -22.5q63 -1 115.5 31.5t87.5 87.5t44 120zM484 230q-9 -63 -43 -115.5t-85 -83.5t-112 -30
q-42 1 -72 22t-48 55t-24 74t0 78q7 42 26.5 82.5t49 74t67.5 53.5t81 20q61 1 99.5 -32t54 -85.5t6.5 -112.5z" />
    <glyph glyph-name="uni0441" unicode="&#x441;" horiz-adv-x="464" 
d="M61 230q10 63 46.5 115.5t91.5 83.5t118 31q47 0 84 -18.5t56 -41.5l2 12q-21 23 -57.5 40.5t-83.5 17.5q-67 0 -124 -32.5t-95 -87t-48 -120.5q-9 -62 10.5 -117t64.5 -88.5t111 -33.5q50 0 91.5 17.5t68.5 39.5l2 12q-27 -21 -69 -40t-92 -19q-63 0 -105.5 32.5
t-61.5 85t-10 111.5z" />
    <glyph glyph-name="uni0442" unicode="&#x442;" horiz-adv-x="272" 
d="M56 460l-1 -10h262l2 10h-263zM182 455l-79 -455h10l79 455h-10z" />
    <glyph glyph-name="uni0443" unicode="&#x443;" horiz-adv-x="427" 
d="M455 460h-11l-264 -439l11 -1l-118 440h-12l119 -439l-145 -240h12z" />
    <glyph glyph-name="uni0444" unicode="&#x444;" horiz-adv-x="569" 
d="M349 560l-114 -659h10l114 659h-10zM46 230q-10 -66 12.5 -120t73.5 -86.5t124 -32.5q75 0 136.5 31t102.5 85.5t52 122.5q11 67 -12 121t-74 86.5t-124 32.5q-74 0 -136 -31.5t-102.5 -85.5t-52.5 -123zM56 230q11 64 50 116t98.5 83t132.5 31q72 0 120 -32t69.5 -84
t10.5 -114q-11 -63 -49.5 -115.5t-98 -83t-132.5 -30.5q-71 0 -120 32t-70 84t-11 113z" />
    <glyph glyph-name="uni0445" unicode="&#x445;" horiz-adv-x="408" 
d="M387 459l-188 -213l-114 214h-14l121 -223l-210 -237h15l200 229l121 -229h14l-128 237l197 222h-14z" />
    <glyph glyph-name="uni0446" unicode="&#x446;" horiz-adv-x="480" 
d="M343 10l78 450h-10l-78 -450h-276l78 450h-10l-80 -460h365l-16 -89h10l18 99h-79z" />
    <glyph glyph-name="uni0447" unicode="&#x447;" horiz-adv-x="403" 
d="M220 140h104l2 10h-106v-10zM372 460l-79 -460h9l80 460h-10zM111 460h-10l-23 -132q-9 -60 0 -102t43.5 -64t98.5 -22v10q-89 0 -118 44.5t-15 133.5z" />
    <glyph glyph-name="uni0448" unicode="&#x448;" horiz-adv-x="689" 
d="M324 10l78 450h-10l-78 -450h-257l78 450h-10l-80 -460h544l80 460h-10l-78 -450h-257z" />
    <glyph glyph-name="uni0449" unicode="&#x449;" horiz-adv-x="728" 
d="M324 10l78 450h-10l-78 -450h-257l78 450h-10l-80 -460h613l-17 -89h10l18 99h-78l78 450h-10l-78 -450h-257z" />
    <glyph glyph-name="uni044A" unicode="&#x44a;" horiz-adv-x="498" 
d="M192 276h115q62 0 101 -33t29 -98q-9 -68 -59.5 -101.5t-116.5 -33.5h-115l-1 -10h115q46 0 86 16t67 48t34 79q8 47 -9 78.5t-51 48t-79 16.5h-114zM215 450l-78 -450h10l80 460h-171l-1 -10h160z" />
    <glyph glyph-name="uni044B" unicode="&#x44b;" horiz-adv-x="534" 
d="M503 460l-79 -460h10l79 460h-10zM125 460l-80 -460h10l80 460h-10zM95 276h115q41 0 73 -15.5t48 -45t9 -72.5q-7 -45 -33.5 -74.5t-64.5 -44t-79 -14.5h-114l-1 -10h112q46 0 87 16t68.5 48t34.5 79q8 47 -9 78.5t-51 48t-79 16.5h-114z" />
    <glyph glyph-name="uni044C" unicode="&#x44c;" horiz-adv-x="401" 
d="M125 460l-80 -460h10l80 460h-10zM95 276h115q41 0 73 -15.5t48 -45t9 -72.5q-10 -67 -61 -99t-116 -34h-114l-1 -10h115q44 0 84 16t68.5 47.5t35.5 78.5t-10 79t-51 48.5t-79 16.5h-114z" />
    <glyph glyph-name="uni044D" unicode="&#x44d;" horiz-adv-x="474" 
d="M146 235l-2 -10h296l1 10h-295zM438 230q-10 -63 -47 -115t-91.5 -83t-118.5 -31q-46 0 -83 18t-57 42l-2 -13q21 -23 58 -40t84 -17q67 0 123.5 32.5t94.5 87t48 119.5q10 63 -10 117.5t-64.5 88.5t-111.5 34q-49 0 -91 -18.5t-69 -38.5l-2 -13q27 21 69 40.5t93 19.5
q63 0 105.5 -32.5t61.5 -85t10 -112.5z" />
    <glyph glyph-name="uni044E" unicode="&#x44e;" horiz-adv-x="734" 
d="M93 235h165l2 10h-166zM125 460l-80 -460h10l80 460h-10zM250 230q-9 -62 10.5 -117t64.5 -88.5t111 -33.5q67 0 124 32t95 87t48 120q9 63 -10.5 117.5t-64.5 88.5t-111 34q-67 0 -124 -32.5t-95 -87t-48 -120.5zM260 230q10 63 46.5 115.5t91.5 83.5t118 31t106 -32.5
t61.5 -85t9.5 -112.5q-10 -63 -47 -115t-91.5 -83t-118.5 -31q-63 0 -105.5 32.5t-61 84.5t-9.5 112z" />
    <glyph glyph-name="uni044F" unicode="&#x44f;" horiz-adv-x="401" 
d="M37 0l176 192h-13l-176 -192h13zM325 0l80 460h-10l-80 -460h10zM352 194h-110q-41 1 -73.5 15t-49 42t-9.5 71q7 44 32.5 72t63.5 41.5t80 14.5h110l1 10h-110q-45 -1 -85 -15.5t-67 -44.5t-35 -77q-7 -47 10.5 -77.5t52 -45.5t78.5 -16h109z" />
    <glyph glyph-name="uni0450" unicode="&#x450;" horiz-adv-x="494" 
d="M69 228h391q2 6 3.5 13t2.5 13q7 56 -11.5 105t-58 80t-94.5 31q-49 0 -92 -22t-75 -58.5t-51 -81.5q-8 -18 -13.5 -37t-8.5 -39q-7 -59 9 -114.5t54.5 -91t99.5 -35.5q54 0 92.5 17.5t67.5 44t51 53.5l-7 7q-22 -27 -50.5 -53t-66 -42.5t-87.5 -16.5q-58 1 -93.5 35
t-50 87t-9.5 110v0q9 62 42 113.5t82 82.5t106 30q57 0 94.5 -33.5t52 -84t3.5 -103.5h-382zM194 699l145 -157l5 5l-141 159z" />
    <glyph glyph-name="uni0451" unicode="&#x451;" horiz-adv-x="494" 
d="M69 228h391q2 6 3.5 13t2.5 13q7 56 -11.5 105t-58 80t-94.5 31q-49 0 -92 -22t-75 -58.5t-51 -81.5q-8 -18 -13.5 -37t-8.5 -39q-7 -59 9 -114.5t54.5 -91t99.5 -35.5q54 0 92.5 17.5t67.5 44t51 53.5l-7 7q-22 -27 -50.5 -53t-66 -42.5t-87.5 -16.5q-58 1 -93.5 35
t-50 87t-9.5 110v0q9 62 42 113.5t82 82.5t106 30q57 0 94.5 -33.5t52 -84t3.5 -103.5h-382zM392 577q0 -4 2.5 -7.5t6.5 -3.5q5 0 8.5 3.5t4.5 7.5q0 5 -2.5 8t-7.5 3q-4 0 -7.5 -3t-4.5 -8zM198 577q0 -4 2.5 -7.5t6.5 -3.5q5 0 8.5 3.5t4.5 7.5q0 5 -2.5 8t-7.5 3
q-4 0 -7.5 -3t-4.5 -8z" />
    <glyph glyph-name="uni0453" unicode="&#x453;" horiz-adv-x="291" 
d="M129 460l-79 -460h10l78 450h198l2 10h-209zM385 686l-7 8l-193 -158l4 -5z" />
    <glyph glyph-name="uni045C" unicode="&#x45c;" horiz-adv-x="427" 
d="M130 460l-80 -460h10l80 460h-10zM370 459l-266 -188l207 -271h14l-207 270l268 189h-16zM462 711l-7 8l-193 -158l5 -5z" />
    <glyph glyph-name="uni045D" unicode="&#x45d;" 
d="M432 467l10 27l-388 -500l-10 -28zM140 460h-10l-86 -494l13 19zM442 495l-14 -20l-82 -475h10zM171 712l142 -156l6 4l-139 160z" />
    <glyph glyph-name="uni045E" unicode="&#x45e;" horiz-adv-x="427" 
d="M455 460h-11l-264 -439l11 -1l-118 440h-12l120 -439l-145 -240h11zM148 670q-3 -36 9.5 -68t42.5 -51.5t78 -19.5q49 0 85 19.5t59 51t33 67.5h-10q-9 -33 -32 -62.5t-57 -47.5t-78 -18q-42 0 -70 18t-40.5 47.5t-9.5 63.5h-10z" />
    <glyph glyph-name="Wgrave" unicode="&#x1e80;" horiz-adv-x="922" 
d="M562 776l7 5l-143 160l-11 -8zM661 27l-106 689l-321 -689l-113 673h-11l118 -715l321 692l106 -692l339 715h-11z" />
    <glyph glyph-name="wgrave" unicode="&#x1e81;" horiz-adv-x="602" 
d="M358 536l7 5l-143 160l-11 -8zM67 460l60 -475l218 456l69 -456l226 475h-10l-210 -441l-69 457l-218 -457l-57 441h-9z" />
    <glyph glyph-name="Wacute" unicode="&#x1e82;" horiz-adv-x="922" 
d="M569 776l200 157l-10 8l-196 -160zM661 27l-106 689l-321 -689l-113 673h-11l118 -715l321 692l106 -692l339 715h-11z" />
    <glyph glyph-name="wacute" unicode="&#x1e83;" horiz-adv-x="602" 
d="M365 536l200 157l-10 8l-196 -160zM67 460l60 -475l218 456l69 -456l226 475h-10l-210 -441l-69 457l-218 -457l-57 441h-9z" />
    <glyph glyph-name="Wdieresis" unicode="&#x1e84;" horiz-adv-x="922" 
d="M653 787q0 -4 2.5 -7.5t6.5 -3.5q5 0 8.5 3.5t4.5 7.5q0 5 -2.5 8t-7.5 3q-4 0 -7.5 -3t-4.5 -8zM459 787q0 -4 2.5 -7.5t6.5 -3.5q5 0 8.5 3.5t4.5 7.5q0 5 -2.5 8t-7.5 3q-4 0 -7.5 -3t-4.5 -8zM661 27l-106 689l-321 -689l-113 673h-11l118 -715l321 692l106 -692
l339 715h-11z" />
    <glyph glyph-name="wdieresis" unicode="&#x1e85;" horiz-adv-x="602" 
d="M449 547q0 -4 2.5 -7.5t6.5 -3.5q5 0 8.5 3.5t4.5 7.5q0 5 -2.5 8t-7.5 3q-4 0 -7.5 -3t-4.5 -8zM255 547q0 -4 2.5 -7.5t6.5 -3.5q5 0 8.5 3.5t4.5 7.5q0 5 -2.5 8t-7.5 3q-4 0 -7.5 -3t-4.5 -8zM67 460l60 -475l218 456l69 -456l226 475h-10l-210 -441l-69 457
l-218 -457l-57 441h-9z" />
    <glyph glyph-name="uni1E86" unicode="&#x1e86;" horiz-adv-x="922" 
d="M557 787q-1 -4 2 -7.5t7 -3.5q5 0 8.5 3.5t3.5 7.5q1 5 -1.5 8t-7.5 3q-4 0 -8 -3t-4 -8zM661 27l-106 689l-321 -689l-113 673h-11l118 -715l321 692l106 -692l339 715h-11z" />
    <glyph glyph-name="uni1E87" unicode="&#x1e87;" horiz-adv-x="602" 
d="M353 547q-1 -4 2 -7.5t7 -3.5q5 0 8.5 3.5t3.5 7.5q1 5 -1.5 8t-7.5 3q-4 0 -8 -3t-4 -8zM67 460l60 -475l218 456l69 -456l226 475h-10l-210 -441l-69 457l-218 -457l-57 441h-9z" />
    <glyph glyph-name="uni1E88" unicode="&#x1e88;" horiz-adv-x="922" 
d="M419 -86q-1 -4 2 -7.5t7 -3.5q5 0 8.5 3.5t3.5 7.5q1 5 -1.5 8t-7.5 3q-4 0 -8 -3t-4 -8zM661 27l-106 689l-321 -689l-113 673h-11l118 -715l321 692l106 -692l339 715h-11z" />
    <glyph glyph-name="uni1E89" unicode="&#x1e89;" horiz-adv-x="602" 
d="M248 -86q-1 -4 2 -7.5t7 -3.5q5 0 8.5 3.5t3.5 7.5q1 5 -1.5 8t-7.5 3q-4 0 -8 -3t-4 -8zM67 460l60 -475l218 456l69 -456l226 475h-10l-210 -441l-69 457l-218 -457l-57 441h-9z" />
    <glyph glyph-name="uni1E9E" unicode="&#x1e9e;" horiz-adv-x="666" 
d="M382 -10q-38 0 -69 8t-58 22.5t-52 34.5l8 7q44 -34 85 -48t86 -14q63 0 110.5 23t73.5 63.5t26 94.5q0 46 -14.5 73.5t-36 44t-43 27t-36 23t-14.5 32.5q0 21 16 34t39.5 23.5t47 24.5t39.5 37.5t16 62.5q0 33 -18 64t-56.5 51t-102.5 20q-72 0 -133.5 -29t-103 -84.5
t-54.5 -136.5l-76 -448h-12l76 454q10 63 38 111t69.5 79.5t91.5 47.5t104 16q64 0 105.5 -20.5t62.5 -53.5t21 -71q0 -41 -16 -66t-39.5 -40t-47 -25t-39.5 -21.5t-16 -29.5q0 -17 14.5 -27.5t36 -21.5t43 -28t36 -46.5t14.5 -76.5q0 -59 -29 -102t-79.5 -66t-113.5 -23z
" />
    <glyph glyph-name="Ygrave" unicode="&#x1ef2;" horiz-adv-x="492" 
d="M333 768l7 5l-143 160l-11 -8zM558 699l-297 -417l-141 418h-13l148 -433l-47 -267h11l46 267l306 432h-13z" />
    <glyph glyph-name="ygrave" unicode="&#x1ef3;" horiz-adv-x="412" 
d="M249 530l7 5l-143 160l-11 -8zM455 460h-11l-264 -439l11 -1l-119 440h-11l120 -439l-145 -240h11z" />
    <glyph glyph-name="uni2010" unicode="&#x2010;" horiz-adv-x="204" 
d="M23 265h194l2 10h-194z" />
    <glyph glyph-name="figuredash" unicode="&#x2012;" horiz-adv-x="573" 
d="M86 265h437l2 10h-437z" />
    <glyph glyph-name="endash" unicode="&#x2013;" horiz-adv-x="718" 
d="M86 265h583l1 10h-582z" />
    <glyph glyph-name="emdash" unicode="&#x2014;" horiz-adv-x="864" 
d="M86 265h728l2 10h-728z" />
    <glyph glyph-name="quoteleft" unicode="&#x2018;" horiz-adv-x="218" 
d="M123 471l131 228h-10l-134 -228h13z" />
    <glyph glyph-name="quoteright" unicode="&#x2019;" horiz-adv-x="238" 
d="M261 699l-131 -228h10l133 228h-12z" />
    <glyph glyph-name="quotesinglbase" unicode="&#x201a;" horiz-adv-x="238" 
d="M136 79l-131 -228h10l133 228h-12z" />
    <glyph glyph-name="quotedblleft" unicode="&#x201c;" horiz-adv-x="374" 
d="M142 471l131 228h-10l-133 -228h12zM278 471l131 228h-10l-133 -228h12z" />
    <glyph glyph-name="quotedblright" unicode="&#x201d;" horiz-adv-x="374" 
d="M242 699l-132 -228h11l133 228h-12zM378 699l-132 -228h10l134 228h-12z" />
    <glyph glyph-name="quotedblbase" unicode="&#x201e;" horiz-adv-x="374" 
d="M136 79l-132 -228h11l133 228h-12zM272 79l-132 -228h10l134 228h-12z" />
    <glyph glyph-name="dagger" unicode="&#x2020;" horiz-adv-x="485" 
d="M153 540l-1 -10h311l1 10h-311zM329 700l-132 -850h10l132 850h-10z" />
    <glyph glyph-name="daggerdbl" unicode="&#x2021;" horiz-adv-x="485" 
d="M89 120l-2 -10h311l2 10h-311zM153 540l-1 -10h311l1 10h-311zM329 700l-132 -850h10l132 850h-10z" />
    <glyph glyph-name="bullet" unicode="&#x2022;" horiz-adv-x="291" 
d="M153 377q0 -4 1.5 -6.5t4 -4t5.5 -1.5t5.5 1.5t4 4t1.5 5.5q0 4 -1.5 6t-4 3.5t-5.5 1.5t-5.5 -1.5t-4 -3.5t-1.5 -5z" />
    <glyph glyph-name="ellipsis" unicode="&#x2026;" horiz-adv-x="788" 
d="M90 1q0 -3 1 -5.5t3 -4t5 -1.5t5.5 1.5t4.5 4.5t2 5q1 3 -0.5 5.5t-3.5 4t-4 1.5q-3 0 -6 -1.5t-5 -4t-2 -5.5zM357 1q0 -3 1 -5.5t3 -4t5 -1.5t5.5 1.5t4.5 4.5t2 5q1 3 -0.5 5.5t-3.5 4t-5 1.5t-5.5 -1.5t-4.5 -4t-2 -5.5zM623 1q0 -4 3 -7.5t7 -3.5q3 0 5.5 1.5
t4.5 4.5t2 5q0 3 -1 5.5t-3 4t-5 1.5t-6 -1.5t-4.5 -4t-2.5 -5.5z" />
    <glyph glyph-name="perthousand" unicode="&#x2030;" horiz-adv-x="1039" 
d="M715 141q-6 -39 6 -73t41 -55.5t72 -21.5q44 0 79.5 20t59.5 54.5t30 74.5q6 39 -6 73t-40.5 55.5t-72.5 21.5t-80 -20.5t-59 -54.5t-30 -74zM725 140q6 37 28 69t55.5 51.5t74.5 19.5t67 -20.5t37.5 -52t5.5 -67.5q-6 -37 -28.5 -69t-56 -51.5t-74.5 -19.5
q-40 0 -66.5 20.5t-37.5 52.5t-5 67zM102 561q-6 -39 6 -73t41 -55.5t72 -21.5q44 0 80 20t59.5 54.5t29.5 74.5q6 39 -6 73t-40.5 55.5t-72.5 21.5q-43 0 -79 -20.5t-59.5 -54.5t-30.5 -74zM112 560q7 37 29 69t55.5 51.5t74.5 19.5t67 -20.5t37 -52t5 -67.5
q-6 -37 -28 -69t-55.5 -51.5t-74.5 -19.5t-67.5 20.5t-37 52.5t-5.5 67zM356 141q-6 -39 6 -73t41 -55.5t72 -21.5q44 0 79.5 20t59.5 54.5t30 74.5q6 39 -6 73t-40.5 55.5t-72.5 21.5t-80 -20.5t-59 -54.5t-30 -74zM366 140q6 37 28 69t55.5 51.5t74.5 19.5t67 -20.5
t37.5 -52t5.5 -67.5q-6 -37 -28.5 -69t-56 -51.5t-74.5 -19.5t-67.5 20.5t-37 52.5t-4.5 67zM649 699l-564 -699h12l564 699h-12z" />
    <glyph glyph-name="uni2031" unicode="&#x2031;" horiz-adv-x="1398" 
d="M1074 141q-6 -39 6 -73t41 -55.5t72 -21.5q44 0 79.5 20t59.5 54.5t30 74.5q6 39 -6 73t-40.5 55.5t-72.5 21.5q-43 0 -79 -20.5t-59.5 -54.5t-30.5 -74zM1084 140q6 37 28 69t55.5 51.5t74.5 19.5t67.5 -20.5t37.5 -52t5 -67.5q-6 -37 -28 -69t-56 -51.5t-75 -19.5
q-40 0 -66.5 20.5t-37.5 52.5t-5 67zM715 141q-6 -39 6 -73t41 -55.5t72 -21.5q44 0 79.5 20t59.5 54.5t30 74.5q6 39 -6 73t-40.5 55.5t-72.5 21.5t-80 -20.5t-59 -54.5t-30 -74zM725 140q6 37 28 69t55.5 51.5t74.5 19.5t67 -20.5t37.5 -52t5.5 -67.5q-6 -37 -28.5 -69
t-56 -51.5t-74.5 -19.5q-40 0 -66.5 20.5t-37.5 52.5t-5 67zM102 561q-6 -39 6 -73t41 -55.5t72 -21.5q44 0 80 20t59.5 54.5t29.5 74.5q6 39 -6 73t-40.5 55.5t-72.5 21.5q-43 0 -79 -20.5t-59.5 -54.5t-30.5 -74zM112 560q7 37 29 69t55.5 51.5t74.5 19.5t67 -20.5t37 -52
t5 -67.5q-6 -37 -28 -69t-55.5 -51.5t-74.5 -19.5t-67.5 20.5t-37 52.5t-5.5 67zM356 141q-6 -39 6 -73t41 -55.5t72 -21.5q44 0 79.5 20t59.5 54.5t30 74.5q6 39 -6 73t-40.5 55.5t-72.5 21.5t-80 -20.5t-59 -54.5t-30 -74zM366 140q6 37 28 69t55.5 51.5t74.5 19.5
t67 -20.5t37.5 -52t5.5 -67.5q-6 -37 -28.5 -69t-56 -51.5t-74.5 -19.5t-67.5 20.5t-37 52.5t-4.5 67zM649 699l-564 -699h12l564 699h-12z" />
    <glyph glyph-name="guilsinglleft" unicode="&#x2039;" horiz-adv-x="315" 
d="M65 255l239 227l-6 7l-243 -233l163 -236l7 7z" />
    <glyph glyph-name="guilsinglright" unicode="&#x203a;" horiz-adv-x="340" 
d="M308 255l-239 -227l6 -7l243 233l-163 236l-8 -7z" />
    <glyph glyph-name="uni203D" unicode="&#x203d;" horiz-adv-x="541" 
d="M501 520q-9 -50 -42 -88t-81 -60.5t-102 -25.5l7 -8q41 3 79 17t69 38t52 56t28 71q6 39 -2 73.5t-29 60.5t-53.5 41t-76.5 15q-47 0 -85.5 -15.5t-69.5 -42t-58 -58.5l8 -6q39 47 88 79.5t116 32.5q56 0 92.5 -25t52 -65.5t7.5 -89.5zM303 510l-57 -339h6l62 339h-11z
M210 1q-1 -4 2 -7.5t7 -3.5q5 0 8.5 3.5t4.5 7.5q0 5 -2.5 8t-7.5 3q-4 0 -8 -3t-4 -8z" />
    <glyph glyph-name="fraction" unicode="&#x2044;" horiz-adv-x="684" 
d="M707 699l-676 -699h12l676 699h-12z" />
    <glyph glyph-name="uni2070" unicode="&#x2070;" horiz-adv-x="314" 
d="M97 490q5 36 18 73t33 68t47 50t60 19q34 0 53 -20.5t27 -53t8.5 -68.5t-3.5 -68q-5 -36 -17.5 -72.5t-33 -68t-47.5 -50t-60 -18.5t-52 20.5t-27.5 52.5t-9 68t3.5 68zM90 490q-4 -34 -3 -71t10 -69.5t29.5 -53.5t55.5 -21t63.5 19t49 50.5t34 70t18.5 75.5
q4 34 3.5 71.5t-9.5 70t-29.5 53.5t-56.5 21q-35 0 -63 -19t-49 -51t-34.5 -70t-18.5 -76z" />
    <glyph glyph-name="uni2074" unicode="&#x2074;" horiz-adv-x="360" 
d="M69 364h288l1 6h-67h-2h-213zM76 365l265 314l-54 -311v-3l-16 -84h7l73 419h-1l-282 -335h8z" />
    <glyph glyph-name="uni2075" unicode="&#x2075;" horiz-adv-x="331" 
d="M331 416q5 34 -5 63t-32.5 47.5t-56.5 19.5q-37 1 -69 -15t-50 -37l-13 -19q27 27 59.5 46.5t72.5 18.5q33 -1 54 -18.5t30 -45.5t4 -60q-6 -40 -27.5 -71t-53 -48.5t-69.5 -17.5q-43 0 -66 23.5t-35 60.5l-6 -3q12 -39 36.5 -63t70.5 -24q39 0 72.5 18t55.5 50.5
t28 74.5zM201 692h187l1 6h-192l-93 -223l14 19z" />
    <glyph glyph-name="uni2076" unicode="&#x2076;" horiz-adv-x="322" 
d="M88 410q6 33 26.5 61.5t52.5 46t71 16.5q32 -1 54.5 -19t33 -45.5t5.5 -59.5q-5 -35 -25.5 -65.5t-51.5 -48t-68 -17.5t-60.5 18.5t-33 48.5t-4.5 64zM295 697l-164 -192q-16 -18 -30 -43.5t-19 -51.5q-5 -36 5 -67t35 -50t64 -20q40 0 71.5 18.5t52.5 50t26 68.5
q5 33 -6 62.5t-34.5 48.5t-58.5 19q-34 1 -62 -13.5t-51 -34.5v0l179 205h-8z" />
    <glyph glyph-name="uni2077" unicode="&#x2077;" horiz-adv-x="342" 
d="M126 694h263l-283 -413h7l288 419h-275v-6z" />
    <glyph glyph-name="uni2078" unicode="&#x2078;" horiz-adv-x="293" 
d="M122 606q-4 -26 6 -50t30.5 -39t46.5 -15q27 0 52.5 14t44 38t22.5 51q4 25 -5.5 48t-29.5 38t-49 15q-28 0 -53.5 -14t-43 -37t-21.5 -49zM127 606q4 25 20.5 46.5t41 35t51.5 12.5q41 -1 62.5 -29.5t15.5 -65.5q-4 -26 -22 -49t-42.5 -36.5t-48.5 -13.5q-23 1 -42 15
t-29 37t-7 48zM73 392q-5 -30 4.5 -56.5t32 -43t57.5 -17.5q35 0 63 15.5t46.5 42.5t22.5 58q4 30 -7 55t-33.5 41t-53.5 16q-30 0 -58.5 -15t-48.5 -40t-25 -56zM79 391q5 30 24.5 54.5t47 39.5t55.5 14q42 -1 67.5 -33t19.5 -75q-7 -46 -42 -78.5t-84 -31.5
q-49 0 -72 33.5t-16 76.5z" />
    <glyph glyph-name="uni2079" unicode="&#x2079;" horiz-adv-x="322" 
d="M348 570q-5 -32 -26 -60.5t-52.5 -46t-70.5 -16.5q-32 1 -55 18.5t-33 45.5t-6 59q6 36 26 66t51 48t68 18t60.5 -19t33.5 -49t4 -64zM141 283l164 192q16 19 30.5 44t18.5 51q6 37 -4 68t-35 50.5t-65 19.5q-39 1 -71.5 -18t-53 -50t-26.5 -69q-4 -32 7 -62t35 -49
t58 -20t62.5 13.5t50.5 35.5l-1 -1l-177 -204z" />
    <glyph glyph-name="uni2080" unicode="&#x2080;" horiz-adv-x="324" 
d="M50 210q5 36 17.5 73t33 68t47.5 50t60 19t52 -20.5t27 -53t8.5 -68.5t-3.5 -68q-5 -36 -17.5 -72.5t-33 -68t-47.5 -50t-60 -18.5t-52 20.5t-27 52.5t-8.5 68t3.5 68zM43 210q-4 -34 -3.5 -71t9.5 -69.5t29.5 -53.5t56.5 -21q35 0 63 19t48.5 50.5t34 70t18.5 75.5
q4 34 3.5 71.5t-9.5 70t-29.5 53.5t-56.5 21q-35 0 -63 -19t-48.5 -51t-34 -70t-18.5 -76z" />
    <glyph glyph-name="uni2081" unicode="&#x2081;" horiz-adv-x="279" 
d="M133 394l102 22l-71 -414h6l73 422l-109 -23z" />
    <glyph glyph-name="uni2082" unicode="&#x2082;" horiz-adv-x="322" 
d="M2 3l265 -1l1 6l-249 1l209 190q25 23 47.5 51t28.5 64q5 27 -3.5 53t-30 44t-57.5 18q-40 1 -70 -20.5t-49.5 -56t-27.5 -73.5h6q8 37 26.5 70t47.5 54t67 20q35 0 55 -17t27.5 -42t2.5 -50q-6 -36 -28.5 -62t-46.5 -49z" />
    <glyph glyph-name="uni2083" unicode="&#x2083;" horiz-adv-x="309" 
d="M146 218q32 2 63 13.5t53.5 33.5t28.5 55q5 27 -4 51t-30.5 39.5t-54.5 15.5q-52 1 -85 -31.5t-44 -77.5h6q11 42 42.5 73t80.5 30q45 -1 67.5 -31.5t15.5 -68.5q-5 -31 -27.5 -51.5t-52.5 -31.5t-59 -14v-5zM126 -5q35 0 65 14t50 39t25 57q5 28 -4.5 49t-27.5 35
t-41 22t-46 10l-1 -5q28 -3 56.5 -15.5t46 -36t11.5 -59.5q-7 -45 -45.5 -75t-88.5 -29q-56 0 -79 32t-20 78h-6q-2 -32 8 -58.5t34.5 -42t62.5 -15.5z" />
    <glyph glyph-name="uni2084" unicode="&#x2084;" horiz-adv-x="360" 
d="M21 84h288l1 6h-67h-2h-213zM28 85l265 314l-54 -311v-3l-15 -85h7l73 420h-2l-281 -335h7z" />
    <glyph glyph-name="uni2085" unicode="&#x2085;" horiz-adv-x="331" 
d="M283 136q5 34 -4.5 63t-32.5 47.5t-57 19.5q-37 1 -68.5 -15t-50.5 -37l-13 -19q27 27 59.5 46.5t72.5 18.5q33 -1 54 -18.5t30 -45.5t4 -60q-5 -40 -26.5 -71t-53.5 -48.5t-70 -17.5q-43 0 -66 23.5t-35 60.5l-5 -3q12 -39 36 -63t70 -24q39 0 72 18t55.5 50.5
t28.5 74.5zM153 412h188l1 6h-192l-93 -223l13 19z" />
    <glyph glyph-name="uni2086" unicode="&#x2086;" horiz-adv-x="322" 
d="M40 130q6 33 26.5 61t52.5 46t71 17q32 -1 54.5 -19t33 -45.5t5.5 -59.5q-5 -35 -25.5 -65t-51.5 -48t-68 -18t-60.5 18.5t-33 48.5t-4.5 64zM247 417l-164 -192q-16 -18 -30 -43.5t-19 -51.5q-5 -36 5 -67t35 -50t64 -20q40 0 72 18.5t53 50t26 68.5q5 33 -6 62.5
t-34.5 48.5t-58.5 19q-34 1 -62.5 -13.5t-51.5 -34.5v0l179 205h-8z" />
    <glyph glyph-name="uni2087" unicode="&#x2087;" horiz-adv-x="342" 
d="M78 414h263l-283 -414h7l288 420h-274z" />
    <glyph glyph-name="uni2088" unicode="&#x2088;" horiz-adv-x="293" 
d="M74 326q-4 -26 6.5 -50t31 -39t46.5 -15q27 0 52.5 14t44 38t22.5 51q4 25 -5.5 48t-30 38t-49.5 15q-28 0 -53.5 -14t-43 -37t-21.5 -49zM80 326q4 25 20.5 46.5t40.5 35t51 12.5q41 -1 62.5 -29.5t16.5 -65.5q-4 -26 -22.5 -49t-43 -36.5t-48.5 -13.5q-23 1 -42 15
t-29 37t-6 48zM26 112q-5 -30 4 -56.5t31.5 -43t57.5 -17.5q35 0 63.5 15.5t47 42.5t22.5 58q4 30 -7.5 55t-34 41t-52.5 16q-31 0 -59 -15t-48 -40t-25 -56zM32 111q5 30 24 54.5t46.5 39.5t55.5 14q42 -1 68 -33t20 -75q-7 -46 -42.5 -78.5t-84.5 -31.5q-49 0 -71.5 33.5
t-15.5 76.5z" />
    <glyph glyph-name="uni2089" unicode="&#x2089;" horiz-adv-x="322" 
d="M300 290q-5 -32 -26 -60.5t-52.5 -46t-70.5 -16.5q-32 1 -54.5 18.5t-33 45.5t-6.5 59q6 36 26 66t51 48t68 18t60.5 -19t33.5 -49t4 -64zM93 3l164 192q16 19 30.5 44t18.5 51q6 37 -4 68t-35 50.5t-65 19.5q-39 1 -71 -18t-53 -50t-27 -69q-4 -32 7 -62t35 -49t58 -20
t62.5 13.5t50.5 35.5v-1l-178 -204z" />
    <glyph glyph-name="Euro" unicode="&#x20ac;" horiz-adv-x="679" 
d="M122 445h486l2 10h-487zM101 325h461l2 10h-461zM188 350q10 69 36.5 131.5t67.5 112t96 78t122 28.5q40 0 74.5 -11.5t63.5 -33.5l3 15q-32 19 -67 29.5t-73 10.5q-69 0 -125.5 -29.5t-99 -80.5t-70 -115.5t-38.5 -134.5q-9 -64 -2.5 -127.5t30.5 -116t69 -84t114 -31.5
q41 -1 79 10.5t73 29.5l3 15q-34 -20 -73 -33t-81 -12q-65 0 -108 31t-66.5 81.5t-29.5 112t2 124.5z" />
    <glyph glyph-name="ruble" unicode="&#x20bd;" horiz-adv-x="625" 
d="M222 700l-120 -700h10l120 700h-10zM228 690h123q98 0 147.5 -42t49.5 -118q0 -68 -32.5 -115t-90.5 -71t-136 -24h-118v-10h118q80 0 141 25t95 74t34 121q0 82 -53.5 126t-154.5 44h-123v-10zM200 170h194l2 10h-194zM45 310h194l2 10h-194zM15 170h194l2 10h-194z" />
    <glyph glyph-name="trademark" unicode="&#x2122;" horiz-adv-x="645" 
d="M129 694h92l-60 -343h5l60 343h93l1 6h-191v-6zM666 688l-24 -338h5l26 358zM402 708l-100 -357h6l93 337zM673 707l-187 -291l-85 292l-1 -20l84 -286l182 286z" />
    <glyph glyph-name="uni2150" unicode="&#x2150;" horiz-adv-x="817" 
d="M695 699l-676 -699h12l676 699h-12zM107 667l103 22l-72 -414h6l74 422l-110 -23zM551 414h264l-284 -414h8l288 420h-275z" />
    <glyph glyph-name="uni2151" unicode="&#x2151;" horiz-adv-x="761" 
d="M695 699l-676 -699h12l676 699h-12zM107 667l103 22l-72 -414h6l74 422l-110 -23zM725 290q-5 -32 -26 -60.5t-52.5 -46t-70.5 -16.5q-32 1 -54.5 18.5t-33 45.5t-6.5 59q6 36 26 66t51 48t68 18t60.5 -19t33.5 -49t4 -64zM518 3l164 192q16 19 30.5 44t18.5 51
q6 37 -4 68t-35 50.5t-65 19.5q-39 1 -71 -18t-52.5 -50t-26.5 -69q-5 -32 6 -62t35 -49t58 -20t62.5 13.5t50.5 35.5v-1l-178 -204z" />
    <glyph glyph-name="uni2152" unicode="&#x2152;" horiz-adv-x="1048" 
d="M695 699l-676 -699h12l676 699h-12zM107 667l103 22l-72 -414h6l74 422l-110 -23zM461 394l102 22l-71 -414h6l73 422l-109 -23zM737 210q5 36 17.5 73t33 68t47.5 50t60 19t52 -20.5t27 -53t8.5 -68.5t-3.5 -68q-5 -36 -17.5 -72.5t-32.5 -68t-47 -50t-60 -18.5
q-34 0 -53 20.5t-27 52.5t-8.5 68t3.5 68zM730 210q-4 -34 -3.5 -71t9.5 -69.5t29.5 -53.5t56.5 -21q35 0 63 19t49 50.5t34.5 70t18.5 75.5q4 34 3 71.5t-10 70t-29.5 53.5t-55.5 21t-63.5 -19t-49 -51t-34 -70t-18.5 -76z" />
    <glyph glyph-name="onethird" unicode="&#x2153;" horiz-adv-x="733" 
d="M695 699l-676 -699h12l676 699h-12zM107 667l103 22l-72 -414h6l74 422l-110 -23zM571 218q32 2 63 13.5t53.5 33.5t28.5 55q5 27 -4 51t-30.5 39.5t-54.5 15.5q-52 1 -85 -31.5t-44 -77.5h6q11 42 42.5 73t80.5 30q45 -1 67.5 -31.5t15.5 -68.5q-5 -31 -27.5 -51.5
t-52 -31.5t-58.5 -14zM551 -5q35 0 65 14t50 39t25 57q5 28 -4.5 49t-27.5 35t-41 22t-46 10l-1 -5q28 -3 56.5 -15.5t46 -36t11.5 -59.5q-7 -45 -45.5 -75t-88.5 -29q-56 0 -79 32t-20 78h-6q-2 -32 8 -58.5t34.5 -42t62.5 -15.5z" />
    <glyph glyph-name="twothirds" unicode="&#x2154;" horiz-adv-x="856" 
d="M819 699l-677 -699h12l677 699h-12zM53 283l264 -1l1 6l-249 1l209 190q26 23 48.5 51t27.5 64q5 27 -3.5 53t-29.5 44t-57 18q-40 1 -70 -20.5t-49.5 -56t-27.5 -73.5h6q8 37 26.5 70t47.5 54t67 20q35 0 55 -17t27 -42t2 -50q-6 -36 -28 -62t-47 -49zM694 218
q32 2 63 13.5t53.5 33.5t28.5 55q5 27 -4 51t-30.5 39.5t-54.5 15.5q-52 1 -84.5 -31.5t-44.5 -77.5h6q11 42 42.5 73t80.5 30q45 -1 67.5 -31.5t15.5 -68.5q-5 -31 -27.5 -51.5t-52 -31.5t-58.5 -14zM674 -5q35 0 65 14t50 39t25 57q5 28 -4.5 49t-27.5 35t-41 22t-46 10
l-1 -5q28 -3 56.5 -15.5t46 -36t11.5 -59.5q-7 -45 -45.5 -75t-88.5 -29q-55 0 -78.5 32t-19.5 78h-6q-2 -32 8 -58.5t34 -42t62 -15.5z" />
    <glyph glyph-name="uni2155" unicode="&#x2155;" horiz-adv-x="722" 
d="M695 699l-676 -699h12l676 699h-12zM107 667l103 22l-72 -414h6l74 422l-110 -23zM660 136q5 34 -5 63t-32.5 47.5t-57.5 19.5q-36 1 -68 -15t-50 -37l-13 -19q26 27 59 46.5t72 18.5q33 -1 54 -18.5t30.5 -45.5t4.5 -60q-6 -40 -27.5 -71t-53 -48.5t-69.5 -17.5
q-44 0 -67 23.5t-35 60.5l-5 -3q12 -39 36.5 -63t70.5 -24q39 0 72.5 18t55.5 50.5t28 74.5zM530 412h187l1 6h-192l-93 -223l13 19z" />
    <glyph glyph-name="uni2156" unicode="&#x2156;" horiz-adv-x="845" 
d="M819 699l-677 -699h12l677 699h-12zM53 283l264 -1l1 6l-249 1l209 190q26 23 48.5 51t27.5 64q5 27 -3.5 53t-29.5 44t-57 18q-40 1 -70 -20.5t-49.5 -56t-27.5 -73.5h6q8 37 26.5 70t47.5 54t67 20q35 0 55 -17t27 -42t2 -50q-6 -36 -28 -62t-47 -49zM783 136
q5 34 -5 63t-32.5 47.5t-56.5 19.5q-37 1 -69 -15t-50 -37l-13 -19q27 27 59.5 46.5t72.5 18.5q33 -1 54 -18.5t30 -45.5t4 -60q-6 -40 -27.5 -71t-53 -48.5t-69.5 -17.5q-43 0 -66 23.5t-35 60.5l-6 -3q12 -39 36.5 -63t70.5 -24q39 0 72.5 18t55.5 50.5t28 74.5zM653 412
h187l1 6h-192l-93 -223l14 19z" />
    <glyph glyph-name="uni2157" unicode="&#x2157;" horiz-adv-x="806" 
d="M780 699l-677 -699h13l676 699h-12zM198 498q32 2 63.5 13.5t54 33.5t28.5 55q5 27 -4.5 51t-30.5 39.5t-54 15.5q-52 1 -85 -31.5t-45 -77.5h6q11 42 42.5 73t80.5 30q45 -1 68 -31.5t16 -68.5q-6 -31 -28.5 -51.5t-52 -31.5t-58.5 -14zM178 275q35 0 65.5 14t50.5 39
t25 57q4 28 -5 49t-27 35t-41 22t-47 10l-1 -5q28 -3 56.5 -15.5t46.5 -36t12 -59.5q-7 -45 -46 -75t-89 -29q-55 0 -78.5 32t-19.5 78h-6q-2 -32 8 -58.5t34 -42t62 -15.5zM744 136q5 34 -4.5 63t-32.5 47.5t-57 19.5q-37 1 -68.5 -15t-50.5 -37l-13 -19q27 27 59.5 46.5
t72.5 18.5q33 -1 54 -18.5t30 -45.5t4 -60q-5 -40 -26.5 -71t-53.5 -48.5t-70 -17.5q-43 0 -66 23.5t-35 60.5l-5 -3q12 -39 36 -63t70 -24q39 0 72.5 18t55.5 50.5t28 74.5zM614 412h188l1 6h-192l-93 -223l13 19z" />
    <glyph glyph-name="uni2158" unicode="&#x2158;" horiz-adv-x="840" 
d="M814 699l-677 -699h13l676 699h-12zM69 364h288l1 6h-67h-2h-213zM76 365l265 314l-54 -311v-3l-16 -84h7l73 419h-1l-282 -335h8zM778 136q5 34 -4.5 63t-32.5 47.5t-57 19.5q-37 1 -69 -15t-50 -37l-13 -19q27 27 59.5 46.5t72.5 18.5q33 -1 54 -18.5t30 -45.5t4 -60
q-6 -40 -27.5 -71t-53 -48.5t-69.5 -17.5q-43 0 -66 23.5t-35 60.5l-5 -3q12 -39 36 -63t70 -24q39 0 72.5 18t55.5 50.5t28 74.5zM648 412h188v6h-191l-93 -223l13 19z" />
    <glyph glyph-name="uni2159" unicode="&#x2159;" horiz-adv-x="712" 
d="M695 699l-676 -699h12l676 699h-12zM107 667l103 22l-72 -414h6l74 422l-110 -23zM416 130q6 33 26.5 61t52.5 46t71 17q33 -1 55 -19t32.5 -45.5t5.5 -59.5q-5 -35 -25.5 -65t-51 -48t-67.5 -18t-60.5 18.5t-33.5 48.5t-5 64zM623 417l-163 -192q-16 -18 -30.5 -43.5
t-19.5 -51.5q-5 -36 5 -67t35.5 -50t64.5 -20q40 0 71.5 18.5t52.5 50t26 68.5q5 33 -6 62.5t-34.5 48.5t-58.5 19q-34 1 -62 -13.5t-51 -34.5v0l179 205h-9z" />
    <glyph glyph-name="uni215A" unicode="&#x215a;" horiz-adv-x="831" 
d="M814 699l-677 -699h13l676 699h-12zM331 416q5 34 -5 63t-32.5 47.5t-56.5 19.5q-37 1 -69 -15t-50 -37l-13 -19q27 27 59.5 46.5t72.5 18.5q33 -1 54 -18.5t30 -45.5t4 -60q-6 -40 -27.5 -71t-53 -48.5t-69.5 -17.5q-43 0 -66 23.5t-35 60.5l-6 -3q12 -39 36.5 -63
t70.5 -24q39 0 72.5 18t55.5 50.5t28 74.5zM201 692h187l1 6h-192l-93 -223l14 19zM535 130q6 33 26.5 61t52.5 46t71 17q32 -1 54.5 -19t33 -45.5t5.5 -59.5q-5 -35 -25.5 -65t-51.5 -48t-68 -18t-60.5 18.5t-33 48.5t-4.5 64zM742 417l-164 -192q-16 -18 -30 -43.5
t-19 -51.5q-5 -36 5 -67t35 -50t64 -20q40 0 72 18.5t53 50t26 68.5q5 33 -6 62.5t-34.5 48.5t-58.5 19q-34 1 -62.5 -13.5t-51.5 -34.5v0l179 205h-8z" />
    <glyph glyph-name="oneeighth" unicode="&#x215b;" horiz-adv-x="738" 
d="M695 699l-676 -699h12l676 699h-12zM107 667l103 22l-72 -414h6l74 422l-110 -23zM499 326q-4 -26 6.5 -50t31 -39t46.5 -15q27 0 52.5 14t44 38t22.5 51q4 25 -5.5 48t-30 38t-49.5 15q-28 0 -53.5 -14t-43 -37t-21.5 -49zM505 326q4 25 20.5 46.5t40.5 35t51 12.5
q41 -1 62.5 -29.5t16.5 -65.5q-4 -26 -22.5 -49t-43 -36.5t-48.5 -13.5q-23 1 -42 15t-29 37t-6 48zM451 112q-5 -30 4 -56.5t31.5 -43t57.5 -17.5q35 0 63.5 15.5t47 42.5t22.5 58q3 22 -3 42t-18.5 35.5t-31 25t-41.5 9.5q-30 0 -58.5 -15t-48.5 -40t-25 -56zM457 111
q5 30 24 54.5t46.5 39.5t55.5 14q42 -1 68 -33t20 -75q-7 -46 -42.5 -78.5t-84.5 -31.5t-71.5 34t-15.5 76z" />
    <glyph glyph-name="threeeighths" unicode="&#x215c;" horiz-adv-x="822" 
d="M780 699l-677 -699h13l676 699h-12zM198 498q32 2 63.5 13.5t54 33.5t28.5 55q5 27 -4.5 51t-30.5 39.5t-54 15.5q-52 1 -85 -31.5t-45 -77.5h6q11 42 42.5 73t80.5 30q45 -1 68 -31.5t16 -68.5q-6 -31 -28.5 -51.5t-52 -31.5t-58.5 -14zM178 275q35 0 65.5 14t50.5 39
t25 57q4 28 -5 49t-27 35t-41 22t-47 10l-1 -5q28 -3 56.5 -15.5t46.5 -36t12 -59.5q-7 -45 -46 -75t-89 -29q-55 0 -78.5 32t-19.5 78h-6q-2 -32 8 -58.5t34 -42t62 -15.5zM583 326q-3 -26 7 -50t30.5 -39t46.5 -15q27 0 52.5 14t44 38t22.5 51q4 25 -5.5 48t-29.5 38
t-49 15t-54.5 -14t-42.5 -37t-22 -49zM589 326q4 25 20.5 46.5t41 35t51.5 12.5q41 -1 62.5 -29.5t15.5 -65.5q-4 -26 -22.5 -49t-43 -36.5t-47.5 -13.5q-23 1 -42 15t-29 37t-7 48zM535 112q-5 -30 4 -56.5t31.5 -43t57.5 -17.5q35 0 63.5 15.5t47 42.5t22.5 58q4 30 -7 55
t-33.5 41t-53.5 16q-30 0 -58.5 -15t-48.5 -40t-25 -56zM541 111q5 30 24 54.5t46.5 39.5t55.5 14q42 -1 68 -33t20 -75q-7 -46 -42 -78.5t-85 -31.5q-49 0 -71.5 33.5t-15.5 76.5z" />
    <glyph glyph-name="fiveeighths" unicode="&#x215d;" horiz-adv-x="856" 
d="M814 699l-677 -699h13l676 699h-12zM331 416q5 34 -5 63t-32.5 47.5t-56.5 19.5q-37 1 -69 -15t-50 -37l-13 -19q27 27 59.5 46.5t72.5 18.5q33 -1 54 -18.5t30 -45.5t4 -60q-6 -40 -27.5 -71t-53 -48.5t-69.5 -17.5q-43 0 -66 23.5t-35 60.5l-6 -3q12 -39 36.5 -63
t70.5 -24q39 0 72.5 18t55.5 50.5t28 74.5zM201 692h187l1 6h-192l-93 -223l14 19zM617 326q-3 -26 7 -50t30.5 -39t46.5 -15q27 0 52.5 14t44 38t22.5 51q4 25 -5.5 48t-29.5 38t-49 15t-54.5 -14t-42.5 -37t-22 -49zM623 326q4 25 20.5 46.5t41 35t51.5 12.5
q41 -1 62.5 -29.5t15.5 -65.5q-4 -26 -22.5 -49t-43 -36.5t-47.5 -13.5q-23 1 -42 15t-29 37t-7 48zM569 112q-5 -30 4 -56.5t31.5 -43t57.5 -17.5q35 0 63.5 15.5t47 42.5t22.5 58q3 22 -3 42t-18.5 35.5t-31 25t-41.5 9.5q-30 0 -58.5 -15t-48.5 -40t-25 -56zM575 111
q5 30 24 54.5t46.5 39.5t55.5 14q42 -1 68 -33t20 -75q-7 -46 -42 -78.5t-85 -31.5q-49 0 -71.5 33.5t-15.5 76.5z" />
    <glyph glyph-name="seveneighths" unicode="&#x215e;" horiz-adv-x="749" 
d="M707 699l-676 -699h12l676 699h-12zM126 694h263l-283 -413h7l288 419h-275v-6zM510 326q-3 -26 7 -50t30.5 -39t46.5 -15q27 0 52.5 14t44 38t22.5 51q4 25 -5.5 48t-29.5 38t-49 15t-54.5 -14t-42.5 -37t-22 -49zM516 326q4 25 20.5 46.5t41 35t51.5 12.5
q41 -1 62.5 -29.5t15.5 -65.5q-4 -26 -22 -49t-42.5 -36.5t-48.5 -13.5q-23 1 -42 15t-29 37t-7 48zM462 112q-5 -30 4.5 -56.5t32 -43t57.5 -17.5q35 0 63 15.5t46.5 42.5t22.5 58q4 30 -7 55t-33.5 41t-53.5 16q-30 0 -58.5 -15t-48.5 -40t-25 -56zM468 111
q5 30 24.5 54.5t47 39.5t55.5 14q42 -1 67.5 -33t19.5 -75q-7 -46 -42 -78.5t-84 -31.5t-72 34t-16 76z" />
    <glyph glyph-name="partialdiff" unicode="&#x2202;" horiz-adv-x="536" 
d="M237 -10q49 0 96 21.5t85 58.5t60 85t21 101q0 22 -4 43.5t-15.5 50t-34.5 72.5t-60 111.5t-92 166.5l-8 -6q39 -69 65 -115.5t44.5 -81t34.5 -67.5t36 -76l1 1q-25 41 -67.5 61.5t-98.5 20.5q-46 0 -90.5 -21t-80 -57.5t-56.5 -82.5t-21 -96q0 -59 22 -101.5t63.5 -65.5
t99.5 -23zM238 0q-80 0 -128 49t-48 131q0 47 20.5 91t54.5 79.5t76 56t86 20.5q63 0 105.5 -24.5t63.5 -63.5t21 -84q0 -49 -21.5 -94.5t-58 -82t-81 -57.5t-90.5 -21z" />
    <glyph glyph-name="emptyset" unicode="&#x2205;" horiz-adv-x="600" 
d="M270 28q44 0 85.5 16.5t76 46t58 68.5t30.5 83q10 59 -11 107.5t-64.5 77.5t-102.5 29q-44 0 -86 -16.5t-76.5 -46t-57.5 -68.5t-30 -83q-10 -59 11 -107.5t64.5 -77.5t102.5 -29zM269 38q-56 0 -97 27.5t-60 74t-10 102.5t45 102.5t87.5 74t107.5 27.5t97 -27.5
t60.5 -74t10.5 -102.5t-45.5 -102.5t-88 -74t-107.5 -27.5zM82 44l454 388l-5 6l-455 -388z" />
    <glyph glyph-name="product" unicode="&#x220f;" horiz-adv-x="600" 
d="M130 0h80l110 630h120l-110 -630h80l110 630h85l10 70h-450l-10 -70h85z" />
    <glyph glyph-name="summation" unicode="&#x2211;" horiz-adv-x="600" 
d="M65 0h400l2 8h-386l223 343l-109 341h386l1 8h-400l112 -348z" />
    <glyph glyph-name="minus" unicode="&#x2212;" horiz-adv-x="573" 
d="M86 265h437l2 10h-437z" />
    <glyph glyph-name="uni2215" unicode="&#x2215;" 
d="M528 700l-567 -849h12l567 848z" />
    <glyph glyph-name="uni2219" unicode="&#x2219;" horiz-adv-x="252" 
d="M165 449q0 -3 1 -5.5t3.5 -4t5.5 -1.5q2 0 5 1.5t5 4.5t2 5q0 3 -1 5.5t-3 4t-5 1.5t-6 -1.5t-4.5 -4t-2.5 -5.5z" />
    <glyph glyph-name="radical" unicode="&#x221a;" horiz-adv-x="600" 
d="M178 -113l-44 343l7 -4l-96 -21l-2 8l99 21l43 -322l-10 -2l245 790h164l-1 -9h-162l8 3z" />
    <glyph glyph-name="infinity" unicode="&#x221e;" horiz-adv-x="826" 
d="M169 74q108 0 251 173q42 -87 90 -130t103 -43q46 0 88 25t72.5 66t38.5 90q8 48 -8.5 89.5t-51 66.5t-79.5 25q-108 0 -251 -173q-84 173 -193 173q-45 0 -87.5 -25t-73 -66t-38.5 -90t8.5 -90t51 -66t79.5 -25zM168 84q-41 0 -73 24t-47 63t-8 84q8 45 36.5 84t68.5 63
t81 24q54 0 103.5 -45t86.5 -126q-64 -81 -129 -126t-119 -45zM616 84q-54 0 -103.5 45t-86.5 126q64 81 129 126t119 45q42 0 73.5 -23.5t47 -62.5t7.5 -85q-7 -45 -36 -84t-69 -63t-81 -24z" />
    <glyph glyph-name="integral" unicode="&#x222b;" horiz-adv-x="600" 
d="M104 -200q29 0 54.5 17t44 48t27.5 72l159 713q13 59 44.5 93t71.5 34q20 0 35 -10t34 -34l7 7q-18 25 -36 36t-41 11q-29 0 -54.5 -17t-44 -48t-27.5 -72l-159 -713q-13 -58 -44.5 -92.5t-72.5 -34.5q-19 0 -34.5 10t-33.5 34l-7 -7q18 -25 36.5 -36t40.5 -11z" />
    <glyph glyph-name="approxequal" unicode="&#x2248;" horiz-adv-x="600" 
d="M433 322q-30 0 -55.5 17t-52.5 54q-31 42 -56 58t-57 16q-30 0 -55 -18.5t-38.5 -50t-10.5 -70.5l-9 3q-5 38 10 71t43 54t62 21q32 0 61 -19.5t57 -57.5q28 -39 50 -53.5t52 -14.5q45 0 72 38t24 101l10 -3q3 -41 -11 -74t-39 -52.5t-57 -19.5zM400 122q-31 0 -56 17
t-52 54q-31 42 -56 58t-57 16q-30 0 -55 -18.5t-38.5 -50t-10.5 -70.5l-10 3q-4 38 11 71t43 54t62 21q32 0 61 -19.5t57 -57.5q28 -39 49.5 -53.5t51.5 -14.5q44 0 72 38t25 101l9 -3q3 -41 -10.5 -74t-38.5 -52.5t-57 -19.5z" />
    <glyph glyph-name="notequal" unicode="&#x2260;" horiz-adv-x="600" 
d="M72 40l-7 6l479 410l7 -6zM61 185l2 10h485l-2 -10h-485zM82 310l2 10h485l-2 -10h-485z" />
    <glyph glyph-name="lessequal" unicode="&#x2264;" horiz-adv-x="600" 
d="M30 0l2 10h510l-2 -10h-510zM553 75l-475 209l1 6l545 210l-2 -10l-527 -203l459 -202z" />
    <glyph glyph-name="greaterequal" unicode="&#x2265;" horiz-adv-x="600" 
d="M30 0l2 10h510l-2 -10h-510zM43 75l1 10l527 203l-459 202l2 10l475 -209l-1 -6z" />
    <glyph glyph-name="lozenge" unicode="&#x25ca;" horiz-adv-x="600" 
d="M274 15l-149 341l263 340l137 -340zM277 40l234 316l-128 314l-244 -315z" />
    <glyph glyph-name="uniFF10" unicode="&#xff10;" horiz-adv-x="534" 
d="M97 350q9 60 30 121.5t54 113.5t78 83.5t101 31.5q45 0 74.5 -22.5t46 -60t22.5 -83.5t5 -93.5t-6 -90.5q-8 -60 -29 -121.5t-54.5 -113.5t-78.5 -83.5t-101 -31.5q-45 0 -74 22.5t-45.5 60t-22.5 83.5t-5.5 94t5.5 90zM86 350q-5 -45 -5.5 -94.5t6.5 -96.5t24.5 -85
t48.5 -60.5t79 -22.5q59 0 105.5 31.5t81.5 84t56.5 116.5t30.5 127q5 46 6 95.5t-6 96.5t-25 85t-49 60.5t-78 22.5q-59 0 -106 -31.5t-81.5 -84.5t-56.5 -117t-31 -127z" />
    <glyph glyph-name="uniFF11" unicode="&#xff11;" horiz-adv-x="534" 
d="M245 655l171 36l-119 -691h10l122 705l-182 -39z" />
    <glyph glyph-name="uniFF12" unicode="&#xff12;" horiz-adv-x="534" 
d="M15 0h441l1 10l-416 1l350 317q42 39 79 84.5t47 106.5q8 44 -5.5 88t-49.5 74t-96 30q-66 1 -116.5 -34.5t-83 -92.5t-45.5 -123h10q13 63 43.5 118t79 89t111.5 33q58 0 91.5 -28.5t45.5 -70t4 -83.5q-6 -40 -25 -72.5t-45 -59.5t-54 -53z" />
    <glyph glyph-name="uniFF13" unicode="&#xff13;" horiz-adv-x="534" 
d="M275 363q40 2 80 13.5t74 32.5t57.5 52.5t30.5 72.5q8 45 -7.5 85t-51.5 65.5t-91 25.5q-57 1 -101 -24t-72.5 -66.5t-40.5 -92.5h10q12 48 39 87.5t69 63t96 22.5q51 0 85 -24.5t48.5 -62.5t6.5 -80q-9 -51 -46 -86.5t-86.5 -54t-97.5 -21.5zM242 -9q59 0 108.5 23.5
t82.5 65t42 95.5q7 46 -8 81t-45 59t-68.5 37.5t-77.5 15.5l-1 -8q36 -2 72 -14.5t65.5 -35.5t44.5 -56.5t8 -78.5q-8 -50 -39.5 -89.5t-79 -62t-104.5 -22.5q-61 0 -99.5 24.5t-55 66.5t-10.5 93h-10q-6 -53 12 -97.5t59 -70.5t104 -26z" />
    <glyph glyph-name="uniFF14" unicode="&#xff14;" horiz-adv-x="534" 
d="M20 141l478 -1l2 10h-110h-4h-355zM32 141l440 524l-89 -518v-5l-25 -142h11l120 700h-2l-467 -559h12z" />
    <glyph glyph-name="uniFF15" unicode="&#xff15;" horiz-adv-x="534" 
d="M484 230q8 57 -8.5 105.5t-54.5 79t-95 31.5q-61 1 -112.5 -24.5t-82.5 -61.5l-23 -31q44 46 98 77t120 30q54 -1 90 -30.5t51 -76t7 -99.5q-10 -67 -45.5 -119t-88 -81t-115.5 -29q-73 0 -112.5 38.5t-57.5 102.5l-8 -5q17 -66 59 -106t118 -40q49 0 93 17t79 49t58 76
t30 97zM266 690h314l2 10h-321l-153 -372l23 32z" />
    <glyph glyph-name="uniFF16" unicode="&#xff16;" horiz-adv-x="534" 
d="M76 220q10 55 44 102t86.5 76.5t117.5 28.5q54 -1 91.5 -31t55 -77t9.5 -99q-9 -59 -42.5 -109.5t-84.5 -80t-114 -29.5q-61 1 -100.5 32t-55.5 81t-7 106zM420 699l-273 -320q-26 -31 -49.5 -73t-31.5 -86q-9 -60 7 -112.5t58 -84.5t108 -32q67 0 120 31t87 83t43 115
q8 55 -9.5 104t-57 80.5t-97.5 32.5q-56 1 -103.5 -22.5t-85.5 -58.5h1l295 343h-12z" />
    <glyph glyph-name="uniFF17" unicode="&#xff17;" horiz-adv-x="534" 
d="M141 690h441l-472 -690h10l480 700h-457z" />
    <glyph glyph-name="uniFF18" unicode="&#xff18;" horiz-adv-x="534" 
d="M164 541q-5 -33 3.5 -64t28 -55.5t47 -38.5t60.5 -14q34 0 66.5 13.5t60.5 37.5t46.5 55t24.5 66q5 32 -2.5 62t-26.5 54t-47 38.5t-64 14.5q-49 0 -91 -23.5t-70 -62t-36 -83.5zM174 541q7 43 34 79t66.5 58t85.5 22t77.5 -23t46 -59t7.5 -77q-7 -44 -36.5 -82
t-70.5 -60.5t-81 -22.5q-38 1 -70 24.5t-48.5 61t-10.5 79.5zM84 185q-6 -38 0.5 -73t26.5 -62t52 -43t76 -16t81.5 15t66.5 42t47.5 62t24.5 75q6 38 -3.5 71.5t-31 59.5t-52.5 41t-69 15q-39 0 -75.5 -14.5t-66.5 -40.5t-50.5 -59.5t-26.5 -72.5zM94 185q8 50 39.5 90.5
t76.5 65t93 24.5q47 0 82.5 -25.5t53 -66t10.5 -88.5q-8 -51 -36.5 -93t-73 -66.5t-100.5 -24.5q-55 0 -90 26t-49 68t-6 90z" />
    <glyph glyph-name="uniFF19" unicode="&#xff19;" horiz-adv-x="534" 
d="M524 480q-10 -54 -44 -101.5t-86.5 -76.5t-118.5 -28q-54 1 -91.5 30.5t-54 76.5t-9.5 99q9 60 42.5 110t84.5 80.5t113 29.5q62 0 101.5 -31.5t55.5 -81.5t7 -107zM179 0l273 321q27 32 50.5 73.5t31.5 85.5q9 61 -7.5 113t-58 84.5t-107.5 32.5t-119.5 -31t-87.5 -83
t-44 -116q-7 -54 10.5 -103.5t57 -81t97.5 -32.5q56 -1 103.5 22.5t84.5 59.5l-1 -1l-295 -344h12z" />
    <glyph glyph-name="a.alt" horiz-adv-x="422" 
d="M45 134q8 45 35.5 74.5t66 44t78.5 14.5q38 0 72 -12t62 -36l2 11q-20 18 -54.5 32.5t-80.5 14.5q-47 0 -88 -17t-68 -49t-35 -77q-6 -44 9 -76t45 -49.5t68 -17.5q48 0 88 23t68 64t38 96l-5 10q-16 -85 -67.5 -134t-119.5 -49q-55 0 -89.5 35.5t-24.5 97.5zM117 403
q20 14 43.5 27t51 22t59.5 8q41 -1 63.5 -15.5t32 -36.5t9.5 -45.5t-3 -42.5l-56 -320h10l55 320q5 42 -3.5 75.5t-34 53.5t-72.5 21q-50 1 -89.5 -18.5t-70.5 -40.5z" />
    <glyph glyph-name="agrave.alt" horiz-adv-x="422" 
d="M45 135q8 44 37 74.5t69.5 46t82.5 15.5q43 0 73.5 -12.5t51.5 -32.5l2 9q-20 18 -49.5 32t-76.5 14q-45 0 -88.5 -17t-73.5 -49t-38 -79q-6 -45 9 -77.5t45 -50t70 -17.5q51 0 90.5 24t65.5 62.5t36 81.5h-5q-10 -41 -36.5 -77t-64.5 -58.5t-85 -22.5q-55 0 -90 35.5
t-25 98.5zM122 396q32 25 70.5 45t85.5 19q41 -1 63 -20.5t29.5 -50.5t2.5 -69l-56 -320h10l55 320q5 40 -3 73.5t-32 54.5t-68 22q-51 1 -91 -20.5t-72 -45.5zM188 707l142 -156l6 4l-139 160z" />
    <glyph glyph-name="aacute.alt" horiz-adv-x="422" 
d="M45 135q8 44 37 74.5t69.5 46t82.5 15.5q43 0 73.5 -12.5t51.5 -32.5l2 9q-20 18 -49.5 32t-76.5 14q-45 0 -88.5 -17t-73.5 -49t-38 -79q-6 -45 9 -77.5t45 -50t70 -17.5q51 0 90.5 24t65.5 62.5t36 81.5h-5q-10 -41 -36.5 -77t-64.5 -58.5t-85 -22.5q-55 0 -90 35.5
t-25 98.5zM122 396q32 25 70.5 45t85.5 19q41 -1 63 -20.5t29.5 -50.5t2.5 -69l-56 -320h10l55 320q5 40 -3 73.5t-32 54.5t-68 22q-51 1 -91 -20.5t-72 -45.5zM432 706l-7 8l-193 -158l6 -5z" />
    <glyph glyph-name="acircumflex.alt" horiz-adv-x="422" 
d="M45 135q8 44 37 74.5t69.5 46t82.5 15.5q43 0 73.5 -12.5t51.5 -32.5l2 9q-20 18 -49.5 32t-76.5 14q-45 0 -88.5 -17t-73.5 -49t-38 -79q-6 -45 9 -77.5t45 -50t70 -17.5q51 0 90.5 24t65.5 62.5t36 81.5h-5q-10 -41 -36.5 -77t-64.5 -58.5t-85 -22.5q-55 0 -90 35.5
t-25 98.5zM122 396q32 25 70.5 45t85.5 19q41 -1 63 -20.5t29.5 -50.5t2.5 -69l-56 -320h10l55 320q5 40 -3 73.5t-32 54.5t-68 22q-51 1 -91 -20.5t-72 -45.5zM315 675l126 -135l7 7l-132 140l-179 -139l6 -7z" />
    <glyph glyph-name="atilde.alt" horiz-adv-x="422" 
d="M45 135q8 44 37 74.5t69.5 46t82.5 15.5q43 0 73.5 -12.5t51.5 -32.5l2 9q-20 18 -49.5 32t-76.5 14q-45 0 -88.5 -17t-73.5 -49t-38 -79q-6 -45 9 -77.5t45 -50t70 -17.5q51 0 90.5 24t65.5 62.5t36 81.5h-5q-10 -41 -36.5 -77t-64.5 -58.5t-85 -22.5q-55 0 -90 35.5
t-25 98.5zM122 396q32 25 70.5 45t85.5 19q41 -1 63 -20.5t29.5 -50.5t2.5 -69l-56 -320h10l55 320q5 40 -3 73.5t-32 54.5t-68 22q-51 1 -91 -20.5t-72 -45.5zM167 582l8 -1q7 18 21.5 34t42.5 16q21 0 36.5 -11.5t32 -23t39.5 -11.5q16 0 29 6.5t24 18.5t20 27l-8 3
q-13 -19 -27 -33t-36 -14q-23 0 -39.5 11.5t-32.5 23t-40 11.5q-20 0 -34 -8.5t-22.5 -21.5t-13.5 -27z" />
    <glyph glyph-name="adieresis.alt" horiz-adv-x="422" 
d="M45 135q8 44 37 74.5t69.5 46t82.5 15.5q43 0 73.5 -12.5t51.5 -32.5l2 9q-20 18 -49.5 32t-76.5 14q-45 0 -88.5 -17t-73.5 -49t-38 -79q-6 -45 9 -77.5t45 -50t70 -17.5q51 0 90.5 24t65.5 62.5t36 81.5h-5q-10 -41 -36.5 -77t-64.5 -58.5t-85 -22.5q-55 0 -90 35.5
t-25 98.5zM122 396q32 25 70.5 45t85.5 19q41 -1 63 -20.5t29.5 -50.5t2.5 -69l-56 -320h10l55 320q5 40 -3 73.5t-32 54.5t-68 22q-51 1 -91 -20.5t-72 -45.5zM352 561q0 -4 2.5 -7.5t6.5 -3.5q5 0 8.5 3.5t4.5 7.5q0 5 -2.5 8t-6.5 3t-8 -3t-5 -8zM197 561q-1 -4 2 -7.5
t7 -3.5t8 3.5t4 7.5q1 5 -1.5 8t-7.5 3q-4 0 -8 -3t-4 -8z" />
    <glyph glyph-name="aring.alt" horiz-adv-x="422" 
d="M45 135q8 44 37 74.5t69.5 46t82.5 15.5q43 0 73.5 -12.5t51.5 -32.5l2 9q-20 18 -49.5 32t-76.5 14q-45 0 -88.5 -17t-73.5 -49t-38 -79q-6 -45 9 -77.5t45 -50t70 -17.5q51 0 90.5 24t65.5 62.5t36 81.5h-5q-10 -41 -36.5 -77t-64.5 -58.5t-85 -22.5q-55 0 -90 35.5
t-25 98.5zM122 396q32 25 70.5 45t85.5 19q41 -1 63 -20.5t29.5 -50.5t2.5 -69l-56 -320h10l55 320q5 40 -3 73.5t-32 54.5t-68 22q-51 1 -91 -20.5t-72 -45.5zM207 631q-6 -40 18.5 -70t64.5 -30q27 0 52 13t42.5 35.5t21.5 50.5q4 27 -6 49.5t-29.5 36.5t-46.5 14
t-52 -13.5t-42.5 -35.5t-22.5 -50zM217 630q4 25 20 45.5t39 33t47 11.5q36 -1 57 -27.5t16 -62.5q-3 -24 -19 -44.5t-39 -32.5t-47 -12q-36 1 -57.5 27.5t-16.5 61.5z" />
    <glyph glyph-name="amacron.alt" horiz-adv-x="422" 
d="M45 135q8 44 37 74.5t69.5 46t82.5 15.5q43 0 73.5 -12.5t51.5 -32.5l2 9q-20 18 -49.5 32t-76.5 14q-45 0 -88.5 -17t-73.5 -49t-38 -79q-6 -45 9 -77.5t45 -50t70 -17.5q51 0 90.5 24t65.5 62.5t36 81.5h-5q-10 -41 -36.5 -77t-64.5 -58.5t-85 -22.5q-55 0 -90 35.5
t-25 98.5zM122 396q32 25 70.5 45t85.5 19q41 -1 63 -20.5t29.5 -50.5t2.5 -69l-56 -320h10l55 320q5 40 -3 73.5t-32 54.5t-68 22q-51 1 -91 -20.5t-72 -45.5zM123 550h340l2 10h-340z" />
    <glyph glyph-name="abreve.alt" horiz-adv-x="422" 
d="M45 135q8 44 37 74.5t69.5 46t82.5 15.5q43 0 73.5 -12.5t51.5 -32.5l2 9q-20 18 -49.5 32t-76.5 14q-45 0 -88.5 -17t-73.5 -49t-38 -79q-6 -45 9 -77.5t45 -50t70 -17.5q51 0 90.5 24t65.5 62.5t36 81.5h-5q-10 -41 -36.5 -77t-64.5 -58.5t-85 -22.5q-55 0 -90 35.5
t-25 98.5zM122 396q32 25 70.5 45t85.5 19q41 -1 63 -20.5t29.5 -50.5t2.5 -69l-56 -320h10l55 320q5 40 -3 73.5t-32 54.5t-68 22q-51 1 -91 -20.5t-72 -45.5zM152 680q-3 -36 9.5 -68t43 -51.5t77.5 -19.5q49 0 85.5 19.5t59.5 51t33 67.5h-10q-10 -33 -32.5 -62.5
t-56.5 -47.5t-78 -18q-43 0 -71 18t-40.5 47.5t-9.5 63.5h-10z" />
    <glyph glyph-name="aogonek.alt" horiz-adv-x="422" 
d="M45 135q8 44 37 74.5t69.5 46t82.5 15.5q43 0 73.5 -12.5t51.5 -32.5l2 9q-20 18 -49.5 32t-76.5 14q-45 0 -88.5 -17t-73.5 -49t-38 -79q-6 -45 9 -77.5t45 -50t70 -17.5q51 0 90.5 24t65.5 62.5t36 81.5h-5q-10 -41 -36.5 -77t-64.5 -58.5t-85 -22.5q-55 0 -90 35.5
t-25 98.5zM122 396q32 25 70.5 45t85.5 19q41 -1 63 -20.5t29.5 -50.5t2.5 -69l-56 -320h10l55 320q5 40 -3 73.5t-32 54.5t-68 22q-51 1 -91 -20.5t-72 -45.5zM331 -173q-17 -13 -41.5 -25t-53.5 -11q-34 0 -58 17.5t-20 51.5q5 34 33.5 59.5t66.5 45.5t70 35l-6 10
q-34 -16 -72.5 -36.5t-67 -48t-34.5 -64.5q-5 -37 20 -58.5t67 -21.5q31 -1 57.5 11t44.5 27z" />
    </font>
</defs>
</svg>
